osu file format v14

[General]
AudioFilename: audio.mp3
AudioLeadIn: 0
PreviewTime: 76754
Countdown: 0
SampleSet: Soft
StackLeniency: 0.3
Mode: 0
LetterboxInBreaks: 0
WidescreenStoryboard: 0

[Editor]
DistanceSpacing: 1
BeatDivisor: 8
GridSize: 16
TimelineZoom: 4.799998

[Metadata]
Title:RAMSING
TitleUnicode:RAMSING
Artist:SIDxRAM
ArtistUnicode:SID×RAM
Creator:Ksardas
Version:CULT LEADER METAMORPHOSIS
Source:
Tags:SID RAM РАМСИНГ sharu 0ppinosu -atri- firis mistlud kurantemelodii krt Сид Рам Рэм Сидоджи Дубоshit Дубощит Sidodzhi Duboshit Грязный Рамирес Gryazniy Ramires dnb drum and bass neurofunk russian rap Мочивилс 2 II Mochivils Gydra Split Attack Soul King EP electronic russian and x piroshki
BeatmapID:2376713
BeatmapSetID:1137778

[Difficulty]
HPDrainRate:4
CircleSize:4
OverallDifficulty:9
ApproachRate:9.6
SliderMultiplier:2.3
SliderTickRate:0.5

[Events]
//Background and Video events
0,0,"MOSHED-2020-3-29-23-1-7.jpg",0,0
//Break Periods
//Storyboard Layer 0 (Background)
//Storyboard Layer 1 (Fail)
//Storyboard Layer 2 (Pass)
//Storyboard Layer 3 (Foreground)
//Storyboard Layer 4 (Overlay)
//Storyboard Sound Samples

[TimingPoints]
30,344.827586206897,4,2,5,50,1,0
30,-185.185185185185,4,2,5,50,0,0
2616,-185.185185185185,4,2,5,5,0,0
2788,-200,4,2,5,50,0,0
4081,-200,4,2,5,5,0,0
4167,-200,4,2,5,50,0,0
5547,-172.413793103448,4,2,5,50,0,0
8133,-172.413793103448,4,2,5,5,0,0
8305,-200,4,2,5,50,0,0
9598,-172.413793103448,4,2,5,5,0,0
9685,-400,4,2,5,50,0,0
10288,-172.413793103448,4,2,5,5,0,0
10374,-200,4,2,5,50,0,0
10978,-172.413793103448,4,2,5,5,0,0
11064,-100,4,2,5,50,0,0
11323,-172.413793103448,4,2,5,5,0,0
11409,-133.333333333333,4,2,5,50,0,0
11581,-133.333333333333,4,2,4,50,0,0
12788,-200,4,2,4,50,0,0
13823,-66.6666666666667,4,2,5,50,0,0
13844,-66.6666666666667,4,2,4,50,0,0
14167,-133.333333333333,4,2,4,50,0,0
15202,-50,4,2,5,50,0,0
15223,-50,4,2,4,50,0,0
15245,-172.413793103448,4,2,4,5,0,0
15374,-50,4,2,4,50,0,0
15547,-133.333333333333,4,2,4,50,0,0
16581,-50,4,2,5,50,0,0
16603,-50,4,2,4,50,0,0
17616,-100,4,2,4,50,0,0
19340,-50,4,2,5,50,0,0
19362,-50,4,2,4,50,0,0
19685,-100,4,2,4,50,0,0
20719,-66.6666666666667,4,2,4,50,0,0
22098,-66.6666666666667,4,2,4,60,0,0
23133,-50,4,2,4,60,0,0
23478,-66.6666666666667,4,2,4,60,0,0
24857,-50,4,2,4,60,0,0
25374,-40,4,2,4,60,0,0
25719,-66.6666666666667,4,2,4,60,0,0
26236,-40,4,2,4,60,0,0
26581,-50,4,2,4,60,0,0
26754,-40,4,2,4,60,0,0
27788,-100,4,2,4,60,0,0
28133,-40,4,2,4,60,0,0
28478,-100,4,2,4,60,0,0
28650,-40,4,2,4,60,0,0
29167,-100,4,2,4,60,0,0
29512,-40,4,2,4,60,0,0
30374,-40,4,2,3,70,0,0
30461,-40,4,2,3,5,0,0
30547,-100,4,2,3,70,0,0
30633,-40,4,2,3,5,0,0
30719,-40,4,2,3,70,0,0
30805,-40,4,2,3,5,0,0
30892,-100,4,2,3,70,0,0
30978,-40,4,2,3,5,0,0
31064,-40,4,2,3,70,0,0
31150,-40,4,2,3,5,0,0
31236,-100,4,2,3,70,0,0
31323,-40,4,2,3,5,0,0
31409,-40,4,2,3,70,0,0
31495,-40,4,2,3,5,0,0
31581,-100,4,2,3,70,0,0
31667,-40,4,2,3,5,0,0
31754,-400,4,2,5,65,0,0
32443,-40,4,2,5,5,0,0
32616,-100,4,2,1,60,0,0
32702,-40,4,2,1,5,0,0
32788,-66.6666666666667,4,2,1,60,0,0
32874,-40,4,2,1,5,0,0
32961,-50,4,2,1,60,0,0
33047,-40,4,2,1,5,0,0
33133,-40,4,2,1,65,0,0
33478,-50,4,2,1,65,0,0
33823,-66.6666666666667,4,2,1,65,0,0
34167,-40,4,2,1,65,0,0
34297,-40,4,2,1,5,0,0
34340,-50,4,2,1,65,0,0
34685,-66.6666666666667,4,2,1,65,0,0
35030,-40,4,2,1,65,0,0
35374,-33.3333333333333,4,2,1,65,0,0
35547,-66.6666666666667,4,2,1,65,0,0
36193,-40,4,2,1,5,0,0
36236,-40,4,2,1,65,0,0
36581,-66.6666666666667,4,2,1,65,0,0
36711,-40,4,2,1,5,0,0
36754,-66.6666666666667,4,2,1,65,0,0
37271,-40,4,2,1,65,0,0
37616,-50,4,2,1,65,0,0
38305,-40,4,2,1,65,0,0
38435,-40,4,2,1,5,0,0
38478,-66.6666666666667,4,2,1,65,0,0
38650,-66.6666666666667,4,2,5,65,0,0
38672,-66.6666666666667,4,2,1,65,0,0
39340,-40,4,2,1,65,0,0
40762,-40,4,2,1,5,0,0
40805,-40,4,2,1,65,0,0
41064,-100,4,2,1,65,0,0
41236,-66.6666666666667,4,2,1,65,0,0
41409,-80,4,2,1,65,0,0
43133,-66.6666666666667,4,2,1,65,0,0
43305,-80,4,2,1,65,0,0
43478,-40,4,2,1,65,0,0
43650,-50,4,2,1,65,0,0
43823,-133.333333333333,4,2,5,65,0,0
44124,-40,4,2,5,5,0,0
44167,-40,4,2,1,65,0,0
44469,-40,4,2,1,5,0,0
44512,-40,4,2,1,65,0,0
45805,-39.2156862745098,4,2,1,65,0,0
46021,-40,4,2,1,5,0,0
46064,-39.2156862745098,4,2,1,65,0,0
46581,-66.6666666666667,4,2,1,65,0,0
46754,-40,4,2,1,65,0,0
47271,-50,4,2,1,65,0,0
47616,-40,4,2,1,65,0,0
47874,-80,4,2,1,65,0,0
48075,-40,4,2,1,65,0,0
49254,-66.6666666666667,4,2,1,65,0,0
49512,-40,4,2,1,65,0,0
49685,-36.3636363636364,4,2,1,65,0,0
49986,-40,4,2,1,5,0,0
50030,-36.3636363636364,4,2,1,65,0,0
50633,-66.6666666666667,4,2,1,65,0,0
50805,-40,4,2,1,65,0,0
51883,-40,4,2,1,65,0,0
51926,-50,4,2,1,65,0,0
53823,-100,4,2,1,65,0,0
55202,-40,4,2,1,65,0,0
55245,-40,4,2,1,5,0,0
55288,-40,4,2,1,65,0,0
55331,-40,4,2,1,5,0,0
55374,-80,4,2,1,65,0,0
55892,-50,4,2,1,65,0,0
56236,-66.6666666666667,4,2,1,65,0,0
56581,-40,4,2,1,65,0,0
56624,-40,4,2,1,5,0,0
56667,-40,4,2,1,65,0,0
56711,-40,4,2,1,5,0,0
56754,-80,4,2,1,65,0,0
57271,-66.6666666666667,4,2,1,65,0,0
57616,-40,4,2,1,65,0,0
57745,-40,4,2,1,5,0,0
57788,-66.6666666666667,4,2,1,65,0,0
57961,-44.4444444444445,4,2,1,65,0,0
58004,-40,4,2,1,5,0,0
58047,-44.4444444444445,4,2,1,65,0,0
58090,-40,4,2,1,5,0,0
58133,-89.2857142857143,4,2,1,65,0,0
58305,-44.4444444444445,4,2,1,65,0,0
58650,-66.6666666666667,4,2,1,65,0,0
58823,-44.4444444444445,4,2,1,65,0,0
59469,-40,4,2,1,5,0,0
59512,-44.4444444444445,4,2,1,65,0,0
60374,-40,4,2,1,65,0,0
61193,-40,4,2,1,5,0,0
61236,-66.6666666666667,4,2,1,65,0,0
61581,-50,4,2,1,65,0,0
62573,-40,4,2,1,5,0,0
62616,-50,4,2,1,65,0,0
62917,-40,4,2,1,5,0,0
62961,-50,4,2,1,65,0,0
63305,-100,4,2,1,65,0,0
64857,-50,4,2,1,65,0,0
65159,-40,4,2,1,5,0,0
65202,-50,4,2,1,65,0,0
65374,-40,4,2,1,65,0,0
65676,-40,4,2,1,5,0,0
65719,-40,4,2,1,65,0,0
66236,-40,4,2,5,65,0,0
66258,-40,4,2,1,65,0,0
67098,-66.6666666666667,4,2,1,65,0,0
67443,-66.6666666666667,4,2,5,65,0,0
67465,-66.6666666666667,4,2,1,65,0,0
67616,-40,4,2,1,65,0,0
67745,-40,4,2,1,5,0,0
67788,-40,4,2,1,65,0,0
68133,-50,4,2,1,65,0,0
69167,-57.1428571428571,4,2,1,65,0,0
69340,-66.6666666666667,4,2,1,65,0,0
69685,-50,4,2,1,65,0,0
69814,-40,4,2,1,5,0,0
69857,-50,4,2,1,65,0,0
70504,-40,4,2,1,5,0,0
70547,-50,4,2,1,65,0,0
70892,-40,4,2,1,65,0,0
71236,-50,4,2,1,65,0,0
71754,-40,4,2,1,65,0,0
72573,-40,4,2,1,5,0,0
72616,-40,4,2,1,65,0,0
73305,-66.6666666666667,4,2,1,65,0,0
73478,-40,4,2,1,65,0,0
73607,-40,4,2,1,5,0,0
73650,-66.6666666666667,4,2,1,65,0,0
73823,-50,4,2,1,65,0,0
76581,-50,4,2,1,65,0,0
76840,-133.333333333333,4,2,1,65,0,0
76883,-40,4,2,1,5,0,0
76926,-50,4,2,1,65,0,0
77228,-50,4,2,1,5,0,0
77271,-33.3333333333333,4,2,3,75,0,1
77292,-33.3333333333333,4,2,1,75,0,1
77573,-33.3333333333333,4,2,1,75,0,1
77616,-33.3333333333333,4,2,1,75,0,1
77788,-40,4,2,1,75,0,1
78866,-40,4,2,1,5,0,1
78909,-40,4,2,1,75,0,1
78995,-40,4,2,1,75,0,1
79340,-50,4,2,1,75,0,1
79685,-36.3636363636364,4,2,1,75,0,1
79900,-40,4,2,1,5,0,1
79943,-36.3636363636364,4,2,1,75,0,1
80202,-50,4,2,1,75,0,1
80504,-40,4,2,1,5,0,1
80547,-66.6666666666667,4,2,1,75,0,1
80892,-40,4,2,1,75,0,1
81064,-50,4,2,1,75,0,1
81236,-44.4444444444445,4,2,1,75,0,1
81409,-40,4,2,1,75,0,1
82443,-36.3636363636364,4,2,1,75,0,1
82788,-40,4,2,1,75,0,1
83090,-40,4,2,1,5,0,1
83133,-40,4,2,1,75,0,1
83650,-66.6666666666667,4,2,1,75,0,1
84167,-40,4,2,1,75,0,1
84685,-40,4,2,1,75,0,1
85030,-50,4,2,1,75,0,1
85202,-40,4,2,1,75,0,1
85417,-40,4,2,1,5,0,1
85461,-40,4,2,1,75,0,1
85719,-100,4,2,1,75,0,1
85892,-40,4,2,1,75,0,1
87616,-50,4,2,1,75,0,1
88047,-40,4,2,1,75,0,1
88262,-40,4,2,1,5,0,1
88305,-40,4,2,3,75,0,1
88326,-40,4,2,1,75,0,1
88607,-40,4,2,1,5,0,1
88650,-40,4,2,1,75,0,1
89340,-66.6666666666667,4,2,1,75,0,1
89685,-40,4,2,1,75,0,1
90374,-66.6666666666667,4,2,1,75,0,1
90719,-33.3333333333333,4,2,1,75,0,1
91064,-40,4,2,1,75,0,1
91236,-100,4,2,1,75,0,1
91409,-66.6666666666667,4,2,1,75,0,1
91926,-33.3333333333333,4,2,1,75,0,1
92098,-66.6666666666667,4,2,1,75,0,1
92443,-40,4,2,1,75,0,1
92917,-40,4,2,1,5,0,1
92961,-66.6666666666667,4,2,1,75,0,1
93478,-40,4,2,1,75,0,1
93736,-40,4,2,1,5,0,1
93823,-33.3333333333333,4,2,1,75,0,1
94642,-40,4,2,1,5,0,1
94685,-40,4,2,1,75,0,1
95030,-50,4,2,1,75,0,1
95202,-40,4,2,1,75,0,1
95547,-66.6666666666667,4,2,1,75,0,1
96064,-33.3333333333333,4,2,1,75,0,1
96452,-40,4,2,1,5,0,1
96495,-33.3333333333333,4,2,1,75,0,0
97098,-100,4,2,1,75,0,0
97961,-66.6666666666667,4,2,1,75,0,0
98650,-66.6666666666667,4,2,1,75,0,0
98736,-40,4,2,1,5,0,0
98823,-33.3333333333333,4,2,1,75,0,0
98909,-40,4,2,1,5,0,0
98995,-133.333333333333,4,2,1,75,0,0
99254,-40,4,2,1,5,0,0
99340,-166.666666666667,4,2,5,50,0,0
101926,-166.666666666667,4,2,5,5,0,0
102098,-172.413793103448,4,2,5,50,0,0
103435,-166.666666666667,4,2,5,5,0,0
103478,-172.413793103448,4,2,5,50,0,0
107573,-166.666666666667,4,2,5,5,0,0
107616,-172.413793103448,4,2,5,50,0,0
109598,-166.666666666667,4,2,5,5,0,0
109685,-172.413793103448,4,2,5,50,0,0
110288,-166.666666666667,4,2,5,5,0,0
110374,-100,4,2,4,50,0,0
111409,-66.6666666666667,4,2,4,50,0,0
111754,-83.3333333333333,4,2,4,50,0,0
113133,-66.6666666666667,4,2,4,55,0,0
113650,-57.1428571428571,4,2,4,55,0,0
113995,-66.6666666666667,4,2,4,55,0,0
114167,-50,4,2,4,55,0,0
114512,-40,4,2,4,55,0,0
114857,-50,4,2,4,55,0,0
115030,-40,4,2,4,55,0,0
115547,-44.4444444444445,4,2,4,55,0,0
115892,-44.4444444444445,4,2,4,60,0,0
116064,-100,4,2,4,60,0,0
116409,-40,4,2,4,60,0,0
116754,-100,4,2,4,60,0,0
116926,-40,4,2,4,60,0,0
117271,-40,4,2,4,65,0,0
117443,-100,4,2,4,65,0,0
117788,-40,4,2,4,65,0,0
118650,-40,4,2,3,70,0,0
118736,-40,4,2,3,5,0,0
118823,-100,4,2,3,70,0,0
118909,-40,4,2,3,5,0,0
118995,-40,4,2,3,70,0,0
119081,-40,4,2,3,5,0,0
119167,-100,4,2,3,70,0,0
119254,-40,4,2,3,5,0,0
119340,-40,4,2,3,70,0,0
119426,-40,4,2,3,5,0,0
119512,-100,4,2,3,70,0,0
119598,-40,4,2,3,5,0,0
119685,-40,4,2,3,70,0,0
119771,-40,4,2,3,5,0,0
119857,-100,4,2,3,70,0,0
119943,-40,4,2,3,5,0,0
120030,-400,4,2,5,65,0,0
120892,-100,4,2,1,60,0,0
120978,-40,4,2,1,5,0,0
121064,-66.6666666666667,4,2,1,60,0,0
121150,-40,4,2,1,5,0,0
121236,-50,4,2,1,60,0,0
121323,-40,4,2,1,5,0,0
121409,-40,4,2,1,65,0,0
121624,-40,4,2,1,5,0,0
121667,-40,4,2,1,65,0,0
121754,-66.6666666666667,4,2,1,65,0,0
121926,-50,4,2,1,65,0,0
122098,-33.3333333333333,4,2,1,65,0,0
122616,-50,4,2,1,65,0,0
123650,-66.6666666666667,4,2,1,65,0,0
123823,-50,4,2,1,65,0,0
123995,-44.4444444444445,4,2,1,65,0,0
124167,-36.3636363636364,4,2,1,65,0,0
124383,-40,4,2,1,5,0,0
124426,-36.3636363636364,4,2,1,65,0,0
124512,-66.6666666666667,4,2,1,65,0,0
124814,-40,4,2,1,5,0,0
124857,-33.3333333333333,4,2,1,65,0,0
125676,-40,4,2,1,5,0,0
125719,-66.6666666666667,4,2,1,65,0,0
126409,-40,4,2,1,65,0,0
126538,-40,4,2,1,5,0,0
126581,-40,4,2,1,65,0,0
126754,-50,4,2,1,65,0,0
126926,-50,4,2,5,65,0,0
126948,-50,4,2,1,65,0,0
127400,-40,4,2,1,5,0,0
127443,-50,4,2,1,65,0,0
127616,-33.3333333333333,4,2,1,65,0,0
127831,-40,4,2,1,5,0,0
127874,-33.3333333333333,4,2,1,65,0,0
127961,-50,4,2,1,65,0,0
128305,-33.3333333333333,4,2,1,65,0,0
128435,-40,4,2,1,5,0,0
128478,-33.3333333333333,4,2,1,65,0,0
128650,-66.6666666666667,4,2,1,65,0,0
129167,-33.3333333333333,4,2,1,65,0,0
129340,-40,4,2,1,65,0,0
129512,-66.6666666666667,4,2,1,65,0,0
131883,-40,4,2,1,5,0,0
131926,-40,4,2,1,65,0,0
132098,-133.333333333333,4,2,5,65,0,0
132443,-50,4,2,1,65,0,0
132616,-44.4444444444445,4,2,1,65,0,0
132745,-40,4,2,1,5,0,0
132788,-66.6666666666667,4,2,1,65,0,0
132961,-50,4,2,1,65,0,0
133133,-40,4,2,1,65,0,0
133478,-33.3333333333333,4,2,1,65,0,0
133823,-66.6666666666667,4,2,1,65,0,0
134167,-40,4,2,1,65,0,0
134340,-66.6666666666667,4,2,1,65,0,0
134512,-40,4,2,1,65,0,0
134728,-40,4,2,1,5,0,0
134771,-40,4,2,1,65,0,0
134857,-57.1428571428571,4,2,1,65,0,0
134986,-40,4,2,1,5,0,0
135030,-50,4,2,1,65,0,0
135202,-33.3333333333333,4,2,1,65,0,0
135331,-40,4,2,1,5,0,0
135374,-40,4,2,1,65,0,0
135547,-33.3333333333333,4,2,1,65,0,0
135676,-40,4,2,1,5,0,0
135719,-33.3333333333333,4,2,1,65,0,0
135848,-40,4,2,1,5,0,0
135892,-66.6666666666667,4,2,1,65,0,0
136064,-50,4,2,1,65,0,0
136193,-40,4,2,1,5,0,0
136236,-33.3333333333333,4,2,1,65,0,0
136366,-40,4,2,1,5,0,0
136409,-66.6666666666667,4,2,1,65,0,0
136926,-33.3333333333333,4,2,1,65,0,0
137055,-40,4,2,1,5,0,0
137098,-50,4,2,1,65,0,0
137271,-36.3636363636364,4,2,1,65,0,0
137961,-33.3333333333333,4,2,1,65,0,0
138090,-40,4,2,1,5,0,0
138133,-100,4,2,1,65,0,0
138305,-36.3636363636364,4,2,1,65,0,0
138650,-33.3333333333333,4,2,1,65,0,0
139340,-50,4,2,1,65,0,0
139512,-40,4,2,1,65,0,0
139814,-40,4,2,1,5,0,0
139857,-40,4,2,1,65,0,0
140030,-33.3333333333333,4,2,1,65,0,0
142098,-100,4,2,1,65,0,0
142271,-80,4,2,1,65,0,0
142443,-66.6666666666667,4,2,1,65,0,0
142616,-57.1428571428571,4,2,1,65,0,0
142788,-36.3636363636364,4,2,1,65,0,0
142961,-33.3333333333333,4,2,1,65,0,0
143478,-33.3333333333333,4,2,1,65,0,0
143823,-50,4,2,1,65,0,0
144167,-40,4,2,1,65,0,0
144340,-33.3333333333333,4,2,1,65,0,0
144469,-33.3333333333333,4,2,1,5,0,0
144512,-66.6666666666667,4,2,1,65,0,0
144685,-40,4,2,1,65,0,0
144986,-33.3333333333333,4,2,1,5,0,0
145030,-50,4,2,1,65,0,0
145374,-100,4,2,1,65,0,0
145547,-40,4,2,1,65,0,0
145848,-33.3333333333333,4,2,1,5,0,0
145892,-40,4,2,1,65,0,0
146236,-33.3333333333333,4,2,1,65,0,0
146581,-66.6666666666667,4,2,1,65,0,0
146926,-44.4444444444445,4,2,1,65,0,0
147443,-66.6666666666667,4,2,1,65,0,0
147616,-33.3333333333333,4,2,1,65,0,0
147745,-33.3333333333333,4,2,1,5,0,0
147788,-50,4,2,1,65,0,0
148133,-66.6666666666667,4,2,1,65,0,0
148305,-40,4,2,1,65,0,0
148478,-50,4,2,1,65,0,0
149167,-33.3333333333333,4,2,1,65,0,0
149297,-33.3333333333333,4,2,1,5,0,0
149340,-40,4,2,1,65,0,0
149469,-33.3333333333333,4,2,1,5,0,0
149512,-40,4,2,1,65,0,0
149857,-33.3333333333333,4,2,1,65,0,0
149986,-33.3333333333333,4,2,1,5,0,0
150030,-40,4,2,1,65,0,0
150202,-66.6666666666667,4,2,1,65,0,0
150374,-40,4,2,1,65,0,0
150504,-33.3333333333333,4,2,1,5,0,0
150547,-40,4,2,1,65,0,0
150719,-50,4,2,1,65,0,0
150892,-33.3333333333333,4,2,1,65,0,0
151366,-33.3333333333333,4,2,1,5,0,0
151409,-33.3333333333333,4,2,1,65,0,0
151754,-400,4,2,1,65,0,0
152788,-33.3333333333333,4,2,1,65,0,0
153133,-50,4,2,1,65,0,0
153435,-33.3333333333333,4,2,1,5,0,0
153478,-50,4,2,1,65,0,0
153650,-40,4,2,1,65,0,0
153952,-33.3333333333333,4,2,1,5,0,0
153995,-40,4,2,1,65,0,0
154512,-40,4,2,5,65,0,0
154534,-40,4,2,1,65,0,0
154814,-33.3333333333333,4,2,1,5,0,0
154857,-40,4,2,1,65,0,0
155159,-33.3333333333333,4,2,1,5,0,0
155202,-40,4,2,1,65,0,0
155374,-50,4,2,1,65,0,0
155547,-66.6666666666667,4,2,1,65,0,0
155719,-66.6666666666667,4,2,5,65,0,0
155741,-66.6666666666667,4,2,1,65,0,0
155892,-40,4,2,1,65,0,0
156021,-33.3333333333333,4,2,1,5,0,0
156064,-40,4,2,1,65,0,0
156236,-100,4,2,1,65,0,0
156409,-66.6666666666667,4,2,1,65,0,0
156754,-33.3333333333333,4,2,1,65,0,0
157055,-33.3333333333333,4,2,1,65,0,0
157098,-33.3333333333333,4,2,1,65,0,0
157788,-50,4,2,1,65,0,0
157961,-33.3333333333333,4,2,1,65,0,0
158090,-33.3333333333333,4,2,1,5,0,0
158133,-66.6666666666667,4,2,1,65,0,0
158305,-40,4,2,1,65,0,0
158478,-80,4,2,1,65,0,0
158650,-50,4,2,1,65,0,0
158823,-40,4,2,1,65,0,0
158995,-66.6666666666667,4,2,1,65,0,0
159167,-33.3333333333333,4,2,1,65,0,0
159297,-33.3333333333333,4,2,1,5,0,0
159340,-33.3333333333333,4,2,1,65,0,0
159426,-50,4,2,1,65,0,0
160030,-33.3333333333333,4,2,1,65,0,0
160374,-66.6666666666667,4,2,1,65,0,0
160719,-50,4,2,1,65,0,0
161064,-40,4,2,1,65,0,0
161409,-50,4,2,1,65,0,0
161754,-33.3333333333333,4,2,1,65,0,0
161883,-33.3333333333333,4,2,1,5,0,0
161926,-50,4,2,1,65,0,0
162098,-40,4,2,1,65,0,0
162573,-33.3333333333333,4,2,1,5,0,0
162616,-40,4,2,1,65,0,0
164857,-40,4,2,1,65,0,0
165116,-133.333333333333,4,2,1,65,0,0
165159,-33.3333333333333,4,2,1,5,0,0
165202,-50,4,2,1,65,0,0
165504,-33.3333333333333,4,2,1,5,0,0
165547,-33.3333333333333,4,2,3,75,0,1
165568,-33.3333333333333,4,2,1,75,0,1
166064,-40,4,2,1,75,0,1
166236,-66.6666666666667,4,2,1,75,0,1
166581,-36.3636363636364,4,2,1,75,0,1
166711,-33.3333333333333,4,2,1,5,0,1
166754,-36.3636363636364,4,2,1,75,0,1
167098,-33.3333333333333,4,2,1,75,0,1
167228,-33.3333333333333,4,2,1,5,0,1
167271,-66.6666666666667,4,2,1,75,0,1
167616,-40,4,2,1,75,0,1
167961,-33.3333333333333,4,2,1,75,0,1
168650,-66.6666666666667,4,2,1,75,0,1
168952,-33.3333333333333,4,2,1,5,0,1
168995,-40,4,2,1,75,0,1
170202,-66.6666666666667,4,2,1,75,0,1
170374,-33.3333333333333,4,2,1,75,0,1
171021,-33.3333333333333,4,2,1,5,0,1
171064,-36.3636363636364,4,2,1,75,0,1
171409,-40,4,2,1,75,0,1
171754,-66.6666666666667,4,2,1,75,0,1
171926,-40,4,2,1,75,0,1
173133,-50,4,2,1,75,0,1
173478,-36.3636363636364,4,2,1,75,0,1
174124,-33.3333333333333,4,2,1,5,0,1
174167,-36.3636363636364,4,2,1,75,0,1
174340,-44.4444444444445,4,2,1,75,0,1
174685,-66.6666666666667,4,2,1,75,0,1
174857,-44.4444444444445,4,2,1,75,0,1
175030,-100,4,2,1,75,0,1
175202,-36.3636363636364,4,2,1,75,0,1
175417,-33.3333333333333,4,2,1,5,0,1
175461,-36.3636363636364,4,2,1,75,0,1
175848,-33.3333333333333,4,2,1,5,0,1
175892,-50,4,2,1,75,0,1
176323,-33.3333333333333,4,2,1,75,0,1
176581,-33.3333333333333,4,2,3,75,0,1
176603,-33.3333333333333,4,2,1,75,0,1
177400,-33.3333333333333,4,2,1,5,0,1
177443,-50,4,2,1,75,0,1
177616,-36.3636363636364,4,2,1,75,0,1
177745,-33.3333333333333,4,2,1,5,0,1
177788,-50,4,2,1,75,0,1
178650,-40,4,2,1,75,0,1
178995,-33.3333333333333,4,2,1,75,0,1
179469,-33.3333333333333,4,2,1,5,0,1
179512,-100,4,2,1,75,0,1
179857,-33.3333333333333,4,2,1,75,0,1
180245,-33.3333333333333,4,2,1,5,0,1
180288,-33.3333333333333,4,2,1,75,0,1
180374,-50,4,2,1,75,0,1
180719,-40,4,2,1,75,0,1
181409,-33.3333333333333,4,2,1,75,0,1
182788,-66.6666666666667,4,2,1,75,0,1
182961,-40,4,2,1,75,0,1
183133,-50,4,2,1,75,0,1
183305,-50,4,2,1,75,0,1
183478,-36.3636363636364,4,2,1,75,0,1
183823,-66.6666666666667,4,2,1,75,0,1
184469,-36.3636363636364,4,2,1,75,0,1
184857,-36.3636363636364,4,2,1,75,0,0
186754,-36.3636363636364,4,2,1,75,0,0
187098,-66.6666666666667,4,2,1,75,0,0
187573,-33.3333333333333,4,2,1,5,0,0
187616,-166.666666666667,4,2,5,50,0,0

[Colours]
Combo1 : 208,87,87
Combo2 : 192,192,192
Combo3 : 128,128,128
Combo4 : 128,0,255
Combo5 : 95,154,226
Combo6 : 225,30,30

[HitObjects]
0,105,30,22,0,B|41:148|-6:183|57:221|57:221|-20:193|-10:88|-10:88|72:104|127:29|127:29|213:220|22:209|125:368|125:368|99:315|134:255,1,931.5000227417,8|0,3:2|0:0,0:0:0:0:
413,58,2788,70,0,B|391:-5|493:-34|561:33|513:113|463:166|386:140|386:140|380:132|380:132|414:177|405:233,1,431.25,10|0,3:2|0:0,0:0:0:0:
332,68,4167,37,6,2:2:0:0:
413,359,5547,38,0,B|531:343|531:343|537:346|537:346|477:288|404:273|404:273|411:277|411:277|392:362|271:365|271:365|275:359|275:359|234:239|46:226|46:226|40:222|40:222|75:356|75:356|72:373|72:373|80:324|132:301,1,1000.50003053284,8|0,3:2|0:0,0:0:0:0:
319,266,8305,6,0,B|357:47|314:267|352:46|352:46|401:64|411:120|411:120|348:147|340:194,1,431.25,10|0,3:2|0:0,0:0:0:0:
442,231,9685,22,0,B|418:231|427:200|454:219|454:219|446:271,1,100.625,2|0,2:2|0:0,0:0:0:0:
391,339,10374,70,0,B|291:314|322:373|226:344|226:344|225:339|225:339|204:338|192:343,1,201.25,2|0,2:2|0:0,0:0:0:0:
8,344,11064,54,0,B|8:363|-5:385|-5:385|50:346|35:246,1,172.5,8|0,3:2|0:0,0:0:0:0:
144,156,11409,6,0,P|104:202|45:195,1,86.2500032901765
69,199,11667,1,0,0:0:0:0:
57,192,11754,1,8,2:2:0:0:
115,277,11926,1,2,0:0:0:0:
0,93,12098,70,0,L|202:72,1,172.500006580353,2|0,0:0|0:0,0:0:0:0:
45,185,12616,1,2,0:0:0:0:
232,321,12788,6,0,B|236:292|236:292|213:260,1,57.5,2|0,0:0|0:0,0:0:0:0:
157,311,13133,1,8,2:2:0:0:
426,197,13305,69,2,0:0:0:0:
379,252,13478,1,2,0:0:0:0:
450,265,13650,1,0,0:0:0:0:
180,147,13823,6,0,B|165:67|139:111|128:42|128:42|135:47|135:47|246:61|246:61|220:83,1,258.75000987053,10|0,3:2|0:0,0:0:0:0:
438,106,14167,70,0,L|331:124,1,86.2500032901765,2|2,0:0|0:0,0:0:0:0:
333,125,14426,1,0,0:0:0:0:
312,129,14512,1,8,2:2:0:0:
450,265,14685,1,2,0:0:0:0:
497,189,14857,1,2,0:0:0:0:
461,280,15030,1,0,0:0:0:0:
46,154,15202,22,0,B|57:181|57:181|57:137,1,57.5,6|0,2:2|0:0,0:0:0:0:
31,284,15374,53,0,0:0:0:0:
149,178,15547,2,0,L|136:295,1,86.2500032901765,2|2,0:0|0:0,0:0:0:0:
42,126,15892,5,10,0:0:0:0:
123,360,16064,69,2,0:0:0:0:
161,364,16150,1,2,0:0:0:0:
195,346,16236,1,2,0:0:0:0:
139,263,16409,1,0,0:0:0:0:
312,16,16581,6,0,B|349:59|401:47|401:47|409:41|409:41|409:45|409:45|465:33|465:33|498:50|515:94|515:94|483:53|432:50,1,345,10|0,0:0|0:0,0:0:0:0:
278,130,16926,69,10,0:0:0:0:
288,109,17012,1,0,0:0:0:0:
311,113,17098,1,0,0:0:0:0:
314,136,17185,1,0,0:0:0:0:
293,146,17271,1,0,0:0:0:0:
181,88,17443,1,0,0:0:0:0:
354,251,17616,5,10,0:0:0:0:
382,247,17702,1,0,0:0:0:0:
411,244,17788,1,0,0:0:0:0:
439,240,17874,1,0,0:0:0:0:
468,237,17961,1,0,0:0:0:0:
490,162,18133,1,0,0:0:0:0:
342,358,18305,69,10,0:0:0:0:
345,366,18392,1,0,0:0:0:0:
348,374,18478,1,0,0:0:0:0:
252,331,18650,1,0,0:0:0:0:
490,339,18823,2,0,L|419:324,1,57.5,0|0,0:0|0:0,0:0:0:0:
70,204,18995,5,10,0:0:0:0:
72,220,19081,1,0,0:0:0:0:
74,236,19167,1,0,0:0:0:0:
76,252,19254,1,0,0:0:0:0:
15,295,19340,70,0,B|7:348|-28:388|-28:388|129:348|108:189,1,345,10|0,3:2|0:0,0:0:0:0:
99,0,19685,6,0,P|68:2|41:24,1,57.5,2|0,3:2|0:0,0:0:0:0:
72,85,19857,1,0,0:0:0:0:
100,83,19943,1,0,0:0:0:0:
124,68,20030,1,0,0:0:0:0:
0,73,20202,1,0,3:2:0:0:
285,28,20374,70,0,L|273:91,1,57.5,10|0,0:0|0:0,0:0:0:0:
355,52,20547,2,0,L|343:115,1,57.5
473,341,20719,6,0,B|458:259|458:259|451:257|451:257|431:145,2,172.500006580353,2|0|10,0:0|3:2|0:0,0:0:0:0:
458,99,21236,70,0,B|500:115|500:115|511:165,1,86.2500032901765
342,322,21409,5,2,0:0:0:0:
365,137,21581,1,0,3:2:0:0:
133,348,21754,69,10,0:0:0:0:
130,327,21840,1,2,0:0:0:0:
127,305,21926,1,2,0:0:0:0:
124,284,22012,1,2,0:0:0:0:
139,214,22098,38,0,P|79:215|51:340,1,172.500006580353,12|0,3:2|3:2,0:0:0:0:
38,315,22357,1,0,3:2:0:0:
42,323,22443,2,0,L|148:304,1,86.2500032901765,0|0,3:2|0:0,0:0:0:0:
264,142,22616,38,0,P|204:141|176:16,1,172.500006580353,10|0,3:2|0:0,0:0:0:0:
163,41,22874,1,8,3:2:0:0:
167,33,22961,2,0,L|273:51,1,86.2500032901765,0|0,3:2|3:2,0:0:0:0:
344,141,23133,38,0,P|395:171|357:294,1,115,8|0,3:2|0:0,0:0:0:0:
244,324,23305,37,0,3:2:0:0:
234,320,23392,1,0,3:2:0:0:
224,316,23478,2,0,P|342:293|460:320,1,172.500006580353,8|0,3:2|3:2,0:0:0:0:
478,370,23736,37,0,3:2:0:0:
483,384,23823,2,0,B|519:361|519:361|510:307,1,86.2500032901765,0|0,3:2|0:0,0:0:0:0:
423,173,23995,38,0,L|399:-53,1,172.500006580353,10|0,3:2|0:0,0:0:0:0:
430,306,24254,37,8,3:2:0:0:
435,319,24340,2,0,B|398:296|398:296|407:242,1,86.2500032901765,0|0,3:2|3:2,0:0:0:0:
512,102,24512,38,0,P|450:75|388:99,1,86.2500032901765,8|0,3:2|0:0,0:0:0:0:
97,36,24685,37,0,3:2:0:0:
93,47,24771,1,0,3:2:0:0:
18,81,24857,38,0,B|-25:48|-25:48|201:84,1,230,8|0,3:2|3:2,0:0:0:0:
226,94,25116,37,0,3:2:0:0:
229,87,25202,2,0,B|236:57|236:57|210:11|210:11|180:3,1,115,0|0,3:2|0:0,0:0:0:0:
70,305,25374,38,0,B|170:319|170:319|172:238|85:240|123:122,1,287.5,10|0,3:2|0:0,0:0:0:0:
121,133,25633,1,8,3:2:0:0:
128,123,25719,2,0,P|147:157|125:241,1,86.2500032901765,0|0,3:2|3:2,0:0:0:0:
0,384,25892,1,8,3:2:0:0:
397,252,26064,37,0,3:2:0:0:
406,272,26150,1,0,3:2:0:0:
417,289,26236,38,0,B|385:249|389:204|389:204|312:228|295:313|295:313|315:293|372:299,1,287.5,8|0,3:2|3:2,0:0:0:0:
488,218,26495,1,0,3:2:0:0:
502,204,26581,2,0,P|479:238|498:201,1,115,0|0,3:2|0:0,0:0:0:0:
339,371,26754,38,0,P|302:179|218:58,1,287.5,10|0,3:2|0:0,0:0:0:0:
325,46,27012,1,8,3:2:0:0:
321,57,27098,2,0,B|365:39|372:2|372:2|355:40|284:64,1,143.75,0|0,3:2|3:2,0:0:0:0:
22,103,27271,38,0,B|-26:159|-26:159|239:114,1,287.5,8|8,3:2|3:2,0:0:0:0:
463,48,27530,21,8,3:2:0:0:
467,62,27616,2,0,P|429:124|346:141,1,143.75,12|0,3:1|0:0,0:0:0:0:
121,17,27788,69,8,3:2:0:0:
110,7,27874,1,8,0:2:0:0:
102,0,27961,2,0,L|91:57,1,57.5,8|0,3:2|0:0,0:0:0:0:
34,181,28133,6,0,P|97:215|178:188,1,143.75,10|0,3:2|0:0,0:0:0:0:
355,4,28305,69,0,0:0:0:0:
363,2,28392,1,8,3:2:0:0:
371,0,28478,2,0,L|379:63,1,57.5,8|8,3:2|3:2,0:0:0:0:
512,143,28650,6,0,L|327:175,1,143.75,8|0,3:2|0:0,0:0:0:0:
76,342,28823,69,0,3:2:0:0:
111,303,28909,1,0,3:2:0:0:
160,286,28995,2,0,L|345:318,1,143.75,8|0,3:2|0:0,0:0:0:0:
484,323,29167,5,8,3:2:0:0:
477,348,29253,1,8,0:2:0:0:
456,358,29340,2,0,P|433:341|429:313,1,57.5,8|0,3:2|0:0,0:0:0:0:
437,19,29512,70,0,L|469:204,1,143.75,10|0,3:2|0:0,0:0:0:0:
221,297,29685,5,0,0:0:0:0:
160,286,29771,1,8,3:2:0:0:
112,245,29857,1,8,3:2:0:0:
90,186,29943,1,8,3:2:0:0:
100,122,30030,70,0,B|104:96|104:96|145:74|145:74|130:117|130:117|103:123,1,143.75,8|0,3:2|0:0,0:0:0:0:
279,276,30202,2,0,B|283:250|283:250|324:227|324:227|309:271|309:271|282:277,1,143.75,8|8,3:2|3:2,0:0:0:0:
0,333,30374,22,0,P|72:284|157:293,1,143.75,4|0,3:2|0:0,0:0:0:0:
314,371,30547,2,0,L|395:363,1,57.5,0|0,3:2|0:0,0:0:0:0:
512,333,30719,70,0,P|440:284|355:293,1,143.75,0|0,3:2|0:0,0:0:0:0:
198,371,30892,2,0,L|116:363,1,57.5,0|0,3:2|0:0,0:0:0:0:
21,62,31064,38,0,P|99:99|134:177,1,143.75,0|0,3:2|0:0,0:0:0:0:
314,378,31236,2,0,L|395:370,1,57.5,0|0,3:2|0:0,0:0:0:0:
491,62,31409,70,0,P|412:99|377:177,1,143.75,0|0,3:2|0:0,0:0:0:0:
198,378,31581,2,0,L|116:370,1,57.5,0|0,3:2|0:0,0:0:0:0:
256,0,31754,38,0,B|267:7|267:7|256:52|256:52|245:7|245:7|256:0,1,115,12|0,3:2|0:0,0:0:0:0:
255,0,32616,70,0,P|273:18|280:63,1,57.5,2|0,0:0|0:0,0:0:0:0:
108,50,32788,6,0,P|151:48|192:61,1,86.2500032901765,2|0,0:0|0:0,0:0:0:0:
398,26,32961,70,0,P|379:80|337:119,1,115,2|0,0:0|0:0,0:0:0:0:
44,301,33133,22,0,B|21:256|-30:240|-30:240|32:247|32:247|32:244|32:244|37:252|37:252|138:262|138:262|138:312|189:378|301:341,1,431.25,6|0,3:2|0:0,0:0:0:0:
397,283,33478,6,0,B|414:227|414:227|380:183,1,115,8|0,3:2|0:0,0:0:0:0:
224,242,33650,69,2,3:2:0:0:
232,253,33736,1,0,3:2:0:0:
240,264,33823,2,0,L|370:237,1,86.2500032901765,2|0,3:2|0:0,0:0:0:0:
492,210,33995,1,2,3:2:0:0:
238,42,34167,6,0,P|193:108|285:77,1,215.625,10|0,3:2|0:0,0:0:0:0:
285,103,34340,2,0,P|250:51|193:99,1,115,0|0,3:2|3:2,0:0:0:0:
54,299,34512,70,0,P|108:301|130:251,1,115,2|0,3:2|0:0,0:0:0:0:
4,28,34685,6,0,L|19:113,1,86.2500032901765,2|0,3:2|0:0,0:0:0:0:
120,351,34857,2,0,P|126:308|139:267,1,86.2500032901765,10|0,3:2|0:0,0:0:0:0:
389,214,35030,70,0,B|444:212|480:176|480:176|528:248|452:288|452:288|388:196|258:198,1,431.25,2|0,3:2|3:2,0:0:0:0:
169,181,35374,6,0,B|90:166|137:134|13:152|122:211|90:166|169:181,1,172.500006580353,2|0,3:2|0:0,0:0:0:0:
432,96,35547,70,0,P|400:123|357:123,1,86.2500032901765,10|0,3:2|0:0,0:0:0:0:
372,344,35719,2,0,P|351:307|311:292,1,86.2500032901765,0|0,3:2|3:2,0:0:0:0:
93,167,35892,5,2,3:2:0:0:
432,96,36064,70,0,P|410:59|321:63,1,129.375004935265,2|0,0:0|0:0,0:0:0:0:
274,7,36236,2,0,L|294:171,1,143.75,8|0,3:2|0:0,0:0:0:0:
372,344,36409,5,0,3:2:0:0:
380,333,36495,1,0,3:2:0:0:
388,322,36581,2,0,B|326:330|326:330|320:334|320:334|249:343,1,129.375004935265,2|0,3:2|0:0,0:0:0:0:
131,228,36754,70,0,P|172:236|200:269,1,86.2500032901765,2|0,3:2|0:0,0:0:0:0:
17,373,36926,5,10,3:2:0:0:
473,311,37098,1,2,3:2:0:0:
102,362,37271,70,0,L|261:342,1,143.75,2|0,3:2|0:0,0:0:0:0:
252,163,37443,6,0,P|195:201|201:270,1,143.75,2|0,3:2|0:0,0:0:0:0:
471,310,37616,2,0,L|486:196,1,115,10|0,3:2|0:0,0:0:0:0:
414,22,37788,69,2,3:2:0:0:
465,43,37874,1,2,3:2:0:0:
499,87,37961,1,2,3:2:0:0:
507,143,38047,1,2,3:2:0:0:
486,196,38133,6,0,L|354:212,1,115,2|0,3:2|0:0,0:0:0:0:
106,36,38305,70,0,B|190:50|190:50|222:84|222:84|317:101,1,215.625,8|0,3:2|0:0,0:0:0:0:
315,101,38478,2,0,B|336:65|336:65|307:6,1,86.2500032901765,0|0,3:2|3:2,0:0:0:0:
0,66,38650,5,4,3:2:0:0:
360,211,38823,2,0,B|381:247|381:247|352:306,1,86.2500032901765,0|0,0:0|0:0,0:0:0:0:
93,109,38995,70,0,B|74:69|74:69|95:33,1,86.2500032901765,10|0,3:2|0:0,0:0:0:0:
410,68,39167,1,2,3:2:0:0:
6,258,39340,6,0,B|72:269|98:356|98:356|152:283|219:295,2,287.5,2|0|10,3:2|3:2|3:2,0:0:0:0:
61,197,39771,69,0,0:0:0:0:
68,202,39857,2,0,B|101:208|128:171|128:171|141:215|175:221,1,143.75,0|0,3:2|3:2,0:0:0:0:
468,242,40030,5,2,3:2:0:0:
296,319,40202,70,0,B|359:351|359:351|408:299,1,143.75,2|0,3:2|0:0,0:0:0:0:
391,220,40374,2,0,B|327:187|327:187|278:239,1,143.75,10|0,3:2|0:0,0:0:0:0:
59,364,40547,6,0,B|153:380|153:380|203:97,1,359.375,2|0,3:2|0:0,0:0:0:0:
105,10,40805,1,0,3:2:0:0:
98,0,40892,70,0,P|74:42|133:123,1,143.75,2|0,3:2|0:0,0:0:0:0:
222,246,41064,2,0,P|235:221|237:193,1,57.5,10|0,3:2|0:0,0:0:0:0:
322,49,41236,2,0,P|281:37|241:52,1,86.2500032901765,0|0,3:2|3:2,0:0:0:0:
98,201,41409,53,2,3:2:0:0:
198,120,41581,1,0,3:2:0:0:
196,128,41667,1,0,0:0:0:0:
197,135,41754,5,2,3:2:0:0:
204,147,41840,1,0,0:0:0:0:
222,157,41926,1,0,3:2:0:0:
252,156,42012,1,0,3:2:0:0:
290,132,42098,69,2,3:2:0:0:
235,150,42184,1,0,0:0:0:0:
195,191,42270,1,0,3:2:0:0:
179,247,42356,1,0,3:2:0:0:
191,304,42443,5,2,3:2:0:0:
240,283,42529,1,0,0:0:0:0:
294,282,42615,1,0,3:2:0:0:
344,299,42701,1,0,3:2:0:0:
387,333,42788,38,0,L|403:238,1,71.875,10|0,3:2|3:2,0:0:0:0:
436,49,42961,2,0,L|423:119,1,71.875,8|0,3:2|3:2,0:0:0:0:
481,204,43133,6,0,L|389:187,1,86.2500032901765,8|0,3:2|3:2,0:0:0:0:
283,87,43305,2,0,L|212:99,1,71.875,8|0,3:2|3:2,0:0:0:0:
91,247,43478,70,0,L|142:106,1,143.75,8|0,3:2|0:0,0:0:0:0:
0,0,43650,6,0,P|55:13|92:55,1,115
94,328,43823,6,0,P|112:376|104:326,1,150.937505757809,8|0,3:2|0:0,0:0:0:0:
91,247,44167,22,0,B|23:243|37:293|-21:322|-21:322|183:237|348:334,1,503.125,6|0,3:2|0:0,0:0:0:0:
444,315,44512,6,0,B|435:344|435:344|354:358|354:358|336:333,1,143.75,8|0,3:2|0:0,0:0:0:0:
187,207,44685,2,0,B|205:182|205:182|285:196|285:196|294:225,1,143.75,2|0,3:2|3:2,0:0:0:0:
505,22,44857,70,0,B|349:6|405:133|237:104,1,287.5,2|2,3:2|3:2,0:0:0:0:
231,98,45116,5,0,0:0:0:0:
218,92,45202,2,0,P|281:60|361:89,1,143.75,10|0,3:2|0:0,0:0:0:0:
479,92,45374,2,0,P|411:110|348:78,1,143.75,0|0,3:2|3:2,0:0:0:0:
139,1,45547,70,0,L|128:157,1,143.75,2|0,3:2|0:0,0:0:0:0:
393,264,45719,5,2,3:2:0:0:
450,198,45805,2,0,B|486:223|531:225|531:225|238:271,1,366.562495105863,0|0,0:0|0:0,0:0:0:0:
175,337,46064,70,0,B|203:367|244:371|244:371|190:379|156:346,1,146.624998042345,2|0,3:2|3:2,0:0:0:0:
184,169,46236,6,0,P|107:88|154:199,1,293.24999608469,0|2,3:2|3:2,0:0:0:0:
321,345,46495,69,0,0:0:0:0:
333,356,46581,2,0,L|430:340,1,86.2500032901765,10|0,3:2|0:0,0:0:0:0:
441,193,46754,6,0,B|447:178|460:170|460:170|388:177|385:274,1,143.75,0|0,3:2|3:2,0:0:0:0:
50,384,46926,70,0,P|97:261|80:57,1,287.5,2|2,3:2|0:0,0:0:0:0:
91,18,47185,5,0,0:0:0:0:
82,14,47271,2,0,P|35:25|70:108,1,115,8|0,3:2|0:0,0:0:0:0:
173,247,47443,1,0,3:2:0:0:
505,119,47616,70,0,B|541:78|583:172|436:222|318:61|365:-31,1,287.5,2|2,3:2|3:2,0:0:0:0:
452,0,47874,2,0,P|476:33|439:53,1,71.875,0|10,0:0|3:2,0:0:0:0:
173,247,48075,5,0,0:0:0:0:
106,176,48190,69,0,0:0:0:0:
48,233,48305,6,0,B|332:177|48:238|332:182,1,287.5,2|2,3:2|3:2,0:0:0:0:
388,109,48564,70,0,P|308:86|242:153,1,143.75,0|10,0:0|3:2,0:0:0:0:
467,239,48765,5,0,0:0:0:0:
385,290,48880,69,0,0:0:0:0:
430,307,48995,6,0,B|393:168|534:211|463:-2,1,287.5,2|2,3:2|3:2,0:0:0:0:
323,59,49254,70,0,P|350:92|389:110,1,86.2500032901765,0|8,0:0|3:2,0:0:0:0:
490,357,49426,1,0,0:0:0:0:
501,364,49512,2,0,P|455:306|364:300,1,143.75,0|0,3:2|3:2,0:0:0:0:
5,341,49685,6,0,B|197:369|5:346|196:374|196:374|227:261|114:193|119:292|3:148|90:40,1,553.437505277991,4|0,3:2|0:0,0:0:0:0:
159,45,50030,70,0,B|199:29|199:29|212:86|156:153,1,158.125001507998,10|0,3:2|0:0,0:0:0:0:
13,251,50202,5,2,3:2:0:0:
9,243,50288,1,0,3:2:0:0:
5,235,50374,2,0,P|83:217|87:293,1,158.125001507998,2|0,3:2|0:0,0:0:0:0:
287,359,50547,69,0,3:2:0:0:
293,367,50633,2,0,P|283:318|310:260,1,86.2500032901765,0|10,0:0|3:2,0:0:0:0:
405,58,50834,5,0,0:0:0:0:
459,126,50949,69,0,0:0:0:0:
505,111,51064,6,0,B|359:91|359:91|352:93|352:93|193:72,1,287.5,2|2,3:2|3:2,0:0:0:0:
109,86,51323,70,0,B|93:64|51:47|51:47|97:46|118:31,1,143.75,0|10,0:0|3:2,0:0:0:0:
294,211,51524,5,0,0:0:0:0:
363,165,51639,69,0,0:0:0:0:
398,181,51754,6,0,L|84:235,1,287.5,0|2,3:2|3:2,0:0:0:0:
39,236,52012,2,0,B|53:292|53:292|115:307,1,115,0|10,0:0|3:2,0:0:0:0:
484,291,52185,69,0,0:0:0:0:
492,218,52271,1,0,3:2:0:0:
500,145,52357,1,0,3:2:0:0:
492,139,52443,53,2,3:2:0:0:
484,133,52788,5,2,3:2:0:0:
358,87,52903,69,0,0:0:0:0:
461,0,53018,5,0,0:0:0:0:
444,134,53133,69,2,3:2:0:0:
375,52,53248,5,0,0:0:0:0:
482,33,53363,69,0,0:0:0:0:
417,119,53478,5,2,3:2:0:0:
402,35,53593,69,0,0:0:0:0:
483,64,53708,5,0,0:0:0:0:
336,90,53823,70,0,P|306:93|334:83,2,76.6666666666667,10|0|0,3:2|0:0|0:0,0:0:0:0:
268,21,54167,6,0,P|239:57|236:107,1,57.5,8|0,3:2|3:2,0:0:0:0:
227,199,54340,2,0,P|215:172|194:152,1,57.5,8|0,3:2|3:2,0:0:0:0:
48,52,54512,70,0,P|109:84|193:61,1,115,8|0,3:2|0:0,0:0:0:0:
158,73,54771,1,0,0:0:0:0:
104,124,54857,53,12,0:0:0:0:
80,194,54943,1,8,0:0:0:0:
85,269,55030,1,8,0:0:0:0:
123,332,55116,1,8,0:0:0:0:
195,350,55202,6,0,L|204:273,1,71.875,6|0,3:2|0:0,0:0:0:0:
269,343,55288,70,0,L|278:266,1,71.875
343,336,55374,6,0,L|356:234,1,71.875
440,98,55547,53,8,3:2:0:0:
442,90,55633,69,0,0:0:0:0:
393,73,55719,1,2,3:2:0:0:
339,85,55805,1,0,3:2:0:0:
304,120,55892,6,0,B|282:138|275:160|275:160|192:174,1,115,2|0,3:2|3:0,0:0:0:0:
120,126,56064,69,2,3:2:0:0:
112,114,56150,1,0,0:0:0:0:
105,100,56236,2,0,B|98:81|98:81|165:106,1,86.2500032901765,10|0,3:2|0:0,0:0:0:0:
283,291,56409,5,0,3:2:0:0:
343,336,56495,1,0,3:2:0:0:
409,303,56581,6,0,P|396:269|375:239,1,71.875,2|0,3:2|0:0,0:0:0:0:
467,243,56667,6,0,P|439:219|406:205,1,71.875,0|0,0:0|0:0,0:0:0:0:
492,164,56754,70,0,P|455:157|420:161,1,71.875,2|0,3:2|0:0,0:0:0:0:
128,32,56926,53,10,3:2:0:0:
119,26,57012,5,0,0:0:0:0:
46,57,57098,1,2,3:2:0:0:
36,135,57185,1,0,3:2:0:0:
98,182,57271,70,0,L|182:166,1,86.2500032901765,0|0,3:2|3:2,0:0:0:0:
454,42,57443,5,2,3:2:0:0:
434,32,57530,1,0,0:0:0:0:
414,22,57616,2,0,B|429:121|429:121|436:125|436:125|453:231,1,215.625,10|0,3:2|0:0,0:0:0:0:
498,296,57788,70,0,B|491:254|491:254|443:225,1,86.2500032901765,0|0,3:2|3:2,0:0:0:0:
91,203,57961,22,0,L|6:218,1,64.6875024676324,2|0,3:2|0:0,0:0:0:0:
79,279,58047,6,0,L|-5:294,1,64.6875024676324,0|0,0:0|0:0,0:0:0:0:
67,355,58133,70,0,L|-16:369,1,64.4000007861328,2|0,0:0|0:0,0:0:0:0:
352,318,58305,70,0,B|420:297|420:297|199:258,1,258.75000987053,8|0,3:2|3:2,0:0:0:0:
114,194,58564,1,0,3:2:0:0:
91,203,58650,2,0,L|116:344,1,86.2500032901765,2|0,3:2|0:0,0:0:0:0:
422,208,58823,70,0,B|450:229|450:229|339:209,1,129.375004935265,2|0,3:2|0:0,0:0:0:0:
219,261,58995,5,10,3:2:0:0:
203,258,59081,1,0,0:0:0:0:
187,255,59167,2,0,P|205:173|265:157,1,129.375004935265,2|0,3:2|3:2,0:0:0:0:
431,110,59340,70,0,B|326:109|363:11|258:21,1,194.062507402897,2|0,3:2|0:0,0:0:0:0:
257,30,59512,2,0,P|291:91|355:82,1,129.375004935265,2|0,3:2|0:0,0:0:0:0:
512,0,59685,1,10,3:2:0:0:
81,69,59857,5,2,3:2:0:0:
70,71,59943,1,2,3:2:0:0:
59,73,60030,2,0,B|12:116|12:116|41:174,1,129.375004935265,2|2,3:2|3:2,0:0:0:0:
240,156,60202,2,0,L|82:128,1,129.375004935265,2|0,3:2|0:0,0:0:0:0:
0,384,60374,70,0,B|63:258|230:258|230:258|278:326|377:331,1,431.25,8|0,3:2|3:2,0:0:0:0:
458,162,60719,6,0,B|474:-14|645:181|361:293|224:140,1,431.25,4|0,3:2|0:0,0:0:0:0:
229,10,61064,70,0,P|359:31|373:147,1,215.625,10|0,3:2|0:0,0:0:0:0:
322,182,61236,6,0,B|316:224|316:224|347:255,1,86.2500032901765,2|0,3:2|3:2,0:0:0:0:
428,357,61409,5,2,3:2:0:0:
459,351,61495,1,0,0:0:0:0:
490,345,61581,2,0,B|512:342|536:348|536:348|510:311|466:324,1,115,0|0,3:2|0:0,0:0:0:0:
262,300,61754,5,10,3:2:0:0:
231,294,61840,1,0,0:0:0:0:
200,288,61926,2,0,B|178:285|154:291|154:291|180:254|224:267,1,115,0|0,3:2|3:2,0:0:0:0:
331,374,62098,37,2,3:2:0:0:
339,382,62185,5,0,0:0:0:0:
351,302,62271,1,2,3:2:0:0:
363,222,62357,1,0,0:0:0:0:
375,142,62443,70,0,P|360:77|254:68,1,172.5,10|0,3:2|0:0,0:0:0:0:
186,140,62616,2,0,P|238:117|260:65,1,115,2|0,3:2|3:2,0:0:0:0:
7,58,62788,6,0,P|-6:123|85:176,1,172.5,0|0,3:2|0:0,0:0:0:0:
176,137,62961,2,0,P|120:134|78:173,1,115,2|0,3:2|0:0,0:0:0:0:
216,212,63133,70,0,B|222:269|222:269|193:190,1,115,10|0,3:2|0:0,0:0:0:0:
168,44,63305,5,0,3:2:0:0:
166,35,63392,1,0,3:2:0:0:
165,26,63478,38,0,L|74:13,2,76.6666666666667,2|0|0,3:2|0:0|0:0,0:0:0:0:
512,0,63823,1,2,3:2:0:0:
256,128,63995,1,0,3:2:0:0:
347,26,64167,6,0,L|438:13,2,76.6666666666667,2|0|0,3:2|0:0|0:0,0:0:0:0:
0,0,64512,1,2,3:2:0:0:
256,128,64685,2,0,L|265:198,1,57.5,0|0,3:2|0:0,0:0:0:0:
75,100,64857,38,0,B|258:132|258:132|272:122|272:122|467:156,1,402.5,10|0,3:2|0:0,0:0:0:0:
415,222,65202,1,8,3:2:0:0:
0,146,65374,6,0,B|236:104|236:104|255:117|255:117|507:73,1,503.125,8|0,3:2|0:0,0:0:0:0:
468,156,65719,1,8,0:0:0:0:
80,34,65892,70,0,B|174:13|266:78|186:185|301:300|421:220,1,431.25,4|0,0:0|0:0,0:0:0:0:
185,226,66236,54,0,B|175:306|62:333|-9:263|-9:263|79:277|56:203|177:222,1,431.25,8|0,3:2|0:0,0:0:0:0:
341,163,66581,2,0,P|359:118|336:161,1,143.75,8|0,3:2|0:0,0:0:0:0:
259,335,66754,5,2,3:2:0:0:
274,346,66840,1,0,3:2:0:0:
289,357,66926,2,0,P|320:297|266:240,1,143.75,2|0,3:2|0:0,0:0:0:0:
31,193,67098,2,0,P|79:217|138:205,1,86.2500032901765,2|0,3:2|0:0,0:0:0:0:
346,141,67271,69,10,3:2:0:0:
152,98,67443,5,4,3:2:0:0:
169,60,67530,1,0,3:2:0:0:
205,31,67616,2,0,B|189:154|114:94|109:223,1,215.625,2|0,3:2|0:0,0:0:0:0:
72,328,67788,70,0,P|133:260|111:191,1,143.75,2|0,3:2|0:0,0:0:0:0:
12,14,67961,5,10,3:2:0:0:
6,27,68047,1,0,0:0:0:0:
0,40,68133,2,0,P|63:11|134:24,1,115,2|0,3:2|3:2,0:0:0:0:
203,187,68305,1,0,3:2:0:0:
438,98,68478,70,0,P|384:53|312:47,1,115,2|0,3:2|0:0,0:0:0:0:
198,198,68650,1,10,3:2:0:0:
497,269,68823,5,0,3:2:0:0:
494,280,68909,1,0,3:2:0:0:
466,356,68995,2,0,P|468:284|431:227,1,115,2|0,3:2|0:0,0:0:0:0:
313,230,69167,70,0,P|350:263|370:310,1,100.625000959635,2|0,0:0|0:0,0:0:0:0:
263,318,69340,6,0,P|201:280|155:278,1,86.2500032901765,8|0,3:2|0:0,0:0:0:0:
7,319,69512,1,0,3:2:0:0:
384,341,69685,70,0,P|358:258|283:204,1,172.5,2|0,3:2|0:0,0:0:0:0:
172,281,69857,2,0,P|155:316|178:282,1,115,2|0,3:2|0:0,0:0:0:0:
160,167,70030,5,10,3:2:0:0:
142,154,70116,1,0,0:0:0:0:
120,152,70202,2,0,B|101:160|101:160|168:187|168:187|160:168,1,115,2|0,3:2|3:2,0:0:0:0:
308,0,70374,70,0,P|249:64|239:155,1,172.5,2|0,3:2|0:0,0:0:0:0:
362,213,70547,2,0,P|400:210|359:207,1,115,2|0,3:2|0:0,0:0:0:0:
172,305,70719,5,10,3:2:0:0:
171,25,70892,70,0,P|220:77|237:146,1,143.75,2|2,3:2|3:2,0:0:0:0:
84,308,71064,5,2,3:2:0:0:
71,316,71150,1,2,3:2:0:0:
58,324,71236,2,0,L|199:298,1,115,2|0,3:2|0:0,0:0:0:0:
442,116,71409,69,8,3:2:0:0:
478,159,71495,1,0,0:0:0:0:
487,214,71581,1,0,3:2:0:0:
467,267,71667,1,0,3:2:0:0:
375,283,71754,6,0,B|485:389|485:389|436:85,1,431.25,4|0,3:2|0:0,0:0:0:0:
416,30,72098,70,0,B|423:2|423:2|506:24|506:24|498:52,1,143.75,10|0,3:2|0:0,0:0:0:0:
222,140,72271,5,2,3:2:0:0:
210,135,72357,1,0,3:2:0:0:
198,130,72443,2,0,P|276:101|358:212,1,215.625,2|0,3:2|0:0,0:0:0:0:
354,199,72616,2,0,P|313:165|348:86,1,143.75,0|0,3:2|0:0,0:0:0:0:
498,51,72788,1,10,3:2:0:0:
489,242,72961,70,0,B|351:217|351:217|340:225|340:225|194:199,1,287.5,0|2,3:2|3:2,0:0:0:0:
89,149,73219,5,0,0:0:0:0:
82,159,73305,2,0,B|60:195|60:195|77:258,1,86.2500032901765,2|0,3:2|0:0,0:0:0:0:
376,344,73478,70,0,B|428:321|428:321|230:287,1,215.625,10|0,3:2|0:0,0:0:0:0:
197,281,73650,2,0,B|186:239|186:239|208:203,1,86.2500032901765,2|0,3:2|3:2,0:0:0:0:
498,51,73823,6,0,P|502:126|380:90,1,230,0|2,3:2|3:2,0:0:0:0:
386,1,74081,69,0,0:0:0:0:
398,12,74167,2,0,P|415:48|378:113,1,115,10|0,3:2|0:0,0:0:0:0:
215,130,74340,6,0,P|252:88|308:92,1,115,0|0,3:2|3:2,0:0:0:0:
512,261,74512,37,2,3:2:0:0:
256,192,74555,12,8,76581,3:2:0:0:
112,81,76840,54,0,B|151:74,1,21.5625008225441
105,86,76926,6,0,B|59:124|-27:37|12:-20|181:-86|237:83|205:179,1,402.5,6|0,3:1|0:0,0:0:0:0:
157,350,77271,70,0,B|107:348|80:376|80:376|81:369|81:369|52:309|-14:295|-14:295|-22:296|-22:296|94:248|232:288|139:423|290:409|356:353,1,603.750023031236,6|0,3:1|0:0,0:0:0:0:
511,269,77616,1,8,3:2:0:0:
409,83,77788,6,0,B|375:65|368:28|368:28|375:65|349:93,1,143.75,2|0,3:2|3:2,0:0:0:0:
365,311,77961,2,0,B|399:328|405:366|405:366|399:328|425:300,1,143.75,2|0,3:2|0:0,0:0:0:0:
512,167,78133,70,0,B|443:179|443:179|440:183|440:183|355:198,1,143.75,2|0,3:2|0:0,0:0:0:0:
273,184,78305,2,0,B|255:218|217:224|217:224|255:218|283:244,1,143.75,10|0,3:2|0:0,0:0:0:0:
502,39,78478,5,0,3:2:0:0:
507,22,78564,1,0,3:2:0:0:
512,5,78650,2,0,B|346:34|346:34|340:43|340:43|123:82,1,359.375,2|0,3:2|0:0,0:0:0:0:
59,191,78909,69,0,0:0:0:0:
42,179,78995,2,0,P|38:97|129:65,1,143.75,10|0,3:2|0:0,0:0:0:0:
289,57,79167,6,0,P|219:101|146:38,1,143.75,2|0,3:2|3:2,0:0:0:0:
0,0,79340,70,0,P|73:37|76:106,1,115,0|0,3:2|3:2,0:0:0:0:
0,248,79512,1,2,3:2:0:0:
421,254,79685,6,0,P|430:107|364:240,1,395.312503769994,10|0,3:2|0:0,0:0:0:0:
437,351,79943,69,0,3:2:0:0:
452,358,80030,2,0,P|356:311|264:343,1,158.125001507998,2|0,3:2|0:0,0:0:0:0:
0,384,80202,6,0,B|128:363,1,115,2|0,0:0|0:0,0:0:0:0:
302,149,80374,70,0,P|213:208|195:304,1,172.5,8|0,3:2|0:0,0:0:0:0:
207,351,80547,6,0,P|203:374|213:349,1,86.2500032901765,0|0,3:2|3:2,0:0:0:0:
409,179,80719,69,2,3:2:0:0:
63,222,80892,6,0,P|134:226|192:267,1,143.75,2|0,3:2|0:0,0:0:0:0:
272,262,81064,2,0,P|249:209|207:170,1,115,10|0,3:2|3:2,0:0:0:0:
155,18,81236,2,0,P|157:81|128:139,1,129.375004935265,2|0,3:2|0:0,0:0:0:0:
112,301,81409,70,0,B|50:284|10:377|10:377|150:268|276:262,1,431.25,2|0,3:2|0:0,0:0:0:0:
431,168,81754,6,0,B|426:130|445:99|445:99|407:125|423:175,1,143.75,10|0,3:2|0:0,0:0:0:0:
355,317,81926,70,0,P|428:378|402:261,2,287.5,2|2|2,3:2|3:2|3:2,0:0:0:0:
431,168,82357,5,0,0:0:0:0:
431,168,82443,2,0,B|479:28|479:28|486:23|486:23|390:47|390:47|386:42|386:42|390:47|390:47|272:81|272:81|266:80|266:80|318:72|382:125,1,474.375004523993,10|0,3:1|3:2,0:0:0:0:
512,209,82788,70,0,B|362:227|362:227|358:229|358:229|312:214|312:214|311:209|311:209|251:285|251:285|254:292|254:292|205:268|205:268|206:264|206:264|65:280,1,503.125,6|0,3:1|0:0,0:0:0:0:
47,192,83133,6,0,B|17:176|-1:144|-1:144|2:196|67:226,1,143.75,10|0,3:2|0:0,0:0:0:0:
365,310,83305,69,2,3:2:0:0:
380,321,83392,1,0,3:2:0:0:
395,332,83478,2,0,L|233:303,1,143.75,2|0,3:2|0:0,0:0:0:0:
182,87,83650,6,0,B|197:137|178:177,1,86.2500032901765,0|0,3:2|0:0,0:0:0:0:
65,280,83823,69,10,3:2:0:0:
431,168,83995,1,0,3:2:0:0:
144,372,84167,6,0,P|157:220|193:50,1,287.5,2|2,3:2|3:2,0:0:0:0:
80,54,84426,69,0,0:0:0:0:
67,42,84512,2,0,P|139:37|185:110,1,143.75,10|0,3:2|0:0,0:0:0:0:
219,334,84685,6,0,P|178:274|212:202,1,143.75,2|0,3:2|3:2,0:0:0:0:
431,49,84857,69,0,3:2:0:0:
463,62,84943,1,0,3:2:0:0:
467,96,85030,2,0,L|345:74,1,115,2|0,3:2|0:0,0:0:0:0:
194,8,85202,6,0,B|312:-12|312:-12|358:246,1,359.375,10|0,3:2|0:0,0:0:0:0:
425,302,85461,69,0,3:2:0:0:
434,318,85547,2,0,B|505:302|505:302|431:290,1,143.75,2|0,3:2|0:0,0:0:0:0:
247,81,85719,6,0,B|256:137,1,57.5,0|0,3:2|3:2,0:0:0:0:
69,352,85892,70,0,B|222:375|173:261|357:303,2,287.5,10|0|2,3:2|3:2|3:2,0:0:0:0:
49,274,86323,5,0,0:0:0:0:
66,267,86409,2,0,P|154:277|204:335,1,143.75,0|0,3:2|3:2,0:0:0:0:
308,379,86581,2,0,P|238:364|191:311,1,143.75,10|0,3:2|0:0,0:0:0:0:
245,78,86754,1,0,3:2:0:0:
504,328,86926,70,0,P|448:252|460:171,1,143.75,10|0,3:2|3:2,0:0:0:0:
436,51,87098,1,8,3:2:0:0:
275,287,87271,6,0,P|353:234|369:154,1,143.75,8|0,3:2|3:2,0:0:0:0:
439,33,87443,1,8,3:2:0:0:
493,336,87616,70,0,B|386:254|264:321|264:321|248:384|182:383,1,345,8|0,3:2|0:0,0:0:0:0:
34,259,87961,5,10,3:1:0:0:
109,307,88047,2,0,B|21:383|21:383|78:129,1,359.375
291,101,88305,70,0,B|322:155|189:159|181:102|181:102|185:97|185:97|179:55|143:29|143:29|138:32|138:32|83:7|6:18|19:28|19:28|20:25|20:25|90:16|88:72|152:52,1,503.125,6|0,3:1|0:0,0:0:0:0:
363,6,88650,6,0,P|311:13|305:122,1,143.75,8|0,3:2|0:0,0:0:0:0:
425,217,88823,69,2,3:2:0:0:
442,208,88909,1,0,3:2:0:0:
459,199,88995,2,0,L|305:226,1,143.75,2|0,3:2|0:0,0:0:0:0:
175,248,89167,2,0,L|316:223,1,143.75,2|0,3:2|0:0,0:0:0:0:
475,114,89340,6,0,B|486:156|486:156|468:202,1,86.2500032901765,10|0,3:2|0:0,0:0:0:0:
159,333,89512,2,0,B|147:290|147:290|165:244,1,86.2500032901765,0|0,3:2|3:2,0:0:0:0:
491,313,89685,70,0,B|341:285|341:285|295:174|295:174|126:146,1,431.250016450883,2|0,3:2|0:0,0:0:0:0:
3,150,90030,6,0,P|40:231|118:191,1,143.75,10|0,3:2|0:0,0:0:0:0:
204,30,90202,2,0,P|115:21|110:109,1,143.75,2|0,3:2|3:2,0:0:0:0:
137,156,90374,70,0,L|236:172,1,86.2500032901765,0|0,3:2|3:2,0:0:0:0:
16,68,90547,5,2,3:2:0:0:
205,317,90719,70,0,B|384:262|435:46|231:-35|143:102|222:170,1,517.500019741059,10|0,3:2|3:2,0:0:0:0:
397,244,91064,6,0,B|426:235|426:235|440:154|440:154|415:136,1,143.75,2|0,3:2|0:0,0:0:0:0:
213,162,91236,70,0,P|220:178|216:159,1,57.5,2|0,0:0|0:0,0:0:0:0:
476,297,91409,5,8,3:2:0:0:
457,334,91495,1,0,0:0:0:0:
420,353,91581,2,0,L|318:336,1,86.2500032901765,0|0,3:2|3:2,0:0:0:0:
0,292,91754,69,2,3:2:0:0:
284,100,91926,6,0,P|303:201|232:255,1,172.500006580353,2|0,3:2|0:0,0:0:0:0:
83,157,92098,69,10,3:2:0:0:
61,146,92185,1,0,0:0:0:0:
41,136,92271,2,0,L|167:158,1,86.2500032901765,2|0,3:2|3:2,0:0:0:0:
385,176,92443,6,0,B|454:290|581:266|541:76|250:129|240:308,1,431.25,2|0,3:2|0:0,0:0:0:0:
284,375,92788,70,0,P|290:304|174:220,1,215.625,10|0,3:2|0:0,0:0:0:0:
188,221,92961,2,0,P|218:250|260:245,1,86.2500032901765,2|2,3:2|3:2,0:0:0:0:
502,91,93133,6,0,B|522:52|522:52|506:-14,1,86.2500032901765,2|2,3:2|3:2,0:0:0:0:
437,2,93305,2,0,B|416:40|416:40|432:107,1,86.2500032901765,2|0,3:2|0:0,0:0:0:0:
359,292,93478,70,0,B|309:386|460:441|507:313|497:183|325:134,1,431.25,10|0,3:1|0:0,0:0:0:0:
37,154,93823,6,0,B|-35:205|-16:299|-16:299|-18:308|-18:308|20:245|92:220|92:220|90:217|90:217|99:224|99:224|203:175|290:213,1,517.500019741059,6|0,3:1|0:0,0:0:0:0:
446,270,94167,70,0,B|526:304|526:304|435:288,1,172.500006580353,10|0,3:2|0:0,0:0:0:0:
145,313,94340,6,0,B|130:311|99:319|99:319|155:273|252:290,1,172.500006580353,2|0,3:2|3:2,0:0:0:0:
463,122,94512,70,0,P|430:191|416:86,1,258.75000987053,2|0,3:2|0:0,0:0:0:0:
397,87,94685,2,0,P|450:111|419:183,1,143.75,0|0,3:2|0:0,0:0:0:0:
292,206,94857,1,10,3:2:0:0:
506,58,95030,6,0,P|449:64|397:87,1,115,0|0,3:2|3:2,0:0:0:0:
0,13,95202,70,0,B|172:27|61:147|254:161,1,287.5,2|2,3:2|3:2,0:0:0:0:
284,104,95461,5,0,0:0:0:0:
296,99,95547,2,0,B|266:64|266:64|197:73,1,86.2500032901765,10|0,3:2|0:0,0:0:0:0:
21,100,95719,70,0,P|7:128|25:102,1,86.2500032901765,2|0,3:2|3:2,0:0:0:0:
281,255,95892,5,0,3:2:0:0:
326,242,95978,1,0,3:2:0:0:
337,196,96064,2,0,P|439:204|445:306,1,172.500006580353,2|0,3:2|0:0,0:0:0:0:
512,333,96236,70,0,B|302:358|302:358|270:349|270:349|55:375,1,431.250016450883,10|0,3:2|0:0,0:0:0:0:
12,377,96495,1,0,3:2:0:0:
24,360,96581,21,2,3:2:0:0:
21,351,96667,1,0,0:0:0:0:
18,342,96754,1,0,3:2:0:0:
15,333,96840,1,0,3:2:0:0:
12,324,96926,5,2,3:2:0:0:
9,315,97012,1,0,0:0:0:0:
6,306,97098,1,0,3:2:0:0:
44,263,97185,1,0,3:2:0:0:
94,236,97271,1,2,3:2:0:0:
151,226,97357,1,0,0:0:0:0:
207,234,97443,69,0,3:2:0:0:
259,259,97530,1,0,3:2:0:0:
299,300,97616,1,2,3:2:0:0:
350,326,97702,1,0,0:0:0:0:
407,328,97788,1,0,3:2:0:0:
459,307,97874,1,0,3:2:0:0:
498,265,97961,22,0,L|481:168,1,86.2500032901765,10|0,3:2|3:2,0:0:0:0:
410,0,98133,2,0,L|426:91,1,86.2500032901765,8|0,3:2|3:2,0:0:0:0:
407,328,98305,6,0,L|388:229,1,86.2500032901765,8|0,3:2|3:2,0:0:0:0:
318,62,98478,2,0,L|333:151,1,86.2500032901765,8|0,3:2|3:2,0:0:0:0:
272,245,98650,38,0,L|166:229,1,86.25,8|0,3:2|0:0,0:0:0:0:
229,106,98823,54,0,P|160:150|176:230,1,172.500006580353,8|0,3:2|0:0,0:0:0:0:
163,226,98995,38,0,L|19:204,1,129.375004935265,8|0,3:2|0:0,0:0:0:0:
10,306,99340,70,0,B|141:282|283:345|283:345|75:251|111:30|111:30|132:222|315:143|286:335,1,1034.99996841431,8|0,3:2|0:0,0:0:0:0:
203,1,102098,6,0,B|360:29|343:200|343:200|279:92|191:128|192:13,1,516.925015775299,10|0,3:2|0:0,0:0:0:0:
276,38,103478,21,6,2:2:0:0:
265,54,104857,38,0,B|394:136|386:17|496:95|496:95|343:57|352:258|460:167|475:306|475:306|498:36|145:59|203:224|286:247|326:211,1,1050.52503205948,8|0,3:2|0:0,0:0:0:0:
320,209,107616,5,10,3:2:0:0:
311,205,108995,22,0,P|285:204|345:263,1,233.450007124329,2|0,2:2|0:0,0:0:0:0:
414,239,109685,70,0,B|344:242|344:242|335:248|335:248|179:255,1,233.450007124329,2|0,2:2|0:0,0:0:0:0:
40,83,110374,6,0,P|85:104|101:171,1,115,12|0,3:2|3:2,0:0:0:0:
98,171,110633,1,0,3:2:0:0:
93,178,110719,1,0,3:2:0:0:
219,12,110892,38,0,P|180:43|182:112,1,115,10|0,3:2|0:0,0:0:0:0:
185,112,111150,1,8,3:2:0:0:
192,117,111236,1,0,3:2:0:0:
26,0,111409,38,0,P|84:10|113:57,1,86.2500032901765,8|0,3:2|0:0,0:0:0:0:
423,176,111581,37,0,3:2:0:0:
433,172,111667,1,0,3:2:0:0:
443,168,111754,38,0,B|472:194|472:194|453:313,1,137.999995788574,8|0,3:2|3:2,0:0:0:0:
446,295,112012,1,0,3:2:0:0:
436,299,112098,1,0,3:2:0:0:
313,48,112271,38,0,B|284:74|284:74|303:193,1,137.999995788574,10|0,3:2|0:0,0:0:0:0:
310,175,112530,1,8,3:2:0:0:
320,179,112616,2,0,B|325:144|325:144|362:117,1,68.9999978942872,0|0,3:2|3:2,0:0:0:0:
512,14,112788,38,0,L|430:33,1,68.9999978942872,8|0,3:2|0:0,0:0:0:0:
126,191,112961,37,0,3:2:0:0:
114,187,113047,1,0,3:2:0:0:
213,149,113133,38,0,P|150:196|163:296,1,172.500006580353,8|0,3:2|3:2,0:0:0:0:
161,288,113392,1,0,3:2:0:0:
168,292,113478,2,0,P|158:213|127:183,1,86.2500032901765,0|0,3:2|0:0,0:0:0:0:
22,76,113650,38,0,P|94:107|176:5,1,201.25000191927,10|0,3:2|0:0,0:0:0:0:
176,23,113909,1,8,3:2:0:0:
175,13,113995,2,0,P|112:60|102:94,1,86.2500032901765,0|0,3:2|3:2,0:0:0:0:
326,82,114167,38,0,P|433:114|439:241,1,230,8|0,3:2|3:2,0:0:0:0:
369,320,114426,37,0,3:2:0:0:
346,361,114512,2,0,P|382:274|355:365,1,287.5,8|0,3:2|3:2,0:0:0:0:
358,179,114771,37,0,3:2:0:0:
362,160,114857,2,0,P|347:195|365:161,1,115,0|0,3:2|0:0,0:0:0:0:
108,264,115030,38,0,P|19:324|135:303,1,287.5,10|0,3:2|0:0,0:0:0:0:
252,287,115288,37,8,3:2:0:0:
243,278,115374,2,0,P|172:280|130:352,1,143.75,0|0,3:2|3:2,0:0:0:0:
30,116,115547,38,0,P|156:137|265:207,1,258.75000987053,8|8,3:2|3:2,0:0:0:0:
441,91,115805,21,8,3:2:0:0:
457,103,115892,2,0,P|417:55|332:61,1,129.375004935265,12|0,3:1|0:0,0:0:0:0:
203,351,116064,69,8,3:2:0:0:
211,361,116150,1,8,0:2:0:0:
217,369,116236,2,0,L|210:313,1,57.5,8|0,3:2|0:0,0:0:0:0:
12,35,116409,6,0,P|73:45|110:122,1,143.75,10|0,3:2|0:0,0:0:0:0:
448,269,116581,69,0,0:0:0:0:
459,282,116667,1,8,3:2:0:0:
470,296,116754,2,0,L|413:283,1,57.5,8|8,3:2|3:2,0:0:0:0:
75,313,116926,6,0,P|53:254|101:183,1,143.75,8|0,3:2|0:0,0:0:0:0:
416,150,117098,69,0,3:2:0:0:
457,103,117185,1,0,3:2:0:0:
470,42,117271,2,0,L|314:69,1,143.75,8|0,3:2|0:0,0:0:0:0:
51,66,117443,5,8,3:2:0:0:
44,48,117530,1,8,0:2:0:0:
47,32,117616,2,0,P|78:29|103:43,1,57.5,8|0,3:2|0:0,0:0:0:0:
192,340,117788,70,0,L|219:184,1,143.75,10|0,3:2|0:0,0:0:0:0:
457,103,117961,5,0,0:0:0:0:
416,150,118047,1,8,3:2:0:0:
356,170,118133,1,8,3:2:0:0:
294,157,118219,1,8,3:2:0:0:
246,114,118305,70,0,B|216:86|225:44|225:44|254:71|232:83|246:114,1,143.75,8|0,3:2|0:0,0:0:0:0:
459,94,118478,2,0,B|488:66|479:24|479:24|450:51|472:63|459:94,1,143.75,8|8,3:2|3:2,0:0:0:0:
186,331,118650,22,0,P|270:264|280:209,1,143.75,4|0,3:2|0:0,0:0:0:0:
343,82,118823,2,0,L|355:11,1,57.5,0|0,3:2|0:0,0:0:0:0:
406,369,118995,70,0,P|348:277|358:222,1,143.75,0|0,3:2|0:0,0:0:0:0:
337,76,119167,2,0,L|349:5,1,57.5,0|0,3:2|0:0,0:0:0:0:
122,286,119340,6,0,P|228:270|264:228,1,143.75,0|0,3:2|0:0,0:0:0:0:
340,13,119512,6,0,L|331:70,1,57.5,0|0,3:2|0:0,0:0:0:0:
481,349,119685,54,0,P|385:298|366:245,1,143.75,0|0,3:2|0:0,0:0:0:0:
334,7,119857,38,0,L|325:64,1,57.5,0|0,3:2|0:0,0:0:0:0:
297,314,120030,6,0,B|306:322|306:322|287:365|287:365|284:318|284:318|297:314,1,115,12|0,3:2|0:0,0:0:0:0:
299,302,120805,1,0,0:0:0:0:
302,311,120892,6,0,P|304:275|289:246,1,57.5,2|0,0:0|0:0,0:0:0:0:
402,232,121064,70,0,P|377:198|337:185,1,86.2500032901765,2|0,0:0|0:0,0:0:0:0:
116,271,121236,6,0,P|169:288|214:256,1,115,2|0,0:0|0:0,0:0:0:0:
459,4,121409,6,0,B|361:-9|274:39|261:147|261:147|292:91|372:103,1,359.375,6|0,3:2|0:0,0:0:0:0:
468,90,121667,5,0,0:0:0:0:
477,82,121754,2,0,P|434:89|395:143,1,86.2500032901765,8|0,3:2|0:0,0:0:0:0:
164,182,121926,70,0,P|168:101|198:53,1,115,2|0,3:2|3:2,0:0:0:0:
501,196,122098,22,0,P|288:221|122:302,1,345.000013160706,2|2,3:2|3:2,0:0:0:0:
351,334,122357,69,0,0:0:0:0:
361,345,122443,2,0,P|353:230|303:230,1,172.500006580353,10|0,3:2|0:0,0:0:0:0:
88,284,122616,70,0,B|105:340|105:340|173:355,1,115,0|0,3:2|3:2,0:0:0:0:
512,285,122788,6,0,P|432:275|386:285,1,115,2|0,3:2|0:0,0:0:0:0:
368,51,122961,70,0,P|336:125|305:160,1,115,2|0,3:2|0:0,0:0:0:0:
160,352,123133,6,0,B|198:310|198:310|255:323,1,115,10|0,3:2|0:0,0:0:0:0:
455,158,123305,69,2,3:2:0:0:
463,142,123392,1,0,3:2:0:0:
480,145,123478,1,0,3:2:0:0:
482,162,123564,1,0,3:2:0:0:
466,170,123650,6,0,P|412:164|376:197,1,86.2500032901765,2|0,3:2|0:0,0:0:0:0:
368,51,123823,70,0,P|318:72|309:141,1,115,10|0,3:2|0:0,0:0:0:0:
414,365,123995,6,0,P|439:296|430:210,1,129.375004935265,0|0,3:2|3:2,0:0:0:0:
483,23,124167,70,0,B|444:141|299:135|299:135|270:64|204:61|204:61|230:71|265:131,1,395.312503769994,2|0,3:2|0:0,0:0:0:0:
359,40,124426,5,0,0:0:0:0:
368,51,124512,2,0,P|350:28|365:53,1,86.2500032901765,8|0,3:2|0:0,0:0:0:0:
222,300,124685,70,0,P|164:253|93:257,1,129.375004935265,0|0,3:2|0:0,0:0:0:0:
100,256,124857,22,0,B|-12:361|-12:361|387:285,1,517.500019741059,2|0,3:2|0:0,0:0:0:0:
481,176,125202,54,0,B|502:142|503:113|503:113|531:168|494:214,1,172.500006580353,10|0,3:2|0:0,0:0:0:0:
441,299,125374,2,0,B|432:337|412:359|412:359|471:340|477:281,1,172.500006580353,2|0,3:2|3:2,0:0:0:0:
105,241,125547,6,0,B|251:215|203:324|362:274,1,258.75000987053,2|0,3:2|0:0,0:0:0:0:
354,263,125719,70,0,P|303:243|253:268,1,86.2500032901765,2|0,3:2|0:0,0:0:0:0:
155,326,125892,1,10,3:2:0:0:
346,13,126064,5,2,3:2:0:0:
404,0,126150,1,2,3:2:0:0:
460,18,126236,1,2,3:2:0:0:
500,61,126323,1,2,3:2:0:0:
512,119,126409,70,0,B|406:110|406:110|394:114|394:114|283:105,1,215.625,2|0,3:2|0:0,0:0:0:0:
205,12,126581,6,0,B|170:57|170:57|193:155,1,143.75,8|0,3:2|0:0,0:0:0:0:
357,190,126754,70,0,B|342:133|342:133|290:110,1,115,0|0,3:2|3:2,0:0:0:0:
74,147,126926,5,4,3:2:0:0:
322,281,127098,1,0,0:0:0:0:
370,275,127185,1,0,0:0:0:0:
387,229,127271,70,0,B|305:235|305:235|296:232|296:232|211:239,1,172.5,10|0,3:2|0:0,0:0:0:0:
189,141,127443,2,0,B|135:144|135:144|130:142|130:142|74:147,1,115,2|0,3:2|3:2,0:0:0:0:
76,375,127616,22,0,B|61:340|17:315|17:315|179:188|386:341,1,431.250016450883,2|0,3:2|0:0,0:0:0:0:
475,372,127874,53,0,0:0:0:0:
481,366,127961,2,0,B|497:344|497:344|476:287|476:287|450:281,1,115,10|0,3:2|0:0,0:0:0:0:
167,364,128133,6,0,B|163:353|152:340|152:340|198:329|258:358,1,115,0|0,3:2|3:2,0:0:0:0:
446,91,128305,70,0,P|379:164|370:57,1,258.75000987053,2|0,3:2|0:0,0:0:0:0:
367,58,128478,2,0,P|429:71|382:158,1,172.500006580353,2|0,3:2|0:0,0:0:0:0:
338,309,128650,6,0,P|288:266|234:258,1,86.2500032901765,10|0,3:2|0:0,0:0:0:0:
141,105,128823,69,2,3:2:0:0:
86,93,128909,1,0,3:2:0:0:
57,141,128995,1,0,3:2:0:0:
93,183,129081,1,0,3:2:0:0:
144,161,129167,6,0,P|132:81|57:109,1,172.500006580353,2|0,3:2|0:0,0:0:0:0:
10,315,129340,70,0,P|89:268|191:278,1,143.75,10|0,3:2|0:0,0:0:0:0:
221,189,129512,2,0,P|240:226|277:248,1,86.2500032901765,0|0,3:2|3:2,0:0:0:0:
489,284,129685,53,2,3:2:0:0:
497,275,129857,5,0,3:2:0:0:
495,264,129943,1,0,3:2:0:0:
494,253,130030,1,2,3:2:0:0:
492,242,130116,1,0,0:0:0:0:
491,232,130202,1,0,3:2:0:0:
488,222,130288,1,0,3:2:0:0:
512,145,130374,69,2,3:2:0:0:
447,90,130461,1,0,0:0:0:0:
366,116,130547,1,0,3:2:0:0:
307,57,130633,1,0,3:2:0:0:
247,64,130719,1,2,3:2:0:0:
198,36,130805,1,0,0:0:0:0:
170,43,130892,6,0,P|153:88|186:144,1,86.2500032901765,0|0,3:2|3:2,0:0:0:0:
302,196,131064,38,0,P|271:158|206:159,1,86.2500032901765,10|0,3:2|3:2,0:0:0:0:
103,234,131236,6,0,P|150:226|182:169,1,86.2500032901765,8|0,3:2|3:2,0:0:0:0:
178,37,131409,70,0,P|188:78|171:116,1,86.2500032901765,8|0,3:2|3:2,0:0:0:0:
303,205,131581,6,0,P|262:193|236:159,1,86.2500032901765,8|0,3:2|3:2,0:0:0:0:
369,32,131754,70,0,B|434:43|434:43|439:41|439:41|498:50,1,129.375004935265,8|0,3:2|0:0,0:0:0:0:
485,36,131926,6,0,P|432:84|450:177,1,143.75,0|0,0:0|0:0,0:0:0:0:
469,339,132098,6,0,B|499:357|513:387|513:387|503:356|510:323,1,129.375004935265,8|0,3:2|0:0,0:0:0:0:
483,257,132443,22,0,P|419:229|340:252,1,115,6|0,3:2|0:0,0:0:0:0:
217,308,132616,6,0,P|196:368|222:309,1,194.062507402897,0|0,0:0|0:0,0:0:0:0:
278,255,132788,70,0,P|316:304|323:358,1,86.2500032901765,8|0,3:2|0:0,0:0:0:0:
18,299,132961,6,0,P|41:241|99:209,1,115,2|0,3:2|3:2,0:0:0:0:
214,146,133133,70,0,P|162:115|152:175,1,143.75,2|0,3:2|0:0,0:0:0:0:
93,313,133305,2,0,B|89:338|106:369|106:369|97:321|121:278,1,143.75,2|0,3:2|0:2,0:0:0:0:
26,14,133478,6,0,B|210:-23|369:98|333:240|179:262|150:170,1,517.500019741059,10|0,3:2|3:2,0:0:0:0:
66,136,133823,70,0,P|109:140|143:167,1,86.2500032901765,2|0,3:2|0:0,0:0:0:0:
285,267,133995,6,0,P|287:298|280:269,1,86.2500032901765,2|0,3:2|0:0,0:0:0:0:
443,24,134167,70,0,B|496:65|496:65|508:140,1,143.75,10|0,3:2|0:0,0:0:0:0:
377,153,134340,6,0,B|345:128|345:128|339:83,1,86.2500032901765,2|0,3:2|3:2,0:0:0:0:
497,223,134512,70,0,B|454:343|454:343|411:50,1,359.375,0|0,3:2|0:0,0:0:0:0:
269,14,134771,5,0,0:0:0:0:
278,21,134857,2,0,P|318:100|299:173,1,150.937501439452,10|0,3:2|0:0,0:0:0:0:
405,224,135030,2,0,P|370:178|319:154,1,115,0|0,3:2|3:2,0:0:0:0:
65,255,135202,70,0,P|48:355|117:276,1,258.75000987053,2|0,3:2|0:0,0:0:0:0:
143,211,135374,6,0,B|141:167|113:149|113:149|103:181|130:215,1,143.75,2|0,0:0|0:0,0:0:0:0:
435,352,135547,70,0,B|393:359|393:359|250:254|250:254|207:264,1,258.75000987053,8|0,3:2|0:0,0:0:0:0:
203,269,135719,2,0,B|229:301|229:301|407:312|407:312|433:348,1,258.75000987053,0|0,3:2|0:0,0:0:0:0:
476,273,135892,6,0,B|498:300|498:300|485:246,1,86.2500032901765,2|0,3:2|0:0,0:0:0:0:
328,63,136064,70,0,P|389:64|442:163,1,172.5,2|0,3:2|0:0,0:0:0:0:
435,158,136236,6,0,P|322:89|170:139,1,258.75000987053,10|0,3:2|0:0,0:0:0:0:
200,118,136409,2,0,B|235:145|235:145|313:130,1,86.2500032901765,2|0,3:2|3:2,0:0:0:0:
505,38,136581,69,2,3:2:0:0:
499,20,136667,1,0,0:0:0:0:
493,2,136754,2,0,L|472:120,1,86.2500032901765,2|0,3:2|0:0,0:0:0:0:
430,344,136926,6,0,B|457:353|482:374|482:374|433:267|298:314,1,258.75000987053,10|0,3:2|0:0,0:0:0:0:
232,266,137098,2,0,B|199:315|199:315|261:343,1,115,2|2,3:2|3:2,0:0:0:0:
512,233,137271,70,0,B|391:254|391:254|365:284|365:284|210:311,1,316.250003015995,2|2,3:2|3:2,0:0:0:0:
90,176,137530,5,0,0:0:0:0:
82,180,137616,2,0,B|43:169|94:101|194:172|167:242,1,158.125001507998,8|0,3:2|0:0,0:0:0:0:
147,368,137788,2,0,B|156:407|72:397|84:275|158:263,1,158.125001507998,0|0,3:2|3:2,0:0:0:0:
271,118,137961,70,0,B|331:71|349:15|349:15|333:71|361:151,1,258.75000987053,4|0,3:2|0:0,0:0:0:0:
299,189,138133,6,0,P|289:208|294:187,1,57.5,0|0,0:0|0:0,0:0:0:0:
434,111,138305,70,0,B|474:107|509:88|509:88|487:131|427:121,1,158.125001507998,10|0,3:2|0:0,0:0:0:0:
211,66,138478,2,0,B|178:42|157:8|157:8|155:56|212:78,1,158.125001507998,2|0,3:2|3:2,0:0:0:0:
448,225,138650,6,0,B|535:247|535:247|239:299,1,345.000013160706,2|0,3:2|3:2,0:0:0:0:
134,213,138909,69,0,0:0:0:0:
120,210,138995,2,0,P|80:85|161:197,1,345.000013160706,10|0,3:2|3:2,0:0:0:0:
126,313,139254,5,0,3:2:0:0:
133,318,139340,2,0,B|184:352|184:352|202:298,1,115,2|0,3:2|0:0,0:0:0:0:
322,170,139512,70,0,B|337:144|356:141|356:141|309:129|245:220,1,143.75,2|0,3:2|0:0,0:0:0:0:
92,2,139685,6,0,P|192:87|167:191,1,215.625,10|0,3:2|0:0,0:0:0:0:
104,230,139857,70,0,B|42:296|5:213|100:225,1,143.75,2|0,3:2|3:2,0:0:0:0:
361,28,140030,6,0,B|423:18|452:62|452:62|278:27|210:132,1,345.000013160706,0|2,3:2|3:2,0:0:0:0:
90,112,140288,69,0,0:0:0:0:
62,102,140374,2,0,P|104:88|61:105,1,172.500006580353,10|0,3:2|0:0,0:0:0:0:
430,148,140547,6,0,P|346:139|273:183,1,172.500006580353,0|0,3:2|3:2,0:0:0:0:
69,341,140719,37,2,3:2:0:0:
62,337,141064,5,2,3:2:0:0:
127,291,141179,69,0,0:0:0:0:
206,283,141294,5,0,0:0:0:0:
81,337,141409,69,2,3:2:0:0:
129,302,141524,5,0,0:0:0:0:
189,296,141639,69,0,0:0:0:0:
95,337,141754,5,2,3:2:0:0:
131,310,141869,69,0,0:0:0:0:
176,306,141984,5,0,0:0:0:0:
138,319,142098,38,0,P|143:340|134:320,1,57.5,10|0,3:2|3:2,0:0:0:0:
103,214,142271,6,0,P|91:236|99:212,1,71.875,8|0,3:2|3:2,0:0:0:0:
175,118,142443,70,0,P|151:138|172:115,1,86.2500032901765,8|0,3:2|3:2,0:0:0:0:
329,62,142616,6,0,P|295:69|327:57,1,100.625000959635,8|0,3:2|3:2,0:0:0:0:
460,252,142788,6,0,B|426:273|415:316|415:316|420:274|398:239,1,158.125001507998,8|0,3:2|0:0,0:0:0:0:
466,73,142961,53,8,0:0:0:0:
371,48,143047,1,8,0:0:0:0:
278,55,143133,1,12,0:0:0:0:
226,73,143219,1,8,0:0:0:0:
194,89,143305,1,8,0:0:0:0:
180,103,143392,1,8,0:0:0:0:
110,214,143478,54,0,B|227:326|227:326|168:33|222:326|164:33|164:33|103:98,1,517.500019741059,6|0,3:2|0:0,0:0:0:0:
56,153,143823,6,0,B|15:111|15:111|87:140,1,115,8|0,3:2|0:0,0:0:0:0:
348,274,143995,69,2,3:2:0:0:
404,263,144081,1,0,3:2:0:0:
460,252,144167,2,0,B|488:253|508:263|508:263|483:213|417:224,1,143.75,2|0,3:2|0:0,0:0:0:0:
109,309,144340,6,0,B|51:362|51:362|310:309,1,258.75000987053,2|0,3:2|0:0,0:0:0:0:
341,289,144512,70,0,P|354:261|336:286,1,86.2500032901765,10|0,3:2|0:0,0:0:0:0:
196,93,144685,6,0,B|225:27|225:27|230:99,1,143.75,0|0,3:2|3:2,0:0:0:0:
230,335,144857,70,0,P|242:249|120:205,1,215.625,2|0,3:2|0:0,0:0:0:0:
130,201,145030,2,0,P|198:254|261:234,1,115,2|0,3:2|0:0,0:0:0:0:
512,193,145202,5,10,3:2:0:0:
363,98,145374,70,0,B|386:115|386:115|428:107,1,57.5,2|0,3:2|3:2,0:0:0:0:
469,59,145547,2,0,B|409:15|409:15|338:29,1,143.75,0|0,3:2|3:2,0:0:0:0:
34,95,145719,6,0,B|-23:137|-23:137|134:109,1,215.625,2|0,3:2|0:0,0:0:0:0:
216,18,145892,70,0,P|136:50|121:114,1,143.75,10|0,3:2|0:0,0:0:0:0:
140,197,146064,1,0,3:2:0:0:
445,297,146236,6,0,B|476:333|518:338|518:338|395:368|435:252|247:270,1,345.000013160706,2|2,3:2|0:0,0:0:0:0:
159,322,146495,69,0,0:0:0:0:
147,333,146581,2,0,P|211:334|236:303,1,86.2500032901765,8|0,3:2|0:0,0:0:0:0:
502,123,146754,5,0,3:2:0:0:
449,94,146840,1,0,3:2:0:0:
388,95,146926,2,0,B|398:153|398:153|401:156|401:156|413:222,1,129.375004935265,2|0,3:2|0:0,0:0:0:0:
512,346,147098,70,0,P|432:340|390:300,1,129.375004935265,2|0,3:2|0:0,0:0:0:0:
315,56,147271,6,0,B|358:9|358:9|444:22,1,129.375004935265,10|0,3:2|0:0,0:0:0:0:
484,272,147443,70,0,P|443:290|421:329,1,86.2500032901765,2|0,3:2|3:2,0:0:0:0:
194,196,147616,6,0,P|278:141|244:240,1,258.75000987053,2|0,3:2|0:0,0:0:0:0:
254,239,147788,2,0,P|203:198|234:141,1,115,2|0,3:2|0:0,0:0:0:0:
512,33,147961,69,10,3:2:0:0:
398,280,148133,6,0,L|511:269,1,86.2500032901765,2|2,3:2|3:2,0:0:0:0:
512,346,148305,2,0,L|311:363,1,143.75,2|2,3:2|3:2,0:0:0:0:
186,197,148478,70,0,L|59:209,1,115,2|0,3:2|0:0,0:0:0:0:
57,310,148650,6,0,B|0:316|0:316|14:261,1,115,8|0,3:2|0:0,0:0:0:0:
38,108,148823,2,0,B|-19:114|-19:114|5:166,1,115,0|0,3:2|3:2,0:0:0:0:
201,195,148995,69,4,3:2:0:0:
472,120,149167,6,0,B|495:20|495:20|454:69|454:69|472:177,1,258.75000987053,0|0,0:0|0:0,0:0:0:0:
407,205,149340,70,0,B|474:247|474:247|441:56,1,215.625,10|0,3:2|0:0,0:0:0:0:
395,16,149512,1,2,3:2:0:0:
237,186,149685,5,2,3:2:0:0:
41,39,149857,70,0,B|21:142|21:142|135:104|135:104|90:57,1,258.75000987053,0|0,3:2|0:0,0:0:0:0:
112,80,150030,2,0,B|50:26|50:26|38:97,1,143.75,10|0,3:2|0:0,0:0:0:0:
32,294,150202,6,0,L|131:271,1,86.2500032901765,0|0,3:2|3:2,0:0:0:0:
288,124,150374,70,0,P|310:212|191:253,1,215.625,2|0,3:2|0:0,0:0:0:0:
202,256,150547,2,0,P|273:214|360:230,1,143.75,2|0,3:2|0:0,0:0:0:0:
407,383,150719,6,0,P|361:348|336:297,1,115,10|0,3:2|0:0,0:0:0:0:
479,113,150892,70,0,B|509:78|490:31|490:31|457:69|470:114,1,172.500006580353,2|0,3:2|3:2,0:0:0:0:
496,281,151064,5,0,3:2:0:0:
504,291,151150,1,0,3:2:0:0:
512,301,151236,2,0,B|362:299|436:187|270:205,1,258.75000987053,2|0,3:2|0:0,0:0:0:0:
202,184,151409,70,0,B|155:255|155:255|237:280,1,172.500006580353,10|0,3:2|0:0,0:0:0:0:
459,194,151581,6,0,P|347:178|282:202,1,172.500006580353,0|0,3:2|3:2,0:0:0:0:
90,306,151754,38,0,P|52:349|94:312,1,172.5,2|2,3:2|3:2,0:0:0:0:
113,227,153133,70,0,B|64:213|24:228|24:228|113:166|243:193|292:302,1,402.5,10|0,3:2|0:0,0:0:0:0:
255,368,153478,1,8,3:2:0:0:
222,132,153650,70,0,B|177:86|125:77|125:77|260:65|383:176|368:325,1,503.125,8|0,3:2|0:0,0:0:0:0:
255,368,153995,21,8,0:0:0:0:
246,364,154081,1,0,0:0:0:0:
237,360,154167,2,0,P|220:296|283:211,1,143.75,4|0,0:0|0:0,0:0:0:0:
512,140,154340,1,4,0:0:0:0:
125,77,154512,54,0,B|21:187|21:187|394:118,1,503.125,8|0,3:2|0:0,0:0:0:0:
477,54,154857,70,0,B|452:19|458:-11|458:-11|452:19|415:45,1,143.75,8|0,3:2|0:0,0:0:0:0:
117,254,155030,70,0,P|175:152|116:59,1,215.625,2|0,3:2|0:0,0:0:0:0:
46,34,155202,6,0,B|4:46|4:46|-3:85|-3:85|46:34,1,143.75,2|0,3:2|0:0,0:0:0:0:
300,23,155374,70,0,B|313:42|313:42|247:54|247:54|276:38,1,115,2|0,3:2|0:0,0:0:0:0:
22,187,155547,6,0,P|70:194|112:245,1,86.2500032901765,10|0,3:2|0:0,0:0:0:0:
451,291,155719,69,4,3:2:0:0:
465,277,155805,1,0,3:2:0:0:
479,263,155892,2,0,B|384:279|384:279|371:298|371:298|261:317,1,215.625,2|0,3:2|0:0,0:0:0:0:
184,344,156064,6,0,B|147:322|134:293|134:293|155:264|202:258,1,143.75,2|0,3:2|0:0,0:0:0:0:
447,192,156236,70,0,L|371:206,1,57.5,10|0,3:2|0:0,0:0:0:0:
41,277,156409,6,0,L|125:291,1,86.2500032901765,2|0,3:2|3:2,0:0:0:0:
268,317,156581,69,0,3:2:0:0:
81,28,156754,5,2,3:2:0:0:
56,73,156840,1,0,0:0:0:0:
29,117,156926,2,0,L|266:95,1,172.500006580353,10|0,3:2|0:0,0:0:0:0:
420,37,157098,70,0,B|503:51|503:51|447:42|384:71,1,172.500006580353,0|0,3:2|3:2,0:0:0:0:
104,233,157271,22,0,B|32:79|108:232|36:77|36:77|278:115|36:74|279:112|279:112|203:191,1,517.500019741059,2|0,3:2|0:0,0:0:0:0:
72,307,157616,53,8,3:2:0:0:
59,315,157702,1,0,0:0:0:0:
46,323,157788,2,0,P|108:255|128:251,1,115,0|0,3:2|3:2,0:0:0:0:
464,365,157961,6,0,B|503:315|503:315|385:246|296:320,1,258.75000987053,2|0,3:2|0:0,0:0:0:0:
318,304,158133,2,0,P|384:314|407:282,1,86.2500032901765,2|0,3:2|0:0,0:0:0:0:
459,208,158305,70,0,B|473:188|473:188|379:172|379:172|385:195,1,143.75,10|0,3:2|0:0,0:0:0:0:
142,352,158478,6,0,P|124:335|145:348,1,71.875,2|0,3:2|3:2,0:0:0:0:
15,206,158650,70,0,P|57:189|147:199,1,115,2|0,3:2|0:0,0:0:0:0:
253,378,158823,6,0,P|221:297|235:187,1,143.75,2|0,3:2|0:0,0:0:0:0:
385,195,158995,70,0,B|391:218|391:218|297:202,1,86.2500032901765,10|0,3:2|0:0,0:0:0:0:
40,77,159167,6,0,B|5:92|-8:123|-8:123|90:77|211:128,1,258.75000987053,2|0,3:2|0:0,0:0:0:0:
247,175,159340,69,2,3:2:0:0:
253,177,159426,5,2,3:2:0:0:
270,100,159512,1,2,3:2:0:0:
323,41,159598,1,0,0:0:0:0:
398,16,159685,70,0,P|454:25|500:83,1,115,8|0,3:2|0:0,0:0:0:0:
488,246,159857,2,0,B|487:286|462:297|462:297|481:275|481:245,1,115,0|0,3:2|3:2,0:0:0:0:
416,96,160030,22,0,B|219:140|272:21|36:26|36:26|81:152,1,517.500019741059,4|0,3:2|0:0,0:0:0:0:
93,292,160374,54,0,B|53:280|53:280|28:217,1,86.2500032901765,10|0,3:2|0:0,0:0:0:0:
154,138,160547,5,2,3:2:0:0:
151,127,160633,1,0,3:2:0:0:
148,117,160719,2,0,P|225:95|285:125,1,115,2|0,3:2|0:0,0:0:0:0:
334,23,160892,1,0,3:2:0:0:
386,284,161064,70,0,P|461:355|408:253,1,287.5,10|0,3:2|3:2,0:0:0:0:
406,99,161323,5,0,3:2:0:0:
397,103,161409,2,0,P|356:145|358:224,1,115,2|0,3:2|0:0,0:0:0:0:
173,359,161581,69,2,3:2:0:0:
227,343,161667,1,0,0:0:0:0:
278,332,161754,2,0,B|186:324|186:324|174:314|174:314|12:302,1,258.75000987053,10|0,3:2|0:0,0:0:0:0:
14,295,161926,2,0,B|65:270|65:270|131:310,1,115,2|0,3:2|3:2,0:0:0:0:
397,103,162098,6,0,B|342:135|349:200|349:200|270:122|175:137,1,287.5,0|2,3:2|3:2,0:0:0:0:
14,9,162357,69,0,0:0:0:0:
2,0,162443,2,0,P|22:63|156:52,1,215.625,10|0,3:2|0:0,0:0:0:0:
151,59,162616,2,0,P|225:31|312:91,1,143.75,0|0,3:2|3:2,0:0:0:0:
401,343,162788,53,2,3:2:0:0:
256,192,162831,12,8,164857,3:2:0:0:
336,163,165116,54,0,L|373:170,1,21.5625008225441,0|0,3:0|3:0,3:0:0:0:
332,157,165202,6,0,B|289:77|289:77|523:123|523:123|441:181,1,402.5,6|0,3:1|0:0,0:0:0:0:
411,350,165547,70,0,B|519:241|519:241|531:241|531:241|359:268|359:268|363:260|363:260|352:268|352:268|121:304,1,517.500019741059,6|0,3:1|0:0,0:0:0:0:
0,340,165892,6,0,P|68:377|97:306,1,172.500006580353,8|0,3:2|0:0,0:0:0:0:
55,70,166064,69,2,3:2:0:0:
56,61,166150,1,0,3:2:0:0:
58,53,166236,2,0,P|51:83|63:54,1,86.2500032901765,2|0,3:2|0:0,0:0:0:0:
31,258,166409,6,0,P|97:225|138:231,1,86.2500032901765,2|0,3:2|0:0,0:0:0:0:
402,359,166581,70,0,P|326:325|348:171,1,237.187502261996,10|0,3:2|0:0,0:0:0:0:
412,165,166754,6,0,B|519:142|503:232|412:165,1,158.125001507998,0|0,3:2|3:2,0:0:0:0:
187,248,166926,69,2,3:2:0:0:
437,38,167098,6,0,B|506:63|506:63|275:93,1,258.75000987053,2|0,3:2|0:0,0:0:0:0:
257,118,167271,70,0,B|241:83|241:83|261:40,1,86.2500032901765,10|0,3:2|0:0,0:0:0:0:
386,266,167443,6,0,P|415:268|386:261,1,86.2500032901765,2|0,3:2|3:2,0:0:0:0:
96,120,167616,70,0,B|-10:141|83:7|212:113|236:270|140:286,1,287.5,2|0,3:2|3:2,0:0:0:0:
33,243,167874,5,0,0:0:0:0:
30,230,167961,2,0,B|74:147|195:73|394:114|379:285|303:327|249:332,1,517.500019741059,10|0,3:2|3:2,0:0:0:0:
377,130,168305,70,0,P|462:33|446:162,1,345.000013160706,2|2,3:2|0:0,0:0:0:0:
270,314,168564,5,0,0:0:0:0:
261,322,168650,2,0,P|265:283|336:264,1,86.2500032901765,8|0,3:2|0:0,0:0:0:0:
457,321,168823,70,0,B|495:321|512:353|512:353|479:354|455:327,1,129.375004935265,0|0,3:2|0:0,0:0:0:0:
405,234,168995,6,0,B|326:218|275:305|350:293|275:380|169:338,1,287.5,2|2,3:2|3:2,0:0:0:0:
89,161,169254,69,0,0:0:0:0:
99,157,169340,2,0,B|167:132|167:132|227:198,1,143.75,10|0,3:2|0:0,0:0:0:0:
443,328,169512,6,0,P|458:206|422:29,1,287.5,2|2,3:2|3:2,0:0:0:0:
452,33,169771,69,0,0:0:0:0:
463,35,169857,2,0,P|495:105|454:177,1,143.75,2|0,3:2|0:0,0:0:0:0:
214,184,170030,6,0,B|166:129|166:129|198:65,1,143.75,10|0,3:2|0:0,0:0:0:0:
239,2,170202,2,0,B|277:22|277:22|272:64,1,86.2500032901765,2|2,3:2|3:2,0:0:0:0:
441,340,170374,70,0,B|536:300|536:300|248:332,1,345.000013160706,2|2,3:2|3:2,0:0:0:0:
29,332,170633,5,0,0:0:0:0:
31,341,170719,2,0,B|22:398|-83:367|6:191|138:256|84:343|170:385|226:329|242:290|314:201|222:122|163:156|163:156|212:185|204:248,1,603.750023031236,10|0,3:1|0:0,0:0:0:0:
190,353,171064,70,0,B|19:261|30:57|190:33|288:119,1,474.375004523993,6|0,3:1|0:0,0:0:0:0:
396,145,171409,6,0,B|486:143|506:229|506:229|423:210|485:160|372:141,1,287.5,10|2,3:2|3:2,0:0:0:0:
184,183,171667,69,0,3:2:0:0:
199,181,171754,2,0,P|170:188|199:187,1,86.2500032901765,2|0,3:2|0:0,0:0:0:0:
498,62,171926,6,0,P|404:50|347:94,1,143.75,0|0,3:2|0:0,0:0:0:0:
367,278,172098,70,0,B|387:293|416:291|416:291|396:231|319:219,1,143.75,10|0,3:2|0:0,0:0:0:0:
184,183,172271,5,0,3:2:0:0:
439,149,172443,70,0,B|485:173|510:201|510:201|514:213|514:213|395:147|275:144,1,287.5,2|2,3:2|3:2,0:0:0:0:
116,75,172702,5,0,0:0:0:0:
108,72,172788,2,0,B|90:61|59:72|59:72|115:82|161:135,1,143.75,10|0,3:2|0:0,0:0:0:0:
292,305,172961,70,0,B|298:328|298:328|264:361|264:361|219:349|219:349|213:325,1,143.75,2|0,3:2|3:2,0:0:0:0:
32,145,173133,6,0,P|84:166|107:218,1,115,0|0,3:2|3:2,0:0:0:0:
106,293,173305,1,2,3:2:0:0:
376,95,173478,70,0,B|421:37|498:6|498:6|123:29|498:11|124:34,1,474.375004523993,10|0,3:2|3:2,0:0:0:0:
26,224,173823,6,0,B|66:331|179:331|179:331|234:202|409:205|409:205|407:208|407:208|366:320,1,553.437505277991,2|0,3:2|0:0,0:0:0:0:
321,344,174167,70,0,B|301:348|275:360|275:360|309:298|381:295,1,158.125001507998,10|0,3:2|0:0,0:0:0:0:
510,285,174340,6,0,B|560:281|532:349|435:329|368:207|472:96,1,258.75000987053,0|2,3:2|3:2,0:0:0:0:
505,9,174598,69,0,0:0:0:0:
509,17,174685,2,0,B|523:61|523:61|470:110,1,86.2500032901765,0|0,3:2|3:2,0:0:0:0:
105,195,174857,6,0,B|115:225|141:237|141:237|161:198|212:177,1,129.375004935265,10|0,3:2|0:0,0:0:0:0:
511,197,175030,70,0,P|531:199|511:195,1,57.5,0|0,3:2|3:2,0:0:0:0:
137,48,175202,6,0,B|336:31|432:210|294:266|214:167|318:72,1,395.312503769994,10|0,3:2|0:0,0:0:0:0:
411,111,175461,69,0,3:2:0:0:
397,110,175547,2,0,P|434:42|505:8,1,158.125001507998,8|0,3:2|3:2,0:0:0:0:
366,321,175719,6,0,P|452:350|387:272,1,237.187502261996,8|0,3:2|0:0,0:0:0:0:
300,124,175892,70,0,B|346:190|273:197|297:124,1,115,8|0,3:2|0:0,0:0:0:0:
511,197,176064,6,0,P|424:227|395:271,1,115,8|0,3:2|0:0,0:0:0:0:
130,346,176236,69,10,3:1:0:0:
74,284,176323,2,0,B|-18:328|-18:328|263:275,1,345.000013160706,0|0,0:0|0:0,0:0:0:0:
455,73,176581,6,0,B|356:61|356:61|364:59|364:59|270:47|270:47|267:44|267:44|246:206|440:177|355:368,1,517.500019741059,6|0,3:1|0:0,0:0:0:0:
281,360,176926,69,8,3:2:0:0:
89,66,177098,5,2,3:2:0:0:
94,56,177185,1,0,3:2:0:0:
99,46,177271,2,0,B|68:-17|-39:22|-42:147|102:231,1,258.75000987053,2|0,3:2|0:0,0:0:0:0:
129,236,177443,70,0,B|143:316|72:293|129:236,1,115,2|0,3:2|0:0,0:0:0:0:
442,65,177616,6,0,P|315:77|168:103,1,237.187502261996,10|0,3:2|0:0,0:0:0:0:
17,125,177788,70,0,B|2:104|-3:26|63:16|87:42,1,115,0|0,3:2|3:2,0:0:0:0:
475,140,177961,6,0,B|414:154|414:154|368:98,1,115,2|0,3:2|0:0,0:0:0:0:
245,13,178133,2,0,B|305:-1|305:-1|351:54,1,115,2|0,3:2|0:0,0:0:0:0:
363,333,178305,70,0,P|434:367|495:346,1,115,10|0,3:2|0:0,0:0:0:0:
482,290,178478,2,0,P|411:256|350:277,1,115,2|0,3:2|3:2,0:0:0:0:
86,250,178650,6,0,B|52:230|43:194|43:194|32:284|108:377|212:345,1,287.5,0|2,3:2|3:2,0:0:0:0:
260,293,178909,69,0,0:0:0:0:
246,283,178995,2,0,B|260:235|323:239|369:337|251:458|39:400|-7:288|39:122,1,517.500019741059,10|0,3:2|3:2,0:0:0:0:
136,47,179340,6,0,P|203:124|102:85,1,258.75000987053,2|0,3:2|0:0,0:0:0:0:
54,49,179512,2,0,B|35:46|28:34|28:34|46:35|56:46,1,57.5,2|0,0:0|0:0,0:0:0:0:
438,98,179685,69,8,3:2:0:0:
455,84,179771,1,0,0:0:0:0:
454,62,179857,2,0,B|422:18|325:14|285:81|409:38,1,172.500006580353,0|0,3:2|3:2,0:0:0:0:
288,213,180030,6,0,B|417:249|468:362|468:362|439:241|549:131,1,431.250016450883,2|0,3:2|0:0,0:0:0:0:
413,177,180288,69,0,0:0:0:0:
407,184,180374,2,0,P|372:213|295:202,1,115,10|0,3:2|0:0,0:0:0:0:
169,0,180547,6,0,P|215:89|218:146,1,115,2|0,3:2|3:2,0:0:0:0:
295,328,180719,70,0,B|334:337|358:358|358:358|347:315|268:295,1,143.75,2|0,3:2|0:0,0:0:0:0:
343,139,180892,1,2,3:2:0:0:
46,62,181064,6,0,P|130:116|168:177,1,143.75,10|0,3:2|0:0,0:0:0:0:
452,331,181236,70,0,B|424:285|377:242|316:225,1,143.75,2|2,3:2|3:2,0:0:0:0:
78,207,181409,6,0,B|22:284|22:284|293:213,1,345.000013160706,2|2,3:2|3:2,0:0:0:0:
478,136,181667,69,0,0:0:0:0:
475,122,181754,2,0,B|424:155|360:242|535:278|604:119|480:-54|226:-60|262:99,1,517.500019741059,10|0,3:1|3:2,0:0:0:0:
342,369,182098,6,0,P|342:157|255:9,1,345.000013160706,6|0,3:1|0:0,0:0:0:0:
145,25,182357,69,0,0:0:0:0:
117,13,182443,2,0,P|165:43|120:7,1,172.500006580353,10|0,3:2|0:0,0:0:0:0:
226,293,182616,5,2,3:2:0:0:
230,311,182702,1,0,3:2:0:0:
234,328,182788,2,0,P|268:273|245:223,1,86.2500032901765,2|0,3:2|0:0,0:0:0:0:
75,139,182961,70,0,B|56:108|32:90|32:90|95:89|94:173,1,143.75,0|0,3:2|0:0,0:0:0:0:
62,258,183133,6,0,B|114:255|114:255|103:253|103:253|170:248,1,115,10|0,3:2|0:0,0:0:0:0:
422,277,183305,70,0,B|441:323|402:344|402:344|422:317|416:273,1,115,0|0,3:2|3:2,0:0:0:0:
422,91,183478,6,0,B|334:20|334:20|384:246,1,316.250003015995,2|2,3:2|3:2,0:0:0:0:
500,337,183736,69,0,0:0:0:0:
507,315,183823,2,0,P|503:275|479:218,1,86.2500032901765,10|0,3:2|0:0,0:0:0:0:
226,292,183995,6,0,B|214:265|238:249|238:249|227:269|229:294,1,86.2500032901765,2|0,3:2|3:2,0:0:0:0:
414,102,184167,70,0,B|390:135|390:135|408:213,1,86.2500032901765,0|0,3:2|3:2,0:0:0:0:
290,365,184340,2,0,B|314:332|314:332|296:254,1,86.2500032901765,2|0,3:2|0:0,0:0:0:0:
96,186,184512,6,0,B|41:29|41:29|35:25|35:25|141:42|141:42|145:40|145:40|145:44|145:44|274:66|274:66|225:133,1,474.375004523993,10|0,3:2|3:2,0:0:0:0:
155,128,184857,5,2,3:2:0:0:
154,117,184943,1,0,0:0:0:0:
153,106,185030,1,0,3:2:0:0:
152,95,185116,1,0,3:2:0:0:
151,84,185202,1,2,3:2:0:0:
150,73,185288,1,0,0:0:0:0:
149,62,185374,5,0,3:2:0:0:
224,36,185461,1,0,3:2:0:0:
293,48,185547,1,2,3:2:0:0:
341,88,185633,1,0,0:0:0:0:
360,140,185719,1,0,3:2:0:0:
351,189,185805,1,0,3:2:0:0:
321,223,185892,69,2,3:2:0:0:
251,246,185978,1,0,0:0:0:0:
237,310,186064,1,0,3:2:0:0:
280,349,186150,1,0,3:2:0:0:
329,333,186236,22,0,B|366:311|366:311|490:334,1,158.125001507998,8|0,3:2|3:2,0:0:0:0:
471,221,186409,6,0,B|434:243|434:243|310:220,1,158.125001507998,8|0,3:2|3:2,0:0:0:0:
129,290,186581,70,0,B|166:330|143:368|143:368|146:330|117:323|129:296,1,158.125001507998,8|0,3:2|3:2,0:0:0:0:
47,253,186754,6,0,B|10:213|33:175|33:175|30:213|59:220|47:247,1,158.125001507998,8|0,3:2|3:2,0:0:0:0:
393,107,186926,70,0,P|438:127|395:105,1,158.125001507998,8|0,3:2|0:0,0:0:0:0:
210,5,187098,6,0,P|136:161|268:48,1,474.375018095971,8|0,3:2|0:0,0:0:0:0:
191,91,187616,53,8,3:2:0:0:
