osu file format v14

[General]
AudioFilename: audio.mp3
AudioLeadIn: 0
PreviewTime: 76754
Countdown: 0
SampleSet: Soft
StackLeniency: 0.3
Mode: 0
LetterboxInBreaks: 0
EpilepsyWarning: 1
WidescreenStoryboard: 1

[Editor]
Bookmarks: 30,11064,22098,33133,44167,55202,66236,77271,88305,99340,110374,121409,132443,143478,154512,165547,176581,187616
DistanceSpacing: 1
BeatDivisor: 8
GridSize: 8
TimelineZoom: 2.5

[Metadata]
Title:RAMSING
TitleUnicode:RAMSING
Artist:SIDxRAM
ArtistUnicode:SID×RAM
Creator:Ksardas
Version:0PPINOSU'S ANOTHER
Source:
Tags:SID RAM РАМСИНГ sharu 0ppinosu -atri- firis mistlud kurantemelodii krt Сид Рам Рэм Сидоджи Дубоshit Дубощит Sidodzhi Duboshit Грязный Рамирес Gryazniy Ramires dnb drum and bass neurofunk russian rap Мочивилс 2 II Mochivils Gydra Split Attack Soul King EP electronic russian and x piroshki
BeatmapID:2529041
BeatmapSetID:1137778

[Difficulty]
HPDrainRate:5
CircleSize:3.8
OverallDifficulty:8
ApproachRate:9
SliderMultiplier:2
SliderTickRate:0.5

[Events]
//Background and Video events
0,0,"MOSHED-2020-3-29-23-1-7.jpg",0,0
//Break Periods
2,99539,108395
//Storyboard Layer 0 (Background)
//Storyboard Layer 1 (Fail)
//Storyboard Layer 2 (Pass)
//Storyboard Layer 3 (Foreground)
//Storyboard Layer 4 (Overlay)
//Storyboard Sound Samples

[TimingPoints]
30,344.827586206897,4,2,5,50,1,0
30,-270.27027027027,4,2,5,50,0,0
2616,-270.27027027027,4,2,5,50,0,0
2788,-270.27027027027,4,2,5,50,0,0
4081,-270.27027027027,4,2,5,50,0,0
4167,-270.27027027027,4,2,5,50,0,0
8133,-270.27027027027,4,2,5,50,0,0
8305,-270.27027027027,4,2,5,50,0,0
9598,-270.27027027027,4,2,5,50,0,0
9685,-769.230769230769,4,2,5,50,0,0
10288,-769.230769230769,4,2,5,50,0,0
10374,-769.230769230769,4,2,5,50,0,0
10978,-769.230769230769,4,2,5,50,0,0
11064,-100,4,2,5,50,0,0
11121,-100,4,2,5,50,0,0
11323,-100,4,2,5,50,0,0
11409,-100,4,2,5,50,0,0
11581,-100,4,2,4,50,0,0
12098,-200,4,2,4,50,0,0
13823,-200,4,2,5,50,0,0
13844,-200,4,2,4,50,0,0
13880,-200,4,2,4,50,0,0
15202,-200,4,2,5,50,0,0
15223,-200,4,2,4,50,0,0
15374,-200,4,2,4,50,0,0
16581,-100,4,2,5,50,0,0
16603,-100,4,2,4,50,0,0
16639,-100,4,2,4,50,0,0
16926,-133.333333333333,4,2,4,50,0,0
19340,-133.333333333333,4,2,5,50,0,0
19362,-133.333333333333,4,2,4,50,0,0
19397,-133.333333333333,4,2,4,50,0,0
19512,-133.333333333333,4,2,4,50,0,0
19857,-133.333333333333,4,2,4,50,0,0
20202,-133.333333333333,4,2,4,50,0,0
20547,-133.333333333333,4,2,4,50,0,0
20892,-133.333333333333,4,2,4,50,0,0
21236,-133.333333333333,4,2,4,50,0,0
21581,-133.333333333333,4,2,4,50,0,0
21926,-133.333333333333,4,2,4,50,0,0
22098,-100,4,2,4,60,0,0
30374,-66.6666666666667,4,2,3,70,0,0
31754,-66.6666666666667,4,2,5,65,0,0
32443,-66.6666666666667,4,2,5,60,0,0
32616,-500,4,2,1,60,0,0
32702,-500,4,2,1,60,0,0
32788,-500,4,2,1,60,0,0
32874,-500,4,2,1,60,0,0
32961,-500,4,2,1,60,0,0
33047,-500,4,2,1,60,0,0
33133,-47.6190476190476,4,2,1,65,0,0
33736,-66.6666666666667,4,2,1,65,0,0
33995,-55.5555555555556,4,2,1,65,0,0
34167,-166.666666666667,4,2,1,65,0,0
34297,-166.666666666667,4,2,1,65,0,0
34340,-166.666666666667,4,2,1,65,0,0
34512,-55.5555555555556,4,2,1,65,0,0
34685,-47.6190476190476,4,2,1,65,0,0
35116,-55.5555555555556,4,2,1,65,0,0
35892,-66.6666666666667,4,2,1,65,0,0
36064,-47.6190476190476,4,2,1,65,0,0
36193,-47.6190476190476,4,2,1,65,0,0
36236,-47.6190476190476,4,2,1,65,0,0
36495,-55.5555555555556,4,2,1,65,0,0
36711,-55.5555555555556,4,2,1,65,0,0
36754,-47.6190476190476,4,2,1,65,0,0
36926,-166.666666666667,4,2,1,65,0,0
37271,-55.5555555555556,4,2,1,65,0,0
37444,-47.6190476190476,4,2,1,65,0,0
37874,-55.5555555555556,4,2,1,65,0,0
38435,-55.5555555555556,4,2,1,65,0,0
38478,-55.5555555555556,4,2,1,65,0,0
38650,-47.6190476190476,4,2,5,65,0,0
38672,-47.6190476190476,4,2,1,65,0,0
38736,-47.6190476190476,4,2,1,65,0,0
39253,-66.6666666666667,4,2,1,65,0,0
39512,-55.5555555555556,4,2,1,65,0,0
39684,-166.666666666667,4,2,1,65,0,0
40029,-55.5555555555556,4,2,1,65,0,0
40202,-47.6190476190476,4,2,1,65,0,0
40633,-55.5555555555556,4,2,1,65,0,0
40762,-55.5555555555556,4,2,1,65,0,0
40805,-55.5555555555556,4,2,1,65,0,0
41409,-66.6666666666667,4,2,1,65,0,0
42788,-66.6666666666667,4,2,1,65,0,0
43478,-47.6190476190476,4,2,1,65,0,0
43823,-83.3333333333333,4,2,5,65,0,0
43995,-166.666666666667,4,2,5,65,0,0
44124,-166.666666666667,4,2,5,65,0,0
44167,-40,4,2,1,65,0,0
44469,-40,4,2,1,65,0,0
44512,-47.6190476190476,4,2,1,65,0,0
45547,-166.666666666667,4,2,1,65,0,0
45892,-66.6666666666667,4,2,1,65,0,0
46236,-47.6190476190476,4,2,1,65,0,0
47271,-66.6666666666667,4,2,1,65,0,0
47616,-47.6190476190476,4,2,1,65,0,0
48305,-166.666666666667,4,2,1,65,0,0
48650,-66.6666666666667,4,2,1,65,0,0
48995,-47.6190476190476,4,2,1,65,0,0
49340,-40,4,2,1,65,0,0
49685,-40,4,2,1,65,0,0
49986,-40,4,2,1,65,0,0
50030,-47.6190476190476,4,2,1,65,0,0
51064,-166.666666666667,4,2,1,65,0,0
51409,-66.6666666666667,4,2,1,65,0,0
51754,-47.6190476190476,4,2,1,65,0,0
52702,-166.666666666667,4,2,1,65,0,0
52874,-66.6666666666667,4,2,1,65,0,0
53133,-66.6666666666667,4,2,1,65,0,0
53478,-66.6666666666667,4,2,1,65,0,0
54167,-66.6666666666667,4,2,1,65,0,0
54857,-250,4,2,1,65,0,0
55202,-47.6190476190476,4,2,1,65,0,0
55245,-47.6190476190476,4,2,1,65,0,0
55288,-47.6190476190476,4,2,1,65,0,0
55331,-47.6190476190476,4,2,1,65,0,0
55374,-47.6190476190476,4,2,1,65,0,0
56624,-47.6190476190476,4,2,1,65,0,0
56667,-47.6190476190476,4,2,1,65,0,0
56711,-47.6190476190476,4,2,1,65,0,0
56754,-47.6190476190476,4,2,1,65,0,0
57616,-66.6666666666667,4,2,1,65,0,0
57745,-66.6666666666667,4,2,1,65,0,0
57788,-66.6666666666667,4,2,1,65,0,0
58004,-66.6666666666667,4,2,1,65,0,0
58047,-66.6666666666667,4,2,1,65,0,0
58090,-66.6666666666667,4,2,1,65,0,0
58133,-47.6190476190476,4,2,1,65,0,0
59167,-166.666666666667,4,2,1,65,0,0
59340,-83.3333333333333,4,2,1,65,0,0
59469,-83.3333333333333,4,2,1,65,0,0
59512,-83.3333333333333,4,2,1,65,0,0
60719,-47.6190476190476,4,2,1,65,0,0
61193,-47.6190476190476,4,2,1,65,0,0
61236,-47.6190476190476,4,2,1,65,0,0
61409,-166.666666666667,4,2,1,65,0,0
62012,-47.6190476190476,4,2,1,65,0,0
62573,-47.6190476190476,4,2,1,65,0,0
62616,-47.6190476190476,4,2,1,65,0,0
62917,-47.6190476190476,4,2,1,65,0,0
62961,-47.6190476190476,4,2,1,65,0,0
63478,-555.555555555556,4,2,1,65,0,0
64685,-66.6666666666667,4,2,1,65,0,0
64857,-47.6190476190476,4,2,1,65,0,0
65159,-47.6190476190476,4,2,1,65,0,0
65202,-47.6190476190476,4,2,1,65,0,0
65676,-47.6190476190476,4,2,1,65,0,0
65719,-47.6190476190476,4,2,1,65,0,0
65892,-40,4,2,1,65,0,0
66236,-47.6190476190476,4,2,5,65,0,0
66258,-47.6190476190476,4,2,1,65,0,0
66839,-66.6666666666667,4,2,1,65,0,0
67098,-55.5555555555556,4,2,1,65,0,0
67270,-166.666666666667,4,2,1,65,0,0
67443,-166.666666666667,4,2,5,65,0,0
67465,-166.666666666667,4,2,1,65,0,0
67615,-55.5555555555556,4,2,1,65,0,0
67745,-55.5555555555556,4,2,1,65,0,0
67788,-47.6190476190476,4,2,1,65,0,0
68219,-55.5555555555556,4,2,1,65,0,0
68995,-66.6666666666667,4,2,1,65,0,0
69167,-47.6190476190476,4,2,1,65,0,0
69598,-55.5555555555556,4,2,1,65,0,0
69814,-55.5555555555556,4,2,1,65,0,0
69857,-47.6190476190476,4,2,1,65,0,0
70029,-166.666666666667,4,2,1,65,0,0
70374,-55.5555555555556,4,2,1,65,0,0
70504,-55.5555555555556,4,2,1,65,0,0
70547,-47.6190476190476,4,2,1,65,0,0
70977,-55.5555555555556,4,2,1,65,0,0
71409,-166.666666666667,4,2,1,65,0,0
71753,-47.6190476190476,4,2,1,65,0,0
72356,-66.6666666666667,4,2,1,65,0,0
72573,-66.6666666666667,4,2,1,65,0,0
72615,-55.5555555555556,4,2,1,65,0,0
72961,-55.5555555555556,4,2,1,65,0,0
73305,-47.6190476190476,4,2,1,65,0,0
73607,-47.6190476190476,4,2,1,65,0,0
73650,-47.6190476190476,4,2,1,65,0,0
73736,-55.5555555555556,4,2,1,65,0,0
74512,-66.6666666666667,4,2,1,65,0,0
75891,-66.6666666666667,4,2,1,65,0,0
76883,-66.6666666666667,4,2,1,65,0,0
76926,-37.037037037037,4,2,1,65,0,1
77228,-37.037037037037,4,2,1,75,0,1
77271,-40,4,2,3,75,0,1
77292,-40,4,2,1,75,0,1
77616,-47.6190476190476,4,2,1,75,0,1
78866,-47.6190476190476,4,2,1,75,0,1
78909,-47.6190476190476,4,2,1,75,0,1
79900,-47.6190476190476,4,2,1,75,0,1
79943,-47.6190476190476,4,2,1,75,0,1
80504,-47.6190476190476,4,2,1,75,0,1
80547,-47.6190476190476,4,2,1,75,0,1
82443,-166.666666666667,4,2,1,75,0,1
82788,-40,4,2,1,75,0,1
83090,-40,4,2,1,75,0,1
83133,-47.6190476190476,4,2,1,75,0,1
85417,-47.6190476190476,4,2,1,75,0,1
85461,-47.6190476190476,4,2,1,75,0,1
87961,-37.037037037037,4,2,1,75,0,1
88262,-37.037037037037,4,2,1,75,0,1
88305,-40,4,2,3,75,0,1
88326,-40,4,2,1,75,0,1
88607,-40,4,2,1,75,0,1
88650,-40,4,2,1,75,0,1
88823,-47.6190476190476,4,2,1,75,0,1
92917,-47.6190476190476,4,2,1,75,0,1
92961,-47.6190476190476,4,2,1,75,0,1
93478,-166.666666666667,4,2,1,75,0,1
93780,-166.666666666667,4,2,1,75,0,1
93823,-40,4,2,1,75,0,1
94167,-47.6190476190476,4,2,1,75,0,1
94642,-47.6190476190476,4,2,1,75,0,1
94685,-47.6190476190476,4,2,1,75,0,1
96452,-47.6190476190476,4,2,1,75,0,1
96495,-47.6190476190476,4,2,1,75,0,1
96581,-47.6190476190476,4,2,1,75,0,0
96926,-166.666666666667,4,2,1,75,0,0
97961,-83.3333333333333,4,2,1,75,0,0
98305,-66.6666666666667,4,2,1,75,0,0
98478,-55.5555555555556,4,2,1,75,0,0
98650,-47.6190476190476,4,2,1,75,0,0
98823,-47.6190476190476,4,2,1,75,0,0
98995,-47.6190476190476,4,2,1,75,0,0
99340,-66.6666666666667,4,2,5,50,0,0
101926,-66.6666666666667,4,2,5,5,0,0
102098,-66.6666666666667,4,2,5,50,0,0
103435,-66.6666666666667,4,2,5,5,0,0
103478,-66.6666666666667,4,2,5,50,0,0
109685,-66.6666666666667,4,2,5,50,0,0
110288,-66.6666666666667,4,2,5,50,0,0
110374,-100,4,2,4,50,0,0
111236,-100,4,2,4,50,0,0
111409,-100,4,2,4,50,0,0
113133,-100,4,2,4,55,0,0
114512,-100,4,2,4,55,0,0
115892,-100,4,2,4,60,0,0
117271,-100,4,2,4,65,0,0
118650,-66.6666666666667,4,2,3,70,0,0
118736,-66.6666666666667,4,2,3,70,0,0
118823,-66.6666666666667,4,2,3,70,0,0
118909,-66.6666666666667,4,2,3,70,0,0
118995,-66.6666666666667,4,2,3,70,0,0
119081,-66.6666666666667,4,2,3,70,0,0
119167,-66.6666666666667,4,2,3,70,0,0
119254,-66.6666666666667,4,2,3,70,0,0
119340,-66.6666666666667,4,2,3,70,0,0
119426,-66.6666666666667,4,2,3,70,0,0
119512,-66.6666666666667,4,2,3,70,0,0
119598,-66.6666666666667,4,2,3,70,0,0
119685,-66.6666666666667,4,2,3,70,0,0
119771,-66.6666666666667,4,2,3,70,0,0
119857,-66.6666666666667,4,2,3,70,0,0
119943,-66.6666666666667,4,2,3,70,0,0
120030,-66.6666666666667,4,2,5,65,0,0
120719,-500,4,2,5,65,0,0
120892,-500,4,2,1,60,0,0
120978,-500,4,2,1,60,0,0
121064,-500,4,2,1,60,0,0
121150,-500,4,2,1,60,0,0
121236,-500,4,2,1,60,0,0
121323,-500,4,2,1,60,0,0
121409,-47.6190476190476,4,2,1,65,0,0
121624,-47.6190476190476,4,2,1,65,0,0
121667,-47.6190476190476,4,2,1,65,0,0
122012,-66.6666666666667,4,2,1,65,0,0
122271,-55.5555555555556,4,2,1,65,0,0
122443,-166.666666666667,4,2,1,65,0,0
122788,-55.5555555555556,4,2,1,65,0,0
122961,-47.6190476190476,4,2,1,65,0,0
123392,-55.5555555555556,4,2,1,65,0,0
124168,-66.6666666666667,4,2,1,65,0,0
124340,-47.6190476190476,4,2,1,65,0,0
124383,-47.6190476190476,4,2,1,65,0,0
124426,-47.6190476190476,4,2,1,65,0,0
124771,-55.5555555555556,4,2,1,65,0,0
124814,-55.5555555555556,4,2,1,65,0,0
124857,-55.5555555555556,4,2,1,65,0,0
125030,-47.6190476190476,4,2,1,65,0,0
125202,-166.666666666667,4,2,1,65,0,0
125547,-55.5555555555556,4,2,1,65,0,0
125676,-55.5555555555556,4,2,1,65,0,0
125720,-47.6190476190476,4,2,1,65,0,0
126150,-55.5555555555556,4,2,1,65,0,0
126538,-55.5555555555556,4,2,1,65,0,0
126581,-55.5555555555556,4,2,1,65,0,0
126926,-47.6190476190476,4,2,5,65,0,0
126948,-47.6190476190476,4,2,1,65,0,0
127400,-47.6190476190476,4,2,1,65,0,0
127443,-47.6190476190476,4,2,1,65,0,0
127529,-66.6666666666667,4,2,1,65,0,0
127788,-55.5555555555556,4,2,1,65,0,0
127831,-55.5555555555556,4,2,1,65,0,0
127874,-55.5555555555556,4,2,1,65,0,0
127960,-166.666666666667,4,2,1,65,0,0
128305,-55.5555555555556,4,2,1,65,0,0
128435,-55.5555555555556,4,2,1,65,0,0
128478,-47.6190476190476,4,2,1,65,0,0
128909,-55.5555555555556,4,2,1,65,0,0
129685,-66.6666666666667,4,2,1,65,0,0
131064,-66.6666666666667,4,2,1,65,0,0
131754,-55.5555555555556,4,2,1,65,0,0
131883,-55.5555555555556,4,2,1,65,0,0
131926,-55.5555555555556,4,2,1,65,0,0
132098,-55.5555555555556,4,2,5,65,0,0
132443,-47.6190476190476,4,2,1,65,0,0
132745,-47.6190476190476,4,2,1,65,0,0
132788,-47.6190476190476,4,2,1,65,0,0
133133,-66.6666666666667,4,2,1,65,0,0
133823,-47.6190476190476,4,2,1,65,0,0
134728,-47.6190476190476,4,2,1,65,0,0
134771,-47.6190476190476,4,2,1,65,0,0
134986,-47.6190476190476,4,2,1,65,0,0
135030,-47.6190476190476,4,2,1,65,0,0
135331,-47.6190476190476,4,2,1,65,0,0
135374,-47.6190476190476,4,2,1,65,0,0
135676,-47.6190476190476,4,2,1,65,0,0
135719,-47.6190476190476,4,2,1,65,0,0
135848,-47.6190476190476,4,2,1,65,0,0
135892,-166.666666666667,4,2,1,65,0,0
136193,-166.666666666667,4,2,1,65,0,0
136236,-83.3333333333333,4,2,1,65,0,0
136366,-83.3333333333333,4,2,1,65,0,0
136409,-83.3333333333333,4,2,1,65,0,0
136581,-47.6190476190476,4,2,1,65,0,0
137055,-47.6190476190476,4,2,1,65,0,0
137098,-47.6190476190476,4,2,1,65,0,0
137271,-66.6666666666667,4,2,1,65,0,0
137961,-47.6190476190476,4,2,1,65,0,0
138090,-47.6190476190476,4,2,1,65,0,0
138133,-47.6190476190476,4,2,1,65,0,0
138650,-66.6666666666667,4,2,1,65,0,0
139340,-47.6190476190476,4,2,1,65,0,0
139814,-47.6190476190476,4,2,1,65,0,0
139857,-47.6190476190476,4,2,1,65,0,0
140719,-47.6190476190476,4,2,1,65,0,0
143133,-250,4,2,1,65,0,0
143478,-66.6666666666667,4,2,1,65,0,0
143823,-47.6190476190476,4,2,1,65,0,0
144167,-66.6666666666667,4,2,1,65,0,0
144469,-66.6666666666667,4,2,1,65,0,0
144512,-66.6666666666667,4,2,1,65,0,0
144986,-66.6666666666667,4,2,1,65,0,0
145030,-66.6666666666667,4,2,1,65,0,0
145374,-55.5555555555556,4,2,1,65,0,0
145719,-66.6666666666667,4,2,1,65,0,0
145848,-66.6666666666667,4,2,1,65,0,0
145892,-66.6666666666667,4,2,1,65,0,0
146236,-47.6190476190476,4,2,1,65,0,0
146840,-66.6666666666667,4,2,1,65,0,0
147745,-66.6666666666667,4,2,1,65,0,0
147788,-66.6666666666667,4,2,1,65,0,0
148133,-55.5555555555556,4,2,1,65,0,0
148650,-47.6190476190476,4,2,1,65,0,0
148995,-66.6666666666667,4,2,1,65,0,0
149297,-66.6666666666667,4,2,1,65,0,0
149340,-66.6666666666667,4,2,1,65,0,0
149469,-66.6666666666667,4,2,1,65,0,0
149512,-66.6666666666667,4,2,1,65,0,0
149986,-66.6666666666667,4,2,1,65,0,0
150030,-66.6666666666667,4,2,1,65,0,0
150504,-66.6666666666667,4,2,1,65,0,0
150547,-66.6666666666667,4,2,1,65,0,0
151366,-66.6666666666667,4,2,1,65,0,0
151409,-66.6666666666667,4,2,1,65,0,0
151754,-166.666666666667,4,2,1,65,0,0
153133,-47.6190476190476,4,2,1,65,0,0
153435,-47.6190476190476,4,2,1,65,0,0
153478,-47.6190476190476,4,2,1,65,0,0
153952,-47.6190476190476,4,2,1,65,0,0
153995,-47.6190476190476,4,2,1,65,0,0
154167,-100,4,2,1,65,0,0
154512,-47.6190476190476,4,2,5,65,0,0
154534,-47.6190476190476,4,2,1,65,0,0
154814,-47.6190476190476,4,2,1,65,0,0
154857,-47.6190476190476,4,2,1,65,0,0
155115,-66.6666666666667,4,2,1,65,0,0
155159,-66.6666666666667,4,2,1,65,0,0
155202,-66.6666666666667,4,2,1,65,0,0
155374,-55.5555555555556,4,2,1,65,0,0
155546,-166.666666666667,4,2,1,65,0,0
155719,-166.666666666667,4,2,5,65,0,0
155741,-166.666666666667,4,2,1,65,0,0
155891,-55.5555555555556,4,2,1,65,0,0
156021,-55.5555555555556,4,2,1,65,0,0
156064,-47.6190476190476,4,2,1,65,0,0
156495,-55.5555555555556,4,2,1,65,0,0
157271,-66.6666666666667,4,2,1,65,0,0
157443,-47.6190476190476,4,2,1,65,0,0
157874,-55.5555555555556,4,2,1,65,0,0
158090,-55.5555555555556,4,2,1,65,0,0
158133,-47.6190476190476,4,2,1,65,0,0
158305,-166.666666666667,4,2,1,65,0,0
158650,-55.5555555555556,4,2,1,65,0,0
158823,-47.6190476190476,4,2,1,65,0,0
159253,-55.5555555555556,4,2,1,65,0,0
159297,-55.5555555555556,4,2,1,65,0,0
159340,-55.5555555555556,4,2,1,65,0,0
160029,-47.6190476190476,4,2,1,65,0,0
160115,-47.6190476190476,4,2,1,65,0,0
160632,-66.6666666666667,4,2,1,65,0,0
160891,-55.5555555555556,4,2,1,65,0,0
161063,-66.6666666666667,4,2,1,65,0,0
161538,-66.6666666666667,4,2,1,5,0,0
161581,-66.6666666666667,4,2,1,65,0,0
161883,-66.6666666666667,4,2,1,65,0,0
161926,-66.6666666666667,4,2,1,65,0,0
162443,-166.666666666667,4,2,1,65,0,0
162573,-166.666666666667,4,2,1,65,0,0
162616,-166.666666666667,4,2,1,65,0,0
162788,-66.6666666666667,4,2,1,65,0,0
165159,-66.6666666666667,4,2,1,65,0,0
165202,-33.3333333333333,4,2,1,65,0,0
165504,-33.3333333333333,4,2,1,65,0,0
165547,-33.3333333333333,4,2,3,75,0,1
165568,-33.3333333333333,4,2,1,75,0,1
166064,-47.6190476190476,4,2,1,75,0,1
166711,-47.6190476190476,4,2,1,75,0,1
166754,-47.6190476190476,4,2,1,75,0,1
167228,-47.6190476190476,4,2,1,75,0,1
167271,-47.6190476190476,4,2,1,75,0,1
168952,-47.6190476190476,4,2,1,75,0,1
168995,-47.6190476190476,4,2,1,75,0,1
170719,-166.666666666667,4,2,1,75,0,1
171021,-166.666666666667,4,2,1,75,0,1
171064,-40,4,2,1,75,0,1
171409,-47.6190476190476,4,2,1,75,0,1
174124,-47.6190476190476,4,2,1,75,0,1
174167,-47.6190476190476,4,2,1,75,0,1
175417,-47.6190476190476,4,2,1,75,0,1
175461,-47.6190476190476,4,2,1,75,0,1
175848,-47.6190476190476,4,2,1,75,0,1
175892,-47.6190476190476,4,2,1,75,0,1
176236,-40,4,2,1,75,0,1
176581,-40,4,2,3,75,0,1
176603,-40,4,2,1,75,0,1
177098,-47.6190476190476,4,2,1,75,0,1
177400,-47.6190476190476,4,2,1,75,0,1
177443,-47.6190476190476,4,2,1,75,0,1
177745,-47.6190476190476,4,2,1,75,0,1
177788,-47.6190476190476,4,2,1,75,0,1
179469,-47.6190476190476,4,2,1,75,0,1
179512,-47.6190476190476,4,2,1,75,0,1
180245,-47.6190476190476,4,2,1,75,0,1
180288,-47.6190476190476,4,2,1,75,0,1
181754,-166.666666666667,4,2,1,75,0,1
182098,-40,4,2,1,75,0,1
182443,-47.6190476190476,4,2,1,75,0,1
184857,-47.6190476190476,4,2,1,75,0,0
185374,-166.666666666667,4,2,1,75,0,0
186236,-83.3333333333333,4,2,1,75,0,0
186581,-66.6666666666667,4,2,1,75,0,0
186754,-55.5555555555556,4,2,1,75,0,0
186926,-166.666666666667,4,2,1,75,0,0
187271,-47.6190476190476,4,2,1,75,0,0
187616,-33.3333333333333,4,2,5,50,0,0

[Colours]
Combo1 : 208,87,87
Combo2 : 192,192,192
Combo3 : 128,128,128
Combo4 : 128,0,255
Combo5 : 95,154,226
Combo6 : 225,30,30

[HitObjects]
193,143,30,22,0,B|168:82|281:88|249:138|343:113|343:113|247:153|176:165|7:70|42:1|42:1|65:61|128:66|128:66|134:62|134:62|61:131|133:177|115:219|115:219|82:293|63:236|-2:294|-2:294|100:171|239:230|239:230|241:226|241:226|267:261|309:254|309:254|184:276|245:328|178:383|178:383|588:290|286:335,1,1924.00004697266,8|0,3:2|0:0,0:0:0:0:
251,328,9685,70,0,P|262:344|272:361,1,38.9999997619629,2|0,2:2|0:0,0:0:0:0:
166,319,10374,2,0,P|177:303|187:286,1,38.9999997619629,2|0,2:2|0:0,0:0:0:0:
408,383,11064,22,0,P|219:320|21:279,1,400,8|8,3:2|2:2,0:0:0:0:
29,267,12098,54,0,P|64:294|89:325,1,50,2|0,0:0|0:0,0:0:0:0:
123,346,12443,1,0,0:0:0:0:
119,357,12616,1,2,0:0:0:0:
229,183,12788,2,0,P|208:197|190:214,1,50,2|0,0:0|0:0,0:0:0:0:
135,262,13133,1,8,2:2:0:0:
139,273,13306,1,2,0:0:0:0:
101,198,13478,6,0,L|107:165,1,25,2|0,0:0|0:0,0:0:0:0:
90,164,13650,2,0,L|96:197,1,25
21,203,13823,2,0,P|76:210|128:225,1,100,10|2,3:2|0:0,0:0:0:0:
178,178,14340,69,2,0:0:0:0:
206,273,14512,1,8,2:2:0:0:
211,286,14685,1,2,0:0:0:0:
256,210,14857,6,0,P|296:203|281:141,1,100,2|6,0:0|2:2,0:0:0:0:
286,146,15288,2,0,P|268:162|276:174,1,25
302,278,15547,70,0,P|312:239|326:204,1,75,2|0,0:0|0:0,0:0:0:0:
337,198,15892,6,0,L|332:231,1,25,10|0,0:0|0:0,0:0:0:0:
412,249,16064,2,0,L|407:216,1,25,2|2,0:0|0:0,0:0:0:0:
485,186,16236,69,2,0:0:0:0:
477,202,16409,1,0,0:0:0:0:
474,312,16581,22,0,P|449:244|382:107,1,200,10|10,0:0|0:0,0:0:0:0:
373,60,17098,54,0,P|401:55|415:63,1,37.5000014305115,2|2,0:0|0:0,0:0:0:0:
336,122,17271,2,0,P|359:138|363:153,1,37.5000014305115,2|0,0:0|0:0,0:0:0:0:
251,188,17443,5,0,0:0:0:0:
165,170,17616,1,10,0:0:0:0:
121,288,17788,70,0,P|111:263|100:242,1,37.5000014305115,2|2,0:0|0:0,0:0:0:0:
191,275,17961,2,0,P|191:248|188:224,1,37.5000014305115,2|0,0:0|0:0,0:0:0:0:
301,230,18133,5,0,0:0:0:0:
281,314,18305,1,10,0:0:0:0:
204,375,18478,70,0,P|190:362|188:344,1,37.5000014305115,2|0,0:0|0:0,0:0:0:0:
357,375,18650,2,0,P|373:347|367:335,1,37.5000014305115,2|0,0:0|0:0,0:0:0:0:
400,240,18823,5,0,0:0:0:0:
362,161,18995,1,10,0:0:0:0:
374,59,19167,70,0,P|355:77|335:76,1,37.5000014305115,2|2,0:0|0:0,0:0:0:0:
236,20,19340,1,10,3:2:0:0:
256,192,19512,12,2,21926,0:0:0:0:
102,100,22098,37,12,3:2:0:0:
131,231,22271,1,0,3:2:0:0:
131,231,22357,1,0,3:2:0:0:
131,231,22443,1,0,3:2:0:0:
172,156,22616,37,10,3:2:0:0:
75,296,22788,1,0,0:0:0:0:
75,296,22874,1,8,3:2:0:0:
75,296,22961,1,0,3:2:0:0:
138,354,23133,38,0,P|147:320|158:298,1,50,8|0,3:2|0:0,0:0:0:0:
69,172,23305,2,0,B|53:161|53:161|78:206,1,50,0|0,3:2|3:2,0:0:0:0:
222,200,23478,38,0,P|156:231|114:227,1,100,8|0,3:2|3:2,0:0:0:0:
136,242,23736,1,0,3:2:0:0:
136,242,23823,1,0,3:2:0:0:
248,283,23995,37,10,3:2:0:0:
229,124,24167,1,0,0:0:0:0:
229,124,24254,1,8,3:2:0:0:
229,124,24340,1,0,3:2:0:0:
285,69,24512,38,0,B|309:61|300:50|330:44,1,50,8|0,3:2|0:0,0:0:0:0:
398,136,24685,2,0,P|370:122|335:111,1,50,0|0,3:2|3:2,0:0:0:0:
158,78,24857,37,8,3:2:0:0:
215,8,25030,1,0,3:2:0:0:
215,8,25116,1,0,3:2:0:0:
215,8,25202,1,0,3:2:0:0:
85,111,25374,37,10,3:2:0:0:
135,242,25547,1,0,0:0:0:0:
135,242,25633,1,8,3:2:0:0:
135,242,25720,1,0,3:2:0:0:
182,296,25892,38,0,P|203:268|202:240,1,50,8|0,3:2|0:0,0:0:0:0:
88,302,26064,2,0,P|112:327|126:347,1,50,0|0,3:2|3:2,0:0:0:0:
308,369,26237,38,0,P|235:361|196:368,1,100,8|0,3:2|3:2,0:0:0:0:
209,364,26495,1,0,3:2:0:0:
209,364,26582,1,0,3:2:0:0:
284,234,26754,37,10,3:2:0:0:
182,296,26926,1,0,0:0:0:0:
182,296,27013,1,8,3:2:0:0:
182,296,27099,1,0,3:2:0:0:
215,135,27271,38,0,P|231:160|227:187,1,50,8|0,3:2|0:0,0:0:0:0:
146,163,27443,2,0,P|146:187|162:206,1,50,8|8,3:2|3:2,0:0:0:0:
284,234,27616,21,12,3:1:0:0:
381,138,27788,1,8,3:2:0:0:
451,156,27961,69,8,3:2:0:0:
495,62,28133,1,10,3:2:0:0:
336,45,28305,5,0,0:0:0:0:
367,142,28478,1,8,3:2:0:0:
273,237,28650,69,8,3:2:0:0:
287,162,28823,1,0,3:2:0:0:
430,215,28995,5,8,3:2:0:0:
354,285,29167,1,8,3:2:0:0:
352,371,29340,69,8,3:2:0:0:
233,332,29512,1,10,3:2:0:0:
160,340,29685,5,0,0:0:0:0:
118,276,29857,1,8,3:2:0:0:
154,353,30030,69,8,3:2:0:0:
29,279,30202,1,8,3:2:0:0:
2,184,30374,22,0,P|43:169|86:169,1,75.0000028610231,4|0,3:2|0:0,0:0:0:0:
235,217,30547,2,0,P|211:205|214:148,1,75.0000028610231,0|0,3:2|0:0,0:0:0:0:
309,91,30719,70,0,P|287:143|280:184,1,75.0000028610231,0|0,3:2|0:0,0:0:0:0:
167,265,30892,2,0,P|160:289|169:266,1,75.0000028610231,0|0,3:2|0:0,0:0:0:0:
148,102,31064,38,0,B|116:88|116:88|175:148,1,75.0000028610231,0|0,3:2|0:0,0:0:0:0:
417,178,31236,2,0,P|416:141|386:121,1,75.0000028610231,0|0,3:2|0:0,0:0:0:0:
127,196,31409,70,0,P|178:184|243:180,1,75.0000028610231,0|0,3:2|0:0,0:0:0:0:
512,29,31581,2,0,P|467:56|418:99,1,75.0000028610231,0|0,3:2|0:0,0:0:0:0:
406,255,31754,37,12,3:2:0:0:
406,255,32616,70,0,P|407:259|405:254,2,20,2|2|2,0:0|0:0|0:0,0:0:0:0:
512,303,33133,22,0,B|363:282|363:282|356:274|356:274|173:246,1,314.999990386963,6|0,3:2|0:0,0:0:0:0:
122,261,33478,6,0,P|107:218|188:210,1,104.999996795654,8|0,3:2|0:0,0:0:0:0:
259,268,33650,1,2,3:2:0:0:
269,282,33736,2,0,P|193:328|139:380,1,150.000005722046,0|0,3:2|0:0,0:0:0:0:
56,357,33995,70,0,B|23:347|23:347|89:385,1,89.9999972534181,2|0,3:2|0:0,0:0:0:0:
278,373,34167,6,0,P|281:357|270:344,1,29.9999990844727,10|0,3:2|0:0,0:0:0:0:
200,358,34340,2,0,P|197:374|207:386,1,29.9999990844727,0|0,3:2|3:2,0:0:0:0:
399,375,34512,70,0,P|408:334|442:248,1,89.9999972534181,2|0,3:2|0:0,0:0:0:0:
311,138,34685,2,0,B|281:115|281:115|320:174,1,104.999996795654,2|0,3:2|0:0,0:0:0:0:
446,198,34857,6,0,B|474:179|507:206|507:206|434:200|359:229,1,209.999993591309,10|2,3:2|3:2,0:0:0:0:
278,272,35116,70,0,P|244:297|234:209,1,179.999994506836,0|0,0:0|3:2,0:0:0:0:
230,209,35374,2,0,P|268:244|228:276,1,89.9999972534181,2|0,3:2|0:0,0:0:0:0:
136,284,35547,5,10,3:2:0:0:
62,270,35719,1,0,3:2:0:0:
158,357,35892,70,0,P|197:340|208:307,1,75.0000028610231,2|0,3:2|0:0,0:0:0:0:
129,97,36064,2,0,B|106:147|149:154|133:198,1,104.999996795654,2|0,0:0|0:0,0:0:0:0:
11,189,36236,6,0,B|164:173|164:173|168:177|168:177|238:169,1,209.999993591309,8|0,3:2|3:2,0:0:0:0:
423,177,36495,70,0,B|330:101|330:101|293:192,1,179.999994506836,0|0,3:2|0:0,0:0:0:0:
302,162,36754,2,0,B|285:212|285:212|360:247,1,104.999996795654,2|0,3:2|0:0,0:0:0:0:
484,293,36926,6,0,L|487:259,1,29.9999990844727,10|0,3:2|0:0,0:0:0:0:
468,246,37098,2,0,L|471:275,1,29.9999990844727,2|0,3:2|0:0,0:0:0:0:
400,331,37271,70,0,P|448:334|482:292,1,89.9999972534181,2|0,3:2|0:0,0:0:0:0:
423,177,37443,2,0,P|401:133|347:124,1,89.9999972534181,2|0,3:2|0:0,0:0:0:0:
302,68,37616,6,0,P|346:177|363:310,1,209.999993591309,10|2,3:2|3:2,0:0:0:0:
361,381,37874,2,0,B|358:290|268:310|221:231,1,179.999994506836,2|2,3:2|3:2,0:0:0:0:
247,173,38133,70,0,P|248:198|216:282,1,89.9999972534181,2|0,3:2|0:0,0:0:0:0:
99,367,38305,2,0,B|128:389|128:389|88:316,1,89.9999972534181,8|0,3:2|0:0,0:0:0:0:
9,207,38478,5,0,3:2:0:0:
16,222,38564,1,0,3:2:0:0:
0,229,38650,2,0,B|180:192|120:332|290:386,1,314.999990386963,4|0,3:2|0:0,0:0:0:0:
133,225,38995,70,0,P|131:184|187:151,1,104.999996795654,10|0,3:2|0:0,0:0:0:0:
339,160,39167,5,2,3:2:0:0:
353,166,39253,2,0,P|259:200|186:254,1,150.000005722046
133,225,39512,2,0,B|112:215|113:185|113:185|125:208|163:232,1,89.9999972534181,0|0,3:2|0:0,0:0:0:0:
278,373,39684,70,0,P|281:357|270:344,1,29.9999990844727,10|0,3:2|0:0,0:0:0:0:
349,295,39857,2,0,P|339:281|322:280,1,29.9999990844727,0|0,3:2|3:2,0:0:0:0:
405,180,40029,6,0,P|369:164|311:200,1,89.9999972534181,2|0,3:2|0:0,0:0:0:0:
116,104,40202,2,0,B|93:68|93:68|171:130,1,104.999996795654,2|0,3:2|0:0,0:0:0:0:
323,83,40374,70,0,B|203:86|268:196|118:198,1,209.999993591309,10|2,3:2|3:2,0:0:0:0:
21,84,40633,2,0,P|141:101|206:116,1,179.999994506836,0|0,0:0|3:2,0:0:0:0:
448,103,40892,2,0,B|464:73|464:73|406:131,1,89.9999972534181,2|0,3:2|0:0,0:0:0:0:
342,244,41064,5,10,3:2:0:0:
314,165,41236,1,0,3:2:0:0:
354,0,41409,37,2,3:2:0:0:
352,7,41495,1,0,0:0:0:0:
350,14,41581,1,0,3:2:0:0:
349,21,41667,1,0,0:0:0:0:
347,29,41753,1,2,3:2:0:0:
345,36,41840,1,0,0:0:0:0:
344,43,41926,1,0,3:2:0:0:
342,51,42012,1,0,3:2:0:0:
349,61,42098,5,2,3:2:0:0:
360,71,42185,1,0,0:0:0:0:
378,73,42271,1,0,3:2:0:0:
353,86,42357,1,0,3:2:0:0:
322,105,42443,1,2,3:2:0:0:
285,129,42530,1,0,0:0:0:0:
248,155,42616,1,0,3:2:0:0:
198,190,42702,1,0,3:2:0:0:
137,233,42788,38,0,P|128:188|178:167,1,75.0000028610231,10|0,3:2|3:2,0:0:0:0:
317,245,42960,2,0,P|286:300|271:341,1,75.0000028610231,8|0,3:2|3:2,0:0:0:0:
227,213,43133,2,0,P|207:272|200:316,1,75.0000028610231,8|0,3:2|3:2,0:0:0:0:
80,337,43305,5,8,3:2:0:0:
50,333,43392,1,0,3:2:0:0:
52,345,43478,2,0,B|151:335|151:335|158:342|158:342|162:334|162:334|273:323,1,209.999993591309,8|0,3:2|0:0,0:0:0:0:
438,358,43736,69,0,0:0:0:0:
426,353,43823,2,0,L|411:288,1,59.9999981689454,8|0,3:2|0:0,0:0:0:0:
505,278,43995,2,0,L|498:307,1,29.9999990844727
343,347,44167,54,0,B|274:181|476:214|553:132|487:62,1,375,6|0,3:2|0:0,0:0:0:0:
491,55,44512,2,0,B|433:48|433:48|403:147,1,104.999996795654,8|0,3:2|0:0,0:0:0:0:
343,347,44685,5,2,3:2:0:0:
343,347,44771,1,0,3:2:0:0:
343,347,44857,2,0,P|316:300|279:247,1,104.999996795654,2|0,3:2|0:0,0:0:0:0:
235,107,45030,2,0,P|272:157|221:201,1,104.999996795654,2|0,3:2|0:0,0:0:0:0:
124,311,45202,70,0,P|181:184|422:201,1,314.999990386963,10|0,3:2|3:2,0:0:0:0:
350,157,45547,6,0,L|389:152,1,29.9999990844727,2|0,3:2|0:0,0:0:0:0:
387,233,45719,2,0,L|348:238,1,29.9999990844727,2|0,3:2|0:0,0:0:0:0:
427,34,45892,70,0,B|510:71|510:71|490:135|490:135|493:140|493:140|488:142|488:142|465:222,1,225.000008583069,8|0,3:2|3:2,0:0:0:0:
481,356,46236,6,0,B|512:311|512:311|473:248,1,104.999996795654,0|0,3:2|0:0,0:0:0:0:
254,347,46409,2,0,L|386:321,1,104.999996795654,2|0,3:2|0:0,0:0:0:0:
472,195,46581,70,0,B|475:152|511:135|511:135|368:69|299:199,1,314.999990386963,10|0,3:2|3:2,0:0:0:0:
387,233,46926,2,0,B|407:254|415:270|415:270|420:236|391:220,1,104.999996795654,2|0,3:2|0:0,0:0:0:0:
279,32,47098,5,2,0:0:0:0:
263,28,47185,1,0,0:0:0:0:
246,26,47271,2,0,P|275:89|331:284,1,225.000008583069,8|0,3:2|0:0,0:0:0:0:
358,342,47616,70,0,B|337:294|302:339|259:281,1,104.999996795654,2|0,3:2|0:0,0:0:0:0:
159,136,47788,2,0,B|198:104|198:104|161:172,1,104.999996795654,2|0,3:2|0:0,0:0:0:0:
69,242,47961,6,0,B|245:222|245:222|240:217|240:217|425:198,1,314.999990386963,10|0,3:2|0:0,0:0:0:0:
448,158,48306,70,0,P|439:145|437:130,1,29.9999990844727,2|0,3:2|0:0,0:0:0:0:
337,126,48478,2,0,P|351:121|361:110,1,29.9999990844727,2|0,3:2|0:0,0:0:0:0:
510,51,48650,6,0,B|531:178|381:107|348:261,1,225.000008583069,10|0,3:2|0:0,0:0:0:0:
480,324,48995,70,0,B|511:286|442:208|427:252,1,104.999996795654,2|0,3:2|0:0,0:0:0:0:
286,244,49167,2,0,B|217:264|276:313|293:248,1,104.999996795654,2|0,3:2|0:0,0:0:0:0:
337,126,49340,6,0,B|421:204|453:329|361:381|260:324|285:211|387:223,1,375,8|0,3:2|3:2,0:0:0:0:
480,324,49685,70,0,P|311:263|51:217,1,375,4|0,3:2|0:0,0:0:0:0:
34,252,50030,2,0,P|111:240|119:186,1,104.999996795654,10|0,3:2|0:0,0:0:0:0:
0,87,50203,5,2,3:2:0:0:
0,87,50289,1,0,3:2:0:0:
0,87,50375,2,0,P|29:130|54:184,1,104.999996795654,2|0,3:2|0:0,0:0:0:0:
34,252,50547,2,0,B|15:272|13:298|13:298|3:266|24:240,1,104.999996795654,0|0,3:2|0:0,0:0:0:0:
275,88,50719,70,0,B|273:260|119:167|52:311|139:360,1,314.999990386963,10|0,3:2|0:0,0:0:0:0:
116,333,51065,6,0,L|120:297,1,29.9999990844727,2|0,3:2|0:0,0:0:0:0:
194,273,51236,2,0,L|201:308,1,29.9999990844727,2|0,3:2|0:0,0:0:0:0:
49,369,51409,70,0,P|166:339|288:321,1,225.000008583069,10|0,3:2|0:0,0:0:0:0:
389,329,51754,2,0,B|415:367|415:367|316:298,1,104.999996795654,0|0,3:2|0:0,0:0:0:0:
181,197,51926,1,2,3:2:0:0:
312,47,52098,6,0,B|324:121|324:121|331:125|331:125|346:251,1,209.999993591309,10|0,3:2|3:2,0:0:0:0:
285,300,52357,1,0,3:2:0:0:
276,300,52443,2,0,B|232:264|232:264|260:209,1,104.999996795654,2|0,3:2|0:0,0:0:0:0:
427,191,52616,1,0,0:0:0:0:
432,198,52702,2,0,L|419:235,1,29.9999990844727
256,192,52874,12,8,54512,3:2:0:0:
365,305,54685,37,0,0:0:0:0:
365,305,54771,1,0,0:0:0:0:
365,305,54857,2,0,L|361:343,3,20,12|8|8|8,0:0|0:0|0:0|0:0,0:0:0:0:
246,199,55202,53,6,3:2:0:0:
226,201,55288,1,0,0:0:0:0:
209,204,55374,2,0,B|167:243|167:243|197:307,1,104.999996795654
290,376,55547,2,0,L|264:212,1,104.999996795654,8|0,3:2|0:0,0:0:0:0:
173,92,55719,69,2,3:2:0:0:
165,86,55805,1,0,3:2:0:0:
158,82,55892,2,0,B|123:63|123:63|201:173,1,104.999996795654,2|0,3:2|0:0,0:0:0:0:
314,194,56064,2,0,P|338:155|270:119,1,104.999996795654,2|0,3:2|0:0,0:0:0:0:
110,243,56236,70,0,P|293:197|399:284,1,314.999990386963,10|0,3:2|3:2,0:0:0:0:
487,375,56581,21,2,3:2:0:0:
470,380,56667,1,0,0:0:0:0:
451,372,56754,2,0,B|420:308|468:310|482:256,1,104.999996795654,2|0,3:2|0:0,0:0:0:0:
394,121,56926,2,0,P|374:91|389:124,1,104.999996795654,10|0,3:2|0:0,0:0:0:0:
494,183,57098,53,2,3:2:0:0:
494,183,57185,1,0,3:2:0:0:
494,183,57271,2,0,P|435:195|366:214,1,104.999996795654,0|0,3:2|3:2,0:0:0:0:
280,180,57443,2,0,P|259:138|316:72,1,104.999996795654,2|0,3:2|0:0,0:0:0:0:
397,49,57616,6,0,B|402:160|261:99|249:194,1,225.000008583069,10|0,3:2|3:2,0:0:0:0:
301,335,57961,5,2,3:2:0:0:
308,324,58047,1,0,0:0:0:0:
313,313,58133,2,0,P|276:292|204:260,1,104.999996795654,2|0,0:0|0:0,0:0:0:0:
71,190,58305,2,0,B|77:160|111:150|111:150|89:168|93:195,1,104.999996795654,8|0,3:2|0:0,0:0:0:0:
76,352,58478,69,0,3:2:0:0:
67,353,58564,1,0,3:2:0:0:
59,353,58650,2,0,B|28:305|28:305|76:253,1,104.999996795654,2|0,3:2|0:0,0:0:0:0:
154,269,58823,2,0,B|185:317|185:317|137:369,1,104.999996795654,2|0,3:2|0:0,0:0:0:0:
71,190,58995,69,10,3:2:0:0:
69,168,59081,1,0,0:0:0:0:
66,145,59167,2,0,L|62:97,1,29.9999990844727,2|0,3:2|3:2,0:0:0:0:
149,43,59340,6,0,P|156:88|118:130,2,79.9999975585938,2|0|0,3:2|0:0|0:0,0:0:0:0:
61,102,59685,2,0,P|53:56|91:14,2,79.9999975585938,10|0|0,3:2|0:0|0:0,0:0:0:0:
215,3,60030,70,0,P|248:24|260:61,2,79.9999975585938,2|0|0,3:2|0:0|0:0,0:0:0:0:
333,125,60374,5,8,3:2:0:0:
197,184,60547,1,0,0:0:0:0:
141,132,60719,70,0,P|227:153|450:233,1,314.999990386963,4|0,3:2|0:0,0:0:0:0:
512,260,61064,6,0,B|486:243|484:201|414:207,1,104.999996795654,10|0,3:2|0:0,0:0:0:0:
312,270,61236,2,0,B|285:295|309:332|309:332|305:302|344:261,1,104.999996795654,2|0,3:2|3:2,0:0:0:0:
467,133,61409,6,0,L|461:104,2,29.9999990844727,2|0|0,3:2|0:0|3:2,0:0:0:0:
238,34,61754,2,0,L|244:5,2,29.9999990844727,10|0|0,3:2|0:0|3:2,0:0:0:0:
250,46,62012,70,0,B|134:70|241:150|101:179,1,209.999993591309,0|0,3:2|0:0,0:0:0:0:
5,65,62271,2,0,P|93:75|94:118,1,104.999996795654,2|0,3:2|0:0,0:0:0:0:
118,306,62443,2,0,B|140:158|2:137|2:137|49:178|17:243,1,314.999990386963,10|0,3:2|3:2,0:0:0:0:
14,217,62788,70,0,B|66:225|66:225|68:232|68:232|71:227|71:227|128:236,1,104.999996795654,0|0,3:2|0:0,0:0:0:0:
251,263,62961,1,2,3:2:0:0:
14,363,63133,6,0,B|167:345|167:345|170:349|170:349|343:330,1,314.999990386963,10|0,3:2|3:2,0:0:0:0:
326,332,63478,38,0,L|321:368,3,36.0000008789063,2|2|2|2,3:2|3:2|3:2|3:2,0:0:0:0:
114,257,64685,70,0,P|137:242|179:255,1,75.0000028610231,0|0,3:2|0:0,0:0:0:0:
187,356,64857,2,0,B|126:199|323:232|354:124,1,314.999990386963,10|0,3:2|0:0,0:0:0:0:
260,64,65202,70,0,P|261:30|259:64,1,104.999996795654,8|0,3:2|0:0,0:0:0:0:
409,370,65374,2,0,B|466:124|183:236|66:59|149:4,1,524.999983978272,8|0,3:2|0:0,0:0:0:0:
453,69,65892,6,0,B|278:89|278:89|272:84|272:84|76:106,1,375,4|0,0:0|0:0,0:0:0:0:
35,20,66236,38,0,B|145:63|145:63|122:153|122:153|117:155|117:155|92:266,1,314.999990386963,8|0,3:2|0:0,0:0:0:0:
39,301,66581,6,0,B|-1:263|-1:263|48:187,1,104.999996795654,8|0,3:2|0:0,0:0:0:0:
0,384,66753,1,2,3:2:0:0:
1,384,66839,2,0,L|219:338,1,150.000005722046,0|0,3:2|0:0,0:0:0:0:
376,246,67098,2,0,P|345:306|336:334,1,89.9999972534181,2|0,3:2|0:0,0:0:0:0:
202,246,67270,70,0,P|203:275|221:290,1,29.9999990844727,10|0,3:2|0:0,0:0:0:0:
281,263,67443,2,0,P|285:247|277:234,1,29.9999990844727,4|0,3:2|3:2,0:0:0:0:
118,173,67616,6,0,P|170:177|207:119,1,89.9999972534181,2|0,3:2|0:0,0:0:0:0:
277,143,67788,2,0,P|296:94|251:37,1,104.999996795654,2|0,3:2|0:0,0:0:0:0:
139,32,67961,2,0,B|124:117|264:111|279:222,1,209.999993591309,10|2,3:2|3:2,0:0:0:0:
281,263,68219,2,0,L|482:295,1,179.999994506836,0|0,3:2|0:0,0:0:0:0:
512,353,68478,2,0,P|525:372|508:353,1,89.9999972534181,2|0,3:2|0:0,0:0:0:0:
448,215,68650,69,10,3:2:0:0:
485,149,68822,1,0,3:2:0:0:
282,377,68995,6,0,P|264:341|232:327,1,75.0000028610231,2|0,3:2|0:0,0:0:0:0:
362,374,69167,2,0,P|374:335|338:279,1,104.999996795654,2|0,0:0|0:0,0:0:0:0:
5,317,69340,70,0,P|71:275|198:236,1,209.999993591309,8|0,3:2|3:2,0:0:0:0:
354,188,69598,2,0,B|368:237|132:172|212:274,1,179.999994506836
132,311,69857,2,0,B|127:263|77:291|66:232,1,104.999996795654,2|0,3:2|0:0,0:0:0:0:
42,133,70029,6,0,P|37:150|23:157,1,29.9999990844727,10|0,3:2|0:0,0:0:0:0:
129,146,70202,2,0,P|127:163|137:175,1,29.9999990844727,2|0,3:2|3:2,0:0:0:0:
154,73,70374,70,0,B|113:102|113:102|144:184,1,89.9999972534181,2|0,3:2|0:0,0:0:0:0:
300,288,70547,2,0,B|257:256|257:256|290:177,1,104.999996795654,2|0,3:2|0:0,0:0:0:0:
348,21,70719,6,0,B|347:117|347:117|350:122|350:122|352:230,1,209.999993591309,10|2,3:2|3:2,0:0:0:0:
478,346,70978,2,0,B|384:319|442:246|339:226,1,179.999994506836,2|2,3:2|3:2,0:0:0:0:
263,369,71236,2,0,L|377:344,1,89.9999972534181,2|0,3:2|0:0,0:0:0:0:
170,306,71409,2,0,L|205:316,1,29.9999990844727,8|0,3:2|0:0,0:0:0:0:
122,239,71581,69,0,3:2:0:0:
117,227,71667,1,0,3:2:0:0:
113,257,71754,2,0,B|101:221|66:209|66:209|44:77|205:46|186:158,1,314.999990386963,4|0,3:2|0:0,0:0:0:0:
170,306,72098,6,0,B|198:311|210:340|210:340|211:297|163:288,1,104.999996795654,10|0,3:2|0:0,0:0:0:0:
52,114,72270,69,2,3:2:0:0:
38,122,72357,2,0,P|113:130|186:159,1,150.000005722046,0|0,3:2|0:0,0:0:0:0:
452,241,72615,2,0,B|409:238|417:207|359:210,1,89.9999972534181,0|0,3:2|0:0,0:0:0:0:
249,196,72788,6,0,P|272:154|321:188,1,89.9999972534181,10|0,3:2|0:0,0:0:0:0:
309,363,72961,2,0,P|299:262|196:207,1,179.999994506836,0|2,3:2|3:2,0:0:0:0:
52,114,73219,1,0,0:0:0:0:
39,122,73305,2,0,P|86:70|136:108,1,104.999996795654,2|0,3:2|0:0,0:0:0:0:
381,121,73477,70,0,B|276:128|276:128|272:133|272:133|146:142,1,209.999993591309,10|2,3:2|3:2,0:0:0:0:
51,264,73736,2,0,B|80:234|89:179|89:179|109:231|163:266,1,179.999994506836,0|0,3:2|0:0,0:0:0:0:
106,326,73995,2,0,P|104:356|103:326,1,89.9999972534181,2|0,3:2|0:0,0:0:0:0:
200,327,74167,5,10,3:2:0:0:
13,364,74339,1,0,3:2:0:0:
256,192,74512,37,2,3:2:0:0:
256,192,74598,12,8,76581,3:2:0:0:
27,193,76926,54,0,B|42:139|26:70|26:70|118:23|128:155|41:134|41:134|104:145|124:201,1,405.000001544952,6|0,3:1|0:0,0:0:0:0:
333,100,77271,2,0,B|262:-6|91:72|140:229|346:203|336:324|155:351,1,500,6|8,3:1|3:2,0:0:0:0:
96,360,77788,5,2,3:2:0:0:
96,360,77874,1,0,3:2:0:0:
96,360,77961,2,0,P|140:331|141:246,1,104.999996795654,2|0,3:2|0:0,0:0:0:0:
129,86,78133,2,0,B|72:44|72:44|105:89,1,104.999996795654,2|0,3:2|0:0,0:0:0:0:
322,238,78305,70,0,B|211:224|322:233|211:220,1,104.999996795654,10|0,3:2|0:0,0:0:0:0:
27,193,78478,2,0,B|138:207|27:198|138:211,1,104.999996795654,0|0,3:2|3:2,0:0:0:0:
246,365,78650,6,0,B|189:173|367:232|430:63,1,314.999990386963,2|0,3:2|0:0,0:0:0:0:
396,123,78995,70,0,P|367:202|388:252,1,104.999996795654,10|0,3:2|0:0,0:0:0:0:
459,240,79167,2,0,P|488:161|467:111,1,104.999996795654,2|0,3:2|3:2,0:0:0:0:
251,98,79340,6,0,B|206:65|206:65|310:106,1,104.999996795654,0|0,3:2|3:2,0:0:0:0:
322,238,79512,2,0,B|315:293|315:293|299:182,1,104.999996795654,2|0,3:2|0:0,0:0:0:0:
396,123,79685,70,0,P|249:186|112:287,1,314.999990386963,10|0,3:2|3:2,0:0:0:0:
58,318,80030,6,0,B|36:269|36:269|103:211,1,104.999996795654,2|0,3:2|0:0,0:0:0:0:
233,305,80202,2,0,L|109:288,1,104.999996795654,2|0,0:0|0:0,0:0:0:0:
15,186,80374,70,0,B|29:114|55:153|89:84,1,104.999996795654,8|0,3:2|0:0,0:0:0:0:
13,50,80547,2,0,B|3:21|37:1|37:1|22:24|30:74,1,104.999996795654,0|0,3:2|3:2,0:0:0:0:
15,186,80719,6,0,P|151:207|269:248,1,209.999993591309,2|2,3:2|3:2,0:0:0:0:
371,245,80978,69,0,0:0:0:0:
371,245,81064,2,0,P|323:181|273:244,1,104.999996795654,10|0,3:2|3:2,0:0:0:0:
432,300,81236,2,0,P|478:234|402:206,1,104.999996795654,2|0,3:2|0:0,0:0:0:0:
362,384,81409,6,0,P|386:216|451:59,1,314.999990386963,2|0,3:2|0:0,0:0:0:0:
320,0,81754,2,0,P|344:84|340:176,1,104.999996795654,10|0,3:2|0:0,0:0:0:0:
279,277,81926,70,0,B|248:268|244:226|244:226|198:164|98:180|61:230|112:326|239:266,1,314.999990386963,2|0,3:2|0:0,0:0:0:0:
328,222,82271,2,0,B|352:203|340:174|340:174|338:201|314:201|328:223,1,104.999996795654,2|0,3:2|0:0,0:0:0:0:
144,357,82443,6,0,P|146:295|181:278,1,89.9999972534181,10|0,3:1|0:2,0:0:0:0:
388,337,82788,2,0,B|454:323|478:381|478:381|338:311|216:344,1,375,6|0,3:1|0:0,0:0:0:0:
54,335,83133,70,0,P|6:289|91:169,1,209.999993591309,10|2,3:2|3:2,0:0:0:0:
242,127,83392,5,0,3:2:0:0:
242,127,83478,2,0,B|211:83|211:83|144:117,1,104.999996795654,2|0,3:2|0:0,0:0:0:0:
56,173,83650,2,0,L|186:205,1,104.999996795654,0|0,3:2|0:0,0:0:0:0:
354,54,83823,70,0,P|364:99|268:119,1,104.999996795654,10|0,3:2|0:0,0:0:0:0:
220,245,83995,2,0,P|262:263|310:315,1,104.999996795654,0|0,3:2|0:0,0:0:0:0:
472,96,84167,6,0,P|394:283|386:330,2,209.999993591309,2|2|10,3:2|3:2|3:2,0:0:0:0:
304,320,84685,70,0,P|331:285|387:321,1,104.999996795654,2|0,3:2|3:2,0:0:0:0:
392,297,84857,2,0,P|407:337|348:368,1,104.999996795654,0|0,3:2|3:2,0:0:0:0:
365,382,85030,2,0,P|321:375|325:309,1,104.999996795654,2|0,3:2|0:0,0:0:0:0:
493,346,85202,6,0,B|182:261|494:342|182:257|495:339|182:253,1,314.999990386963,10|0,3:2|3:2,0:0:0:0:
21,208,85547,2,0,B|59:177|61:55|61:55|92:172|147:193,1,314.999990386963,2|0,3:2|3:2,0:0:0:0:
92,265,85892,2,0,P|96:299|90:265,1,104.999996795654,10|0,3:2|0:0,0:0:0:0:
182,115,86064,70,0,P|198:84|185:116,1,104.999996795654,0|0,3:2|0:0,0:0:0:0:
21,208,86236,2,0,P|77:179|149:192,1,104.999996795654,2|0,3:2|0:0,0:0:0:0:
371,218,86409,6,0,P|315:220|284:180,1,104.999996795654,0|0,3:2|3:2,0:0:0:0:
317,106,86581,2,0,P|367:103|403:140,1,104.999996795654,10|0,3:2|0:0,0:0:0:0:
203,298,86754,2,0,P|188:238|211:191,1,104.999996795654,0|0,3:2|0:0,0:0:0:0:
470,214,86926,69,10,3:2:0:0:
345,295,87098,1,8,3:2:0:0:
371,218,87271,5,8,3:2:0:0:
408,369,87443,1,8,3:2:0:0:
269,384,87616,70,0,B|226:204|402:294|444:168,1,314.999990386963,8|0,3:2|0:0,0:0:0:0:
383,123,87961,6,0,B|360:6|237:1|237:1|203:126|70:116|70:116,1,405.000001544952,10|0,3:1|0:0,0:0:0:0:
26,74,88305,2,0,P|256:104|526:218,1,500,6|8,3:1|3:2,0:0:0:0:
410,73,88823,69,2,3:2:0:0:
410,73,88909,1,0,3:2:0:0:
410,73,88996,2,0,L|336:186,1,104.999996795654,2|0,3:2|0:0,0:0:0:0:
508,285,89168,2,0,B|402:281,1,104.999996795654,2|0,3:2|0:0,0:0:0:0:
227,229,89340,6,0,P|200:278|192:349,1,104.999996795654,10|0,3:2|0:0,0:0:0:0:
288,358,89513,2,0,P|288:305|304:255,1,104.999996795654,0|0,3:2|3:2,0:0:0:0:
403,258,89685,70,0,P|247:279|97:326,1,314.999990386963,2|0,3:2|0:0,0:0:0:0:
56,264,90030,6,0,B|48:224|-4:223|1:155,1,104.999996795654,10|0,3:2|0:0,0:0:0:0:
100,27,90202,2,0,P|117:108|56:91,1,104.999996795654,2|0,3:2|3:2,0:0:0:0:
1,176,90375,70,0,L|159:204,1,104.999996795654,0|0,3:2|3:2,0:0:0:0:
227,229,90547,2,0,B|272:229|272:229|212:252,1,104.999996795654,2|0,3:2|0:0,0:0:0:0:
145,324,90720,6,0,B|101:105|262:206|306:42,1,314.999990386963,10|0,3:2|3:2,0:0:0:0:
316,84,91065,70,0,B|294:35|414:9,1,104.999996795654,2|0,3:2|0:0,0:0:0:0:
491,147,91237,2,0,P|426:126|367:120,1,104.999996795654,2|0,0:0|0:0,0:0:0:0:
345,262,91409,6,0,B|359:253|359:253|313:133,1,104.999996795654,8|0,3:2|0:0,0:0:0:0:
149,70,91582,2,0,B|116:39|116:39|148:99,1,104.999996795654,0|0,3:2|3:2,0:0:0:0:
328,171,91754,70,0,B|190:177|287:73|88:95,1,209.999993591309,2|2,3:2|3:2,0:0:0:0:
17,23,92013,5,0,0:0:0:0:
17,23,92099,2,0,B|28:73|28:73|23:75|23:75|28:76|28:76|51:153,1,104.999996795654,10|0,3:2|0:0,0:0:0:0:
63,329,92271,2,0,B|107:346|107:346|147:305,1,104.999996795654,2|0,3:2|3:2,0:0:0:0:
83,238,92444,70,0,B|1:191|1:191|104:214|104:214|107:212|107:212|138:219|138:219|141:223|141:223|303:256,1,314.999990386963,2|0,3:2|0:0,0:0:0:0:
328,171,92789,2,0,P|255:153|271:243,1,104.999996795654,10|0,3:2|0:0,0:0:0:0:
290,355,92961,6,0,B|227:145|455:247|482:82,1,314.999990386963,2|2,3:2|3:2,0:0:0:0:
410,73,93306,2,0,B|365:-46|429:85,1,104.999996795654,2|0,3:2|0:0,0:0:0:0:
498,208,93478,70,0,P|481:150|436:138,1,89.9999972534181,10|0,3:1|0:0,0:0:0:0:
328,171,93823,2,0,B|301:193|269:176|254:131|201:159|201:159|290:110|349:189|312:180|351:267|458:223,1,375,6|0,3:1|0:0,0:0:0:0:
512,337,94168,6,0,P|464:291|326:226,1,209.999993591309,10|2,3:2|3:2,0:0:0:0:
162,228,94427,69,0,3:2:0:0:
162,228,94513,2,0,B|126:229|122:265|122:265|143:243|169:243,1,104.999996795654,2|0,3:2|0:0,0:0:0:0:
265,319,94685,2,0,P|177:320|172:270,1,104.999996795654,0|0,3:2|0:0,0:0:0:0:
21,120,94858,6,0,P|84:133|79:205,1,104.999996795654,10|0,3:2|0:0,0:0:0:0:
27,303,95030,2,0,P|72:276|156:244,1,104.999996795654,0|0,3:2|3:2,0:0:0:0:
265,319,95202,70,0,B|239:186|354:239|424:150,2,209.999993591309,2|2|10,3:2|3:2|3:2,0:0:0:0:
236,34,95720,6,0,B|254:-1|254:-1|318:41,1,104.999996795654,2|0,3:2|3:2,0:0:0:0:
251,109,95892,2,0,B|210:111|210:111|216:33,1,104.999996795654,0|0,3:2|3:2,0:0:0:0:
308,60,96064,2,0,B|330:93|330:93|260:127,1,104.999996795654,2|0,3:2|0:0,0:0:0:0:
97,187,96237,70,0,B|52:61|420:217,1,314.999990386963,10|0,3:2|3:2,0:0:0:0:
470,232,96581,2,0,B|487:217|487:217|416:107|416:107|370:232|370:232|398:240,1,314.999990386963,2|0,3:2|3:2,0:0:0:0:
452,318,96925,21,2,3:2:0:0:
452,318,97012,1,0,0:0:0:0:
452,318,97098,2,0,P|466:314|493:296,3,29.9999990844727,0|0|2|0,3:2|3:2|3:2|0:0,0:0:0:0:
358,352,97443,1,0,3:2:0:0:
358,352,97530,1,0,3:2:0:0:
358,352,97616,2,0,P|365:339|371:307,3,29.9999990844727,2|0|0|0,3:2|0:0|3:2|3:2,0:0:0:0:
272,369,97961,22,0,P|258:323|238:296,1,59.9999981689454,10|0,3:2|3:2,0:0:0:0:
314,260,98133,2,0,P|272:237|238:232,1,59.9999981689454,8|0,3:2|3:2,0:0:0:0:
101,212,98305,6,0,B|90:194|90:194|152:165,1,75.0000028610231,8|0,3:2|3:2,0:0:0:0:
283,89,98478,2,0,P|262:106|219:168,1,89.9999972534181,8|0,3:2|3:2,0:0:0:0:
92,339,98650,38,0,B|224:346|143:244|304:226,1,209.999993591309,8|8,3:2|3:2,0:0:0:0:
453,296,98909,1,0,0:0:0:0:
453,296,98995,2,0,B|428:269|387:278|387:278|321:238|294:123|344:69|448:73|432:225,1,419.999987182618,8|8,3:2|3:2,0:0:0:0:
258,112,108995,85,2,2:2:0:0:
196,242,109685,1,2,2:2:0:0:
256,384,110374,6,0,P|261:183|179:5,1,400,12|0,3:2|0:0,0:0:0:0:
179,5,111409,22,0,P|188:39|222:37,1,50,8|0,3:2|0:0,0:0:0:0:
261,98,111581,2,0,P|302:89|322:60,1,50,0|0,3:2|3:2,0:0:0:0:
296,4,111754,38,0,P|276:49|260:97,1,100,8|0,3:2|3:2,0:0:0:0:
273,124,112012,1,0,3:2:0:0:
273,124,112099,1,0,3:2:0:0:
233,261,112271,37,10,3:2:0:0:
182,140,112443,1,0,0:0:0:0:
182,140,112530,1,8,3:2:0:0:
182,140,112616,1,0,3:2:0:0:
104,229,112788,38,0,L|166:219,1,50,8|0,3:2|0:0,0:0:0:0:
294,200,112961,2,0,B|298:204|298:204|341:197,1,50,0|0,3:2|3:2,0:0:0:0:
426,183,113133,37,8,3:2:0:0:
319,312,113306,1,0,3:2:0:0:
319,312,113392,1,0,3:2:0:0:
319,312,113478,1,0,3:2:0:0:
417,294,113650,37,10,3:2:0:0:
322,122,113823,1,0,0:0:0:0:
322,122,113909,1,8,3:2:0:0:
322,122,113996,1,0,3:2:0:0:
351,40,114168,38,0,B|383:1|363:45,1,50,8|0,3:2|0:0,0:0:0:0:
254,168,114340,2,0,P|236:151|239:127,1,50,0|0,3:2|3:2,0:0:0:0:
400,141,114513,38,0,P|351:202|307:174,1,100,8|0,3:2|3:2,0:0:0:0:
346,213,114771,1,0,3:2:0:0:
346,213,114858,1,0,3:2:0:0:
140,190,115030,37,10,3:2:0:0:
225,284,115202,1,0,0:0:0:0:
225,284,115289,1,8,3:2:0:0:
225,284,115375,1,0,3:2:0:0:
65,284,115547,38,0,P|76:304|75:335,1,50,8|0,3:2|0:0,0:0:0:0:
22,181,115719,2,0,P|43:187|65:209,1,50,8|8,3:2|3:2,0:0:0:0:
0,355,115892,21,12,3:1:0:0:
154,372,116064,1,8,3:2:0:0:
233,360,116237,69,8,3:2:0:0:
155,244,116409,1,10,3:2:0:0:
333,151,116581,5,0,0:0:0:0:
296,221,116754,1,8,3:2:0:0:
307,137,116926,69,8,3:2:0:0:
203,167,117099,1,0,3:2:0:0:
225,15,117271,5,8,3:2:0:0:
302,55,117443,1,8,3:2:0:0:
313,52,117616,69,8,3:2:0:0:
408,26,117788,1,10,3:2:0:0:
502,195,117961,5,0,0:0:0:0:
407,120,118133,1,8,3:2:0:0:
271,286,118306,69,8,3:2:0:0:
410,245,118478,1,8,3:2:0:0:
367,375,118650,22,0,P|371:359|332:309,1,75.0000028610231,4|0,3:2|0:0,0:0:0:0:
209,160,118823,2,0,P|186:179|188:229,1,75.0000028610231,0|0,3:2|0:0,0:0:0:0:
158,348,118995,70,0,P|201:321|240:305,1,75.0000028610231,0|0,3:2|0:0,0:0:0:0:
338,191,119168,2,0,P|345:167|336:190,1,75.0000028610231,0|0,3:2|0:0,0:0:0:0:
107,269,119340,38,0,P|102:286|105:266,1,75.0000028610231,0|0,3:2|0:0,0:0:0:0:
112,24,119512,2,0,L|135:108,1,75.0000028610231,0|0,3:2|0:0,0:0:0:0:
0,132,119685,70,0,L|89:155,1,75.0000028610231,0|0,3:2|0:0,0:0:0:0:
314,71,119857,2,0,B|331:31|331:31|297:67,1,75.0000028610231,0|0,3:2|0:0,0:0:0:0:
338,191,120030,21,12,3:2:0:0:
263,220,120719,5,0,0:0:0:0:
263,220,120805,1,0,0:0:0:0:
263,220,120892,2,0,L|284:214,2,20,2|2|2,0:0|0:0|0:0,0:0:0:0:
302,384,121409,6,0,P|248:229|37:150,1,314.999990386963,6|0,3:2|0:0,0:0:0:0:
55,113,121754,6,0,B|81:91|82:56|82:56|109:82|146:88,1,104.999996795654,8|0,3:2|0:0,0:0:0:0:
135,250,121926,1,2,3:2:0:0:
135,250,122012,2,0,P|181:334|233:262,1,150.000005722046,0|0,3:2|0:0,0:0:0:0:
213,148,122271,70,0,B|188:133|206:102|206:102|208:125|224:142,1,89.9999972534181,2|0,3:2|0:0,0:0:0:0:
358,218,122443,6,0,L|315:196,1,29.9999990844727,10|0,3:2|0:0,0:0:0:0:
342,98,122616,2,0,L|313:131,1,29.9999990844727,0|0,3:2|3:2,0:0:0:0:
402,316,122788,70,0,P|411:259|467:199,1,89.9999972534181,2|0,3:2|0:0,0:0:0:0:
342,98,122961,2,0,B|283:62|283:62|331:119,1,104.999996795654,2|0,3:2|0:0,0:0:0:0:
511,143,123133,6,0,B|277:185,1,209.999993591309,10|2,3:2|3:2,0:0:0:0:
141,225,123392,70,0,B|187:192|204:148|204:148|196:196|216:254,1,179.999994506836,0|0,3:2|3:2,0:0:0:0:
207,226,123650,2,0,P|233:258|169:292,1,89.9999972534181,2|0,3:2|0:0,0:0:0:0:
73,309,123823,5,10,3:2:0:0:
42,242,123995,1,0,3:2:0:0:
33,66,124168,70,0,P|69:73|106:84,1,75.0000028610231,2|0,3:2|0:0,0:0:0:0:
101,163,124340,2,0,P|51:148|0:138,1,104.999996795654
208,26,124512,6,0,B|335:11|277:87|408:84,1,209.999993591309,8|0,3:2|3:2,0:0:0:0:
386,8,124771,70,0,B|322:20|320:117|232:99,1,179.999994506836
111,83,125030,2,0,B|84:35|84:35|126:8,1,104.999996795654
336,156,125202,6,0,L|330:197,1,29.9999990844727,10|0,3:2|0:0,0:0:0:0:
259,220,125374,2,0,L|247:179,1,29.9999990844727,2|0,3:2|3:2,0:0:0:0:
417,174,125547,70,0,B|434:220|434:220|388:264,1,89.9999972534181,2|0,3:2|0:0,0:0:0:0:
169,222,125719,2,0,B|152:176|152:176|198:132,1,89.9999972534181,2|0,3:2|0:0,0:0:0:0:
334,285,125892,6,0,B|125:314|335:289|126:319,1,209.999993591309,10|2,3:2|3:2,0:0:0:0:
5,370,126150,2,0,B|-26:281|98:299|99:203,1,179.999994506836,2|2,3:2|3:2,0:0:0:0:
51,162,126409,70,0,B|26:121|26:121|37:185,1,89.9999972534181,2|0,3:2|0:0,0:0:0:0:
127,319,126581,2,0,P|162:351|205:342,1,89.9999972534181,8|0,3:2|0:0,0:0:0:0:
51,162,126754,5,0,3:2:0:0:
51,162,126840,1,0,3:2:0:0:
51,162,126926,2,0,P|266:162|378:291,1,314.999990386963,4|0,3:2|0:0,0:0:0:0:
453,320,127271,70,0,P|456:281|393:268,1,104.999996795654,10|0,3:2|0:0,0:0:0:0:
254,256,127443,5,2,3:2:0:0:
254,256,127529,2,0,P|278:167|367:201,1,150.000005722046,0|0,3:2|0:0,0:0:0:0:
452,147,127788,69,0,0:0:0:0:
452,147,127874,1,0,0:0:0:0:
452,147,127960,2,0,P|455:131|444:118,1,29.9999990844727,10|0,3:2|0:0,0:0:0:0:
463,38,128133,2,0,P|453:24|436:23,1,29.9999990844727,0|0,3:2|3:2,0:0:0:0:
314,9,128305,6,0,L|338:95,1,89.9999972534181,2|0,3:2|0:0,0:0:0:0:
221,186,128478,2,0,B|201:132|201:132|267:85,1,104.999996795654,2|0,3:2|0:0,0:0:0:0:
367,205,128650,70,0,P|256:192|162:320,1,209.999993591309,10|2,3:2|3:2,0:0:0:0:
85,304,128909,2,0,L|263:348,1,179.999994506836,0|0,3:2|3:2,0:0:0:0:
331,332,129168,2,0,B|356:312|331:286|331:286|338:311|315:318|339:349,1,89.9999972534181,2|0,3:2|0:0,0:0:0:0:
405,367,129340,5,10,3:2:0:0:
420,359,129512,1,0,3:2:0:0:
446,230,129685,37,2,3:2:0:0:
446,230,129771,1,0,0:0:0:0:
452,234,129857,1,0,3:2:0:0:
460,234,129943,1,0,3:2:0:0:
468,227,130029,1,2,3:2:0:0:
469,214,130116,1,0,0:0:0:0:
460,203,130202,1,0,3:2:0:0:
447,197,130288,1,0,3:2:0:0:
429,195,130374,5,2,3:2:0:0:
417,199,130461,1,0,0:0:0:0:
401,208,130547,1,0,3:2:0:0:
372,222,130633,1,0,3:2:0:0:
337,220,130719,1,2,3:2:0:0:
288,193,130806,1,0,0:0:0:0:
245,143,130892,1,0,3:2:0:0:
252,77,130978,1,0,3:2:0:0:
301,24,131064,38,0,P|337:57|321:100,1,75.0000028610231,10|0,3:2|3:2,0:0:0:0:
157,111,131236,2,0,P|197:128|244:162,1,75.0000028610231,8|0,3:2|3:2,0:0:0:0:
337,220,131409,2,0,B|351:186|351:186|312:227,1,75.0000028610231,8|0,3:2|3:2,0:0:0:0:
167,260,131581,5,8,3:2:0:0:
157,250,131668,1,0,3:2:0:0:
174,247,131754,2,0,P|304:255|494:294,1,269.999991760254,8|0,3:2|0:0,0:0:0:0:
434,292,132098,2,0,P|301:268|167:260,1,269.999991760254,8|0,3:2|0:0,0:0:0:0:
105,299,132443,38,0,P|71:272|77:210,1,104.999996795654,6|0,3:2|0:0,0:0:0:0:
72,128,132616,2,0,P|22:137|1:183,1,104.999996795654
108,382,132788,6,0,B|174:383|143:342|220:352,1,104.999996795654,8|0,3:2|0:0,0:0:0:0:
244,229,132961,2,0,P|207:221|175:278,1,104.999996795654,2|0,3:2|3:2,0:0:0:0:
286,366,133133,70,0,P|311:284|361:172,1,150.000005722046,2|2,3:2|3:2,0:0:0:0:
198,97,133392,1,0,0:0:0:0:
190,90,133478,2,0,P|221:172|266:279,1,150.000005722046,10|0,3:2|0:0,0:0:0:0:
409,255,133736,5,0,3:2:0:0:
409,255,133823,2,0,P|414:214|439:136,1,104.999996795654,2|0,3:2|0:0,0:0:0:0:
505,171,133995,2,0,P|489:221|482:273,1,104.999996795654,2|0,3:2|0:0,0:0:0:0:
286,366,134167,69,10,3:2:0:0:
323,280,134340,1,2,3:2:0:0:
111,314,134512,6,0,P|227:266|326:296,1,209.999993591309,0|0,3:2|0:0,0:0:0:0:
42,258,134771,1,0,0:0:0:0:
42,258,134857,2,0,P|130:168|232:157,1,209.999993591309,10|0,3:2|3:2,0:0:0:0:
391,156,135116,69,0,3:2:0:0:
391,156,135202,2,0,B|412:108|412:108|362:178,1,104.999996795654,2|0,3:2|0:0,0:0:0:0:
370,270,135374,2,0,B|401:312|401:312|365:233,1,104.999996795654,2|0,0:0|0:0,0:0:0:0:
209,153,135547,6,0,P|273:167|336:202,1,104.999996795654,8|0,3:2|0:0,0:0:0:0:
290,262,135719,2,0,P|226:248|163:213,1,104.999996795654,0|0,3:2|0:0,0:0:0:0:
42,258,135892,70,0,L|36:218,1,29.9999990844727,2|0,3:2|0:0,0:0:0:0:
109,214,136064,2,0,L|116:250,1,29.9999990844727,2|0,3:2|0:0,0:0:0:0:
32,341,136236,6,0,L|117:350,1,59.9999981689454,10|0,3:2|0:0,0:0:0:0:
185,357,136409,2,0,L|270:366,1,59.9999981689454,2|0,3:2|3:2,0:0:0:0:
374,244,136581,70,0,P|304:238|293:288,1,104.999996795654,2|0,3:2|0:0,0:0:0:0:
338,379,136754,2,0,P|396:341|466:320,1,104.999996795654,2|0,3:2|0:0,0:0:0:0:
487,251,136926,6,0,P|499:192|447:165,1,104.999996795654,10|0,3:2|0:0,0:0:0:0:
469,166,137098,2,0,P|457:225|509:252,1,104.999996795654,2|2,3:2|3:2,0:0:0:0:
488,22,137271,70,0,B|395:16|465:98|368:125,1,150.000005722046,2|2,3:2|3:2,0:0:0:0:
371,246,137530,1,0,0:0:0:0:
371,246,137616,1,8,3:2:0:0:
371,246,137702,2,0,B|285:216|348:170|251:143,1,150.000005722046,0|0,0:0|3:2,0:0:0:0:
131,28,137961,6,0,P|175:129|209:267,1,209.999993591309,4|0,3:2|0:0,0:0:0:0:
131,28,138305,70,0,P|74:74|114:123,1,104.999996795654,10|0,3:2|0:0,0:0:0:0:
167,180,138478,2,0,P|216:160|267:147,1,104.999996795654,2|0,3:2|3:2,0:0:0:0:
435,111,138650,6,0,P|397:176|371:246,1,150.000005722046,2|0,3:2|3:2,0:0:0:0:
279,227,138909,1,0,0:0:0:0:
279,227,138995,2,0,P|294:300|321:370,1,150.000005722046,10|0,3:2|3:2,0:0:0:0:
415,348,139254,69,0,3:2:0:0:
415,348,139340,2,0,B|443:335|436:305|436:305|430:324|411:332|400:339|413:347,1,104.999996795654,2|0,3:2|0:0,0:0:0:0:
222,345,139512,2,0,B|298:342|264:380|336:368,1,104.999996795654,2|0,3:2|0:0,0:0:0:0:
501,259,139685,6,0,P|479:210|426:205,1,104.999996795654,10|0,3:2|0:0,0:0:0:0:
435,111,139857,2,0,P|381:116|360:165,1,104.999996795654,2|0,3:2|3:2,0:0:0:0:
158,285,140030,70,0,P|259:242|392:239,1,209.999993591309,0|2,3:2|3:2,0:0:0:0:
155,129,140288,1,0,0:0:0:0:
155,129,140374,2,0,P|265:127|389:174,1,209.999993591309,10|0,3:2|3:2,0:0:0:0:
432,202,140633,5,0,3:2:0:0:
432,202,140719,1,2,3:2:0:0:
432,202,140805,1,0,0:0:0:0:
432,202,140892,1,0,0:0:0:0:
256,192,140978,12,8,142788,3:2:0:0:
260,208,142961,5,8,0:0:0:0:
260,208,143047,1,8,0:0:0:0:
260,208,143133,2,0,L|254:232,3,20,12|8|8|8,0:0|0:0|0:0|0:0,0:0:0:0:
126,231,143478,54,0,P|126:216|176:199,1,75.0000028610231,6|0,3:2|0:0,0:0:0:0:
118,308,143650,2,0,P|105:315|65:280,1,75.0000028610231
315,318,143823,6,0,P|201:257|118:228,1,209.999993591309,8|2,3:2|3:2,0:0:0:0:
55,186,144081,1,0,3:2:0:0:
55,186,144167,2,0,B|23:105|79:183,1,75.0000028610231,2|0,3:2|0:0,0:0:0:0:
175,364,144340,2,0,P|197:324|222:288,1,75.0000028610231,2|0,3:2|0:0,0:0:0:0:
367,123,144512,70,0,B|395:154|395:154|375:198,1,75.0000028610231,10|0,3:2|0:0,0:0:0:0:
225,176,144685,2,0,L|328:165,1,75.0000028610231,0|0,3:2|3:2,0:0:0:0:
507,284,144857,6,0,P|481:242|424:259,1,112.500004291535,2|0,3:2|0:0,0:0:0:0:
426,255,145030,2,0,P|431:289|464:285,1,75.0000028610231,2|0,3:2|0:0,0:0:0:0:
440,33,145202,69,10,3:2:0:0:
440,33,145374,2,0,L|344:47,1,89.9999972534181,2|0,3:2|3:2,0:0:0:0:
455,109,145547,2,0,L|359:123,1,89.9999972534181,0|0,3:2|3:2,0:0:0:0:
196,73,145719,6,0,P|232:36|259:36,1,75.0000028610231,2|0,3:2|0:0,0:0:0:0:
225,176,145892,2,0,P|174:163|161:139,1,75.0000028610231,10|0,3:2|0:0,0:0:0:0:
0,236,146064,69,0,3:2:0:0:
0,236,146150,1,0,0:0:0:0:
0,236,146236,2,0,B|94:233|94:233|96:240|96:240|221:235,1,209.999993591309,2|2,3:2|0:0,0:0:0:0:
268,376,146495,1,0,0:0:0:0:
268,376,146581,2,0,B|217:246|332:274|376:186,1,209.999993591309,8|0,3:2|3:2,0:0:0:0:
307,153,146840,5,0,3:2:0:0:
307,153,146926,2,0,B|304:129|278:122|278:122|293:141|295:171,1,75.0000028610231,2|0,3:2|0:0,0:0:0:0:
421,252,147098,2,0,B|443:261|462:242|462:242|438:245|411:232,1,75.0000028610231,2|0,3:2|0:0,0:0:0:0:
365,348,147271,70,0,P|342:294|354:247,1,75.0000028610231,10|0,3:2|0:0,0:0:0:0:
392,142,147443,2,0,P|436:103|484:100,1,75.0000028610231,2|0,3:2|3:2,0:0:0:0:
232,14,147616,6,0,L|246:87,1,75.0000028610231,2|0,3:2|0:0,0:0:0:0:
327,73,147788,2,0,L|312:0,1,75.0000028610231,2|0,3:2|0:0,0:0:0:0:
123,142,147961,2,0,P|160:142|193:158,1,75.0000028610231,10|0,3:2|0:0,0:0:0:0:
297,312,148133,70,0,B|284:266|252:289|237:243,1,89.9999972534181,2|2,3:2|3:2,0:0:0:0:
278,182,148305,2,0,B|262:122|321:137|278:182,1,89.9999972534181,2|2,3:2|3:2,0:0:0:0:
91,237,148478,5,2,3:2:0:0:
91,237,148564,1,0,0:0:0:0:
91,237,148650,2,0,P|163:233|424:265,1,314.999990386963,8|0,3:2|3:2,0:0:0:0:
478,261,148995,70,0,B|488:227|488:227|445:192,1,75.0000028610231,4|0,3:2|0:0,0:0:0:0:
278,182,149167,2,0,P|296:252|297:282,1,75.0000028610231
353,153,149340,6,0,B|390:148|390:148|355:168,1,75.0000028610231,10|0,3:2|0:0,0:0:0:0:
204,198,149512,2,0,B|169:213|169:213|210:211,1,75.0000028610231,2|0,3:2|0:0,0:0:0:0:
375,73,149685,70,0,P|374:31|346:11,1,75.0000028610231,2|0,3:2|0:0,0:0:0:0:
172,85,149857,2,0,P|217:110|262:88,1,75.0000028610231,0|0,3:2|0:0,0:0:0:0:
235,30,150030,6,0,P|229:4|232:31,1,75.0000028610231,10|0,3:2|0:0,0:0:0:0:
12,126,150202,2,0,P|18:152|15:125,1,75.0000028610231,0|0,3:2|3:2,0:0:0:0:
102,260,150374,70,0,P|147:259|179:235,1,75.0000028610231,2|0,3:2|0:0,0:0:0:0:
68,47,150547,2,0,P|94:90|121:198,2,150.000005722046,2|10|2,3:2|3:2|3:2,0:0:0:0:
251,232,150978,5,0,3:2:0:0:
251,232,151064,2,0,P|271:189|296:168,1,75.0000028610231,0|0,3:2|3:2,0:0:0:0:
314,353,151236,2,0,P|299:318|257:306,1,75.0000028610231,2|0,3:2|0:0,0:0:0:0:
129,371,151409,70,0,L|220:350,1,75.0000028610231,10|0,3:2|0:0,0:0:0:0:
384,301,151581,2,0,L|475:280,1,75.0000028610231,0|0,3:2|3:2,0:0:0:0:
439,60,151754,54,0,B|507:199|360:230|360:230|441:160|341:143|394:83|443:84,1,419.999987182618,2|0,3:2|0:0,0:0:0:0:
511,251,153133,70,0,P|301:186|100:157,1,419.999987182618,10|8,3:2|3:2,0:0:0:0:
139,322,153650,2,0,B|93:298|93:298|132:141|132:141|237:266|237:266|200:314,1,419.999987182618,8|8,3:2|0:0,0:0:0:0:
317,299,154167,6,0,P|324:267|344:259,1,50,4|0,0:0|0:0,0:0:0:0:
354,187,154340,2,0,P|386:184|400:201,1,50,4|0,0:0|0:0,0:0:0:0:
512,223,154512,54,0,P|388:255|193:342,1,314.999990386963,8|0,3:2|0:0,0:0:0:0:
139,322,154857,54,0,B|102:316|99:284|99:284|122:308|154:313,1,104.999996795654,8|0,3:2|0:0,0:0:0:0:
383,342,155029,1,2,3:2:0:0:
383,342,155115,2,0,B|402:261|306:295|284:211,1,150.000005722046
354,187,155374,2,0,P|367:157|351:186,1,89.9999972534181,2|0,3:2|0:0,0:0:0:0:
221,219,155546,6,0,P|222:190|240:175,1,29.9999990844727,10|0,3:2|0:0,0:0:0:0:
173,118,155719,2,0,P|201:110|221:122,1,29.9999990844727,4|0,3:2|3:2,0:0:0:0:
410,22,155892,70,0,P|378:74|316:61,1,89.9999972534181,2|0,3:2|0:0,0:0:0:0:
275,57,156064,2,0,B|249:7|249:7|290:58,1,104.999996795654,2|0,3:2|0:0,0:0:0:0:
173,118,156237,2,0,B|279:141|279:141|281:146|281:146|394:166,1,209.999993591309,10|2,3:2|3:2,0:0:0:0:
500,175,156495,2,0,B|490:141|513:83|513:83|482:135|429:140,1,179.999994506836,0|0,3:2|0:0,0:0:0:0:
439,219,156754,1,2,3:2:0:0:
439,219,156840,1,0,0:0:0:0:
439,219,156926,5,10,3:2:0:0:
500,323,157098,1,0,3:2:0:0:
247,268,157271,6,0,P|232:233|253:200,1,75.0000028610231,2|0,3:2|0:0,0:0:0:0:
335,331,157443,2,0,P|347:292|311:236,1,104.999996795654
270,40,157616,70,0,B|304:152|144:108|164:199,1,209.999993591309,8|0,3:2|3:2,0:0:0:0:
247,268,157874,2,0,P|179:244|43:229,1,179.999994506836,0|0,3:2|0:0,0:0:0:0:
15,292,158133,2,0,P|53:325|102:311,1,104.999996795654,2|0,3:2|0:0,0:0:0:0:
29,118,158305,70,0,P|31:102|19:87,1,29.9999990844727,10|0,3:2|0:0,0:0:0:0:
129,127,158478,2,0,P|143:144|138:156,1,29.9999990844727,2|0,3:2|3:2,0:0:0:0:
310,105,158650,6,0,P|340:59|308:3,1,89.9999972534181,2|0,3:2|0:0,0:0:0:0:
149,34,158823,70,0,P|190:51|222:107,1,104.999996795654,2|0,3:2|0:0,0:0:0:0:
453,256,158995,6,0,P|390:223|247:174,1,209.999993591309,10|2,3:2|3:2,0:0:0:0:
237,257,159254,2,0,B|222:285|160:279|160:279|214:281|209:231|247:255,1,179.999994506836,0|2,0:0|3:2,0:0:0:0:
291,359,159512,2,0,P|305:308|333:259,1,89.9999972534181,2|0,3:2|0:0,0:0:0:0:
406,147,159685,2,0,P|422:122|408:149,1,89.9999972534181,8|0,3:2|0:0,0:0:0:0:
237,257,159857,21,0,3:2:0:0:
237,257,159943,1,0,3:2:0:0:
237,257,160030,2,0,B|151:155|422:148|306:77|122:14|251:105,1,314.999990386963,4|0,3:2|0:0,0:0:0:0:
349,67,160374,54,0,B|381:55|380:25|380:25|368:54|340:59,1,104.999996795654,10|0,3:2|0:0,0:0:0:0:
121,61,160546,69,2,3:2:0:0:
108,69,160632,2,0,P|206:84|288:123,1,150.000005722046,0|0,3:2|0:0,0:0:0:0:
406,147,160891,2,0,P|436:158|405:149,1,89.9999972534181,0|0,3:2|0:0,0:0:0:0:
349,67,161064,6,0,P|367:142|382:247,1,150.000005722046,10|0,3:2|3:2,0:0:0:0:
512,308,161323,2,0,P|491:254|451:331,1,187.500007152558,0|0,3:2|0:0,0:0:0:0:
442,324,161581,2,0,P|480:310|460:277,1,75.0000028610231,2|0,3:2|0:0,0:0:0:0:
250,252,161754,70,0,B|281:302|362:270|364:364,1,150.000005722046,10|2,3:2|3:2,0:0:0:0:
261,358,162012,2,0,B|248:296|320:310|353:239,1,150.000005722046,0|0,3:2|0:0,0:0:0:0:
423,226,162271,2,0,P|400:181|361:188,1,75.0000028610231,2|0,3:2|0:0,0:0:0:0:
192,165,162443,6,0,L|200:201,1,29.9999990844727,10|0,3:2|0:0,0:0:0:0:
274,179,162616,2,0,L|267:150,1,29.9999990844727,0|0,3:2|3:2,0:0:0:0:
121,208,162788,53,2,3:2:0:0:
256,192,162874,12,8,164857,3:2:0:0:
121,260,165202,38,0,B|73:185|90:92|90:92|183:72|211:162|134:190|134:190|182:237|208:239,1,450.000017166138,6|0,3:1|0:0,0:0:0:0:
427,63,165547,2,0,B|492:-50|192:20|130:166|208:253|509:108|424:432|222:357,1,600.000022888185,6|8,3:1|3:2,0:0:0:0:
162,363,166064,5,2,3:2:0:0:
162,363,166150,1,0,3:2:0:0:
162,363,166237,2,0,P|179:288|232:276,1,104.999996795654,2|0,3:2|0:0,0:0:0:0:
292,364,166409,2,0,B|419:374,1,104.999996795654,2|0,3:2|0:0,0:0:0:0:
294,217,166581,70,0,B|286:166|231:192|209:146,1,104.999996795654,10|0,3:2|0:0,0:0:0:0:
193,84,166754,2,0,B|201:54|243:53|243:53|207:69|214:101,1,104.999996795654,0|0,3:2|3:2,0:0:0:0:
360,259,166926,6,0,P|271:227|130:219,2,209.999993591309,2|2|10,3:2|3:2|3:2,0:0:0:0:
462,155,167443,2,0,P|474:122|457:153,1,104.999996795654,2|0,3:2|3:2,0:0:0:0:
460,333,167616,70,0,P|468:290|408:219,1,104.999996795654,0|0,3:2|0:0,0:0:0:0:
425,49,167788,6,0,P|386:28|300:63,1,104.999996795654,2|0,3:2|0:0,0:0:0:0:
462,155,167961,70,0,P|305:169|132:204,1,314.999990386963,10|0,3:2|3:2,0:0:0:0:
31,170,168306,6,0,B|35:200|3:223|3:223|6:411|180:308|66:218,1,314.999990386963,2|0,3:2|0:0,0:0:0:0:
30,93,168650,70,0,B|8:75|13:43|13:43|20:71|39:86,1,104.999996795654,8|0,3:2|0:0,0:0:0:0:
284,270,168823,2,0,P|279:218|220:194,1,104.999996795654,0|0,3:2|0:0,0:0:0:0:
31,170,168995,6,0,B|158:159|101:269|236:263,1,209.999993591309,2|2,3:2|3:2,0:0:0:0:
344,175,169254,69,0,0:0:0:0:
344,175,169340,2,0,P|336:152|341:173,1,104.999996795654,10|0,3:2|0:0,0:0:0:0:
426,328,169512,2,0,P|455:264|409:231,1,104.999996795654,2|0,3:2|0:0,0:0:0:0:
341,384,169685,6,0,P|365:216|392:156,1,209.999993591309,2|2,3:2|3:2,0:0:0:0:
512,15,170030,70,0,B|530:67|530:67|486:106,1,104.999996795654,10|0,3:2|0:0,0:0:0:0:
149,115,170202,2,0,L|268:81,1,104.999996795654,2|2,3:2|3:2,0:0:0:0:
284,270,170374,6,0,L|319:170,1,104.999996795654,2|0,3:2|0:0,0:0:0:0:
361,56,170547,2,0,B|391:-46|353:53,1,104.999996795654,2|0,3:2|0:0,0:0:0:0:
195,191,170719,70,0,B|203:213|195:236|195:236|205:213|234:204,1,89.9999972534181,10|0,3:1|0:0,0:0:0:0:
416,194,171064,2,0,P|249:214|39:272,1,375,6|0,3:1|0:0,0:0:0:0:
0,322,171409,6,0,B|-35:231|165:247|121:160,1,209.999993591309,10|2,3:2|3:2,0:0:0:0:
114,110,171668,69,0,3:2:0:0:
114,110,171754,2,0,P|57:103|33:154,1,104.999996795654,2|0,3:2|0:0,0:0:0:0:
96,348,171926,2,0,P|153:355|177:304,1,104.999996795654,0|0,3:2|0:0,0:0:0:0:
220,89,172099,6,0,B|166:51|166:51|196:92,1,104.999996795654,10|0,3:2|0:0,0:0:0:0:
316,251,172271,2,0,P|340:261|315:248,1,104.999996795654,0|0,3:2|0:0,0:0:0:0:
263,371,172443,70,0,P|239:264|207:149,2,209.999993591309,2|2|10,3:2|3:2|3:2,0:0:0:0:
350,169,172961,6,0,P|394:126|438:98,1,104.999996795654,2|0,3:2|3:2,0:0:0:0:
320,66,173133,2,0,P|335:125|337:177,1,104.999996795654,0|0,3:2|3:2,0:0:0:0:
437,87,173305,2,0,P|377:70|331:46,1,104.999996795654,2|0,3:2|0:0,0:0:0:0:
512,191,173478,70,0,B|204:229|523:187|202:225|523:184|201:221,1,314.999990386963,10|0,3:2|3:2,0:0:0:0:
113,225,173823,2,0,B|17:255|0:123|0:123|47:205|97:126|101:232,1,314.999990386963,2|0,3:2|0:0,0:0:0:0:
100,308,174168,2,0,B|67:352|67:352|83:301,1,104.999996795654,10|0,3:2|0:0,0:0:0:0:
185,56,174340,6,0,P|145:52|135:121,1,104.999996795654,0|0,3:2|0:0,0:0:0:0:
201,220,174512,2,0,P|224:187|169:144,1,104.999996795654,2|0,3:2|0:0,0:0:0:0:
100,308,174685,70,0,P|148:320|218:346,1,104.999996795654,0|0,3:2|3:2,0:0:0:0:
482,346,174857,2,0,L|368:372,1,104.999996795654,10|0,3:2|0:0,0:0:0:0:
351,205,175030,2,0,L|320:305,1,104.999996795654,0|0,3:2|3:2,0:0:0:0:
284,373,175202,5,10,3:2:0:0:
447,194,175374,1,0,0:0:0:0:
391,122,175547,69,8,3:2:0:0:
419,275,175719,1,8,3:2:0:0:
492,293,175892,6,0,B|541:101|297:257|258:97,1,314.999990386963,8|0,3:2|0:0,0:0:0:0:
407,5,176236,70,0,B|436:46|490:53|490:53|356:63|356:63|352:59|352:59|168:73,1,375,10|0,3:1|0:0,0:0:0:0:
106,217,176581,2,0,B|13:207|51:127|-2:97|-2:97|129:168|35:318|218:309,1,500,6|8,3:1|3:2,0:0:0:0:
272,262,177098,5,2,3:2:0:0:
272,262,177184,1,0,3:2:0:0:
272,262,177271,2,0,P|243:218|162:245,1,104.999996795654,2|0,3:2|0:0,0:0:0:0:
274,350,177443,2,0,P|285:376|277:346,1,104.999996795654,2|0,3:2|0:0,0:0:0:0:
368,190,177615,70,0,P|389:142|415:81,1,104.999996795654,10|0,3:2|0:0,0:0:0:0:
335,60,177788,2,0,P|314:108|293:156,1,104.999996795654,0|0,3:2|3:2,0:0:0:0:
272,262,177960,6,0,P|343:216|469:174,2,209.999993591309,2|2|10,3:2|3:2|3:2,0:0:0:0:
91,200,178477,2,0,B|70:137|38:193|20:104,1,104.999996795654,2|0,3:2|3:2,0:0:0:0:
39,50,178650,70,0,B|35:3|35:3|74:89,1,104.999996795654,0|0,3:2|0:0,0:0:0:0:
111,292,178822,2,0,B|80:298|59:273|59:273|85:291|131:276,1,104.999996795654,2|0,3:2|0:0,0:0:0:0:
423,264,178995,6,0,P|236:270|84:298,1,314.999990386963,10|0,3:2|3:2,0:0:0:0:
1,221,179340,70,0,B|57:167|58:71|58:71|70:165|127:211,1,314.999990386963,2|0,3:2|0:0,0:0:0:0:
172,379,179684,6,0,B|223:345|246:277,1,104.999996795654,8|0,3:2|0:0,0:0:0:0:
257,124,179857,2,0,B|222:97|222:97|264:164,1,104.999996795654,0|0,3:2|3:2,0:0:0:0:
406,299,180029,70,0,B|285:321|340:196|179:226,1,209.999993591309,2|0,3:2|0:0,0:0:0:0:
91,200,180288,5,0,0:0:0:0:
91,200,180374,2,0,P|103:151|151:137,1,104.999996795654,10|0,3:2|0:0,0:0:0:0:
237,298,180547,2,0,B|215:334|261:351|261:351|235:331|248:316|234:298,1,104.999996795654,2|0,3:2|3:2,0:0:0:0:
101,384,180719,70,0,P|144:262|222:182,1,209.999993591309,2|2,3:2|3:2,0:0:0:0:
369,205,181064,6,0,P|331:243|273:210,1,104.999996795654,10|0,3:2|0:0,0:0:0:0:
257,124,181236,2,0,B|232:88|283:73|283:73|256:99|263:128,1,104.999996795654,2|2,3:2|3:2,0:0:0:0:
423,6,181409,70,0,P|428:52|424:115,1,104.999996795654,2|0,3:2|0:0,0:0:0:0:
512,99,181581,2,0,P|499:143|472:200,1,104.999996795654,2|0,3:2|0:0,0:0:0:0:
237,298,181754,6,0,P|239:236|274:219,1,89.9999972534181,10|0,3:1|3:2,0:0:0:0:
364,293,182098,2,0,B|431:275|452:346|452:346|332:269|179:268,1,375,6|0,3:1|0:0,0:0:0:0:
68,354,182443,70,0,B|14:255|181:265|192:172,1,209.999993591309,10|2,3:2|3:2,0:0:0:0:
179,127,182702,5,0,3:2:0:0:
179,127,182788,2,0,B|183:104|144:86|144:86|167:117|163:155,1,104.999996795654,2|0,3:2|0:0,0:0:0:0:
237,298,182960,2,0,P|305:297|303:252,1,104.999996795654,0|0,3:2|0:0,0:0:0:0:
356,121,183133,70,0,P|314:153|251:210,1,104.999996795654,10|0,3:2|0:0,0:0:0:0:
162,23,183305,2,0,P|171:74|178:126,1,104.999996795654,0|0,3:2|3:2,0:0:0:0:
37,235,183478,6,0,P|190:275|249:304,2,209.999993591309,2|2|10,3:2|3:2|3:2,0:0:0:0:
20,72,183995,70,0,B|47:37|47:37|103:73,1,104.999996795654,2|0,3:2|3:2,0:0:0:0:
115,71,184167,2,0,B|131:111|131:111|72:142,1,104.999996795654,0|0,3:2|3:2,0:0:0:0:
72,152,184340,2,0,B|28:146|28:146|31:79,1,104.999996795654,2|0,3:2|0:0,0:0:0:0:
37,235,184512,6,0,B|204:290|171:87|348:142,1,314.999990386963,10|0,3:2|3:2,0:0:0:0:
479,137,184857,6,0,B|520:93|417:2|417:2|356:116|404:146,1,314.999990386963,2|0,3:2|3:2,0:0:0:0:
456,247,185201,5,2,3:2:0:0:
456,247,185288,1,0,0:0:0:0:
456,247,185374,2,0,L|450:211,3,29.9999990844727,0|0|2|0,3:2|3:2|3:2|0:0,0:0:0:0:
362,267,185719,1,0,3:2:0:0:
362,267,185806,1,0,3:2:0:0:
362,267,185892,2,0,P|368:252|370:230,3,29.9999990844727,2|0|0|0,3:2|0:0|3:2|3:2,0:0:0:0:
317,362,186237,6,0,P|274:339|241:334,1,59.9999981689454,10|0,3:2|3:2,0:0:0:0:
269,255,186409,2,0,P|223:268|195:288,1,59.9999981689454,8|0,3:2|3:2,0:0:0:0:
177,167,186581,6,0,P|154:209|146:250,1,75.0000028610231,8|0,3:2|3:2,0:0:0:0:
40,189,186754,2,0,P|53:234|78:271,1,89.9999972534181,8|0,3:2|3:2,0:0:0:0:
37,362,186926,70,0,L|26:327,1,29.9999990844727,8|0,3:2|0:0,0:0:0:0:
269,255,187098,2,0,L|260:221,1,29.9999990844727,8|0,3:2|0:0,0:0:0:0:
485,47,187271,6,0,P|260:76|65:104,1,419.999987182618,0|8,0:0|3:2,0:0:0:0:
