osu file format v14

[General]
AudioFilename: audio.mp3
AudioLeadIn: 0
PreviewTime: 48682
Countdown: 0
SampleSet: Soft
StackLeniency: 0.5
Mode: 0
LetterboxInBreaks: 0
WidescreenStoryboard: 0

[Editor]
DistanceSpacing: 1.21
BeatDivisor: 4
GridSize: 32
TimelineZoom: 2.000002

[Metadata]
Title:delete (TV Size)
TitleUnicode:delete (TV Size)
Artist:SID
ArtistUnicode:シド
Creator:kudosu
Version:Sotarks' Wrath
Source:七つの大罪 神々の逆鱗
Tags:nanatsu no taizai kamigami no gekirin seven deadly sins wrath of the god revival of the commandments meliodas elizabeth anime japanese rock j-rock opening op fuju agatsu soop so0p derandom otaku derandom_otaku ren sotarks
BeatmapID:2422434
BeatmapSetID:1137736

[Difficulty]
HPDrainRate:6.2
CircleSize:3.8
OverallDifficulty:8.8
ApproachRate:9.2
SliderMultiplier:1.82
SliderTickRate:1

[Events]
//Background and Video events
0,0,"elizabeth liones and meliodas (nanatsu no taizai) drawn by sakuramochi1003 - a075bd3101c5f8b90cf527fd55de51fa.jpg",0,0
//Break Periods
//Storyboard Layer 0 (Background)
//Storyboard Layer 1 (Fail)
//Storyboard Layer 2 (Pass)
//Storyboard Layer 3 (Foreground)
//Storyboard Layer 4 (Overlay)
//Storyboard Sound Samples

[TimingPoints]
1384,309.278350515464,4,2,1,5,1,0
1384,-192.307692307692,4,2,1,50,0,0
2466,322.58064516129,4,2,1,50,1,0
2627,306.122448979592,4,2,1,50,1,0
3392,332.409972299169,4,2,1,50,1,0
3392,-138.888888888889,4,2,1,50,0,0
3890,325.644504748982,4,2,1,50,1,0
3890,-192.307692307692,4,2,1,50,0,0
4541,261.437908496732,4,2,1,50,1,0
4802,310.880829015544,4,2,1,50,1,0
4957,-161.290322580645,4,2,1,50,0,0
5113,337.552742616034,4,2,1,50,1,0
5281,-161.290322580645,4,2,1,50,0,0
5619,292.682926829268,4,2,1,50,1,0
5862,-161.290322580645,4,2,1,50,0,0
6065,-161.290322580645,4,2,1,50,0,0
6155,301.507537688442,4,2,1,50,1,0
6155,-161.290322580645,4,2,1,50,0,0
6356,310.880829015544,4,2,1,50,1,0
6356,-121.951219512195,4,2,1,50,0,0
8843,-108.695652173913,4,2,1,50,0,0
9931,-192.307692307692,4,2,1,50,0,0
11174,-98.0392156862744,4,2,1,70,0,0
18402,285.714285714286,4,2,1,70,1,0
18616,355.029585798817,4,2,1,70,1,0
18793,310.880829015544,4,2,1,50,1,0
18793,-121.951219512195,4,2,1,50,0,0
21280,-108.695652173913,4,2,1,50,0,0
21590,-108.695652173913,4,2,1,50,0,0
26565,-108.695652173913,4,2,1,50,0,0
31228,-98.0392156862745,4,2,1,60,0,0
39000,-98.0392156862745,4,2,1,60,0,0
41176,-98.0392156862745,4,2,1,65,0,0
44285,400,4,2,1,65,1,0
44285,-98.0392156862745,4,2,1,65,0,0
44751,310.880829015544,4,2,1,65,1,0
44751,-98.0392156862745,4,2,1,65,0,0
45061,348.837209302326,4,2,1,65,1,0
45157,-98.0392156862745,4,2,1,65,0,0
45492,310.880829015544,4,2,1,65,1,0
45725,400,4,2,1,65,1,0
45825,325.20325203252,4,2,1,65,1,0
45825,-98.0392156862745,4,2,1,65,0,0
46150,310.880829015544,4,2,1,65,1,0
46150,-98.0392156862745,4,2,1,65,0,0
47394,389.61038961039,4,2,1,65,1,0
47394,-98.0392156862745,4,2,1,65,0,0
47588,447.761194029851,4,2,1,65,1,0
47811,413.080895008606,4,2,1,65,1,0
48017,-192.307692307692,4,2,1,65,0,0
48120,-192.307692307692,4,2,1,5,0,0
48637,310.880829015544,4,2,1,80,1,1
48637,-89.2857142857143,4,2,1,80,0,0
49569,-89.2857142857143,4,2,1,80,0,0
52056,-89.2857142857143,4,2,1,80,0,0
55787,-89.2857142857143,4,2,1,80,0,0
59517,-89.2857142857143,4,2,1,80,0,0
62004,-89.2857142857143,4,2,1,80,0,0
68533,-89.2857142857143,4,2,1,70,0,0
74440,-89.2857142857143,4,2,1,70,0,0
78326,-98.0392156862745,4,2,1,70,0,0
85942,-138.888888888889,4,2,1,70,0,0
86719,-138.888888888889,4,2,1,50,0,0
87497,333.333333333333,4,2,1,50,1,0

[Colours]
Combo1 : 225,159,169
Combo2 : 219,215,62
Combo3 : 136,145,185

[HitObjects]
58,114,1384,6,0,B|148:71|215:151|186:164|249:243|369:206,1,331.239997978272,4|10,1:2|2:2,0:0:0:0:
87,327,2933,5,6,0:3:0:0:
320,48,3392,6,0,P|327:90|334:125,1,65.5200015996094,10|10,0:3|0:3,0:0:0:0:
447,312,3890,6,0,P|356:323|249:343,1,189.279998844727,4|2,1:2|0:0,0:0:0:0:
71,141,4802,5,10,2:2:0:0:
158,197,4957,2,0,P|211:189|224:187,1,56.4199977616578,2|0,3:0|0:0,0:0:0:0:
230,90,5281,2,0,P|257:94|285:98,1,56.4199977616578,2|0,3:0|0:0,0:0:0:0:
448,218,5619,5,10,0:0:0:0:
396,51,5765,1,10,0:0:0:0:
369,35,5862,2,0,P|341:39|319:43,2,37.6133318411052,10|10|6,0:3|0:3|0:3,0:0:0:0:
402,133,6155,2,0,P|420:135|439:138,1,37.6133318411052,8|8,0:0|0:0,0:0:0:0:
319,298,6356,5,4,1:2:0:0:
258,55,6511,1,4,1:2:0:0:
69,354,6977,5,10,0:0:0:0:
130,111,7133,2,0,P|82:119|41:127,1,74.6200011386109,8|0,0:0|1:0,0:0:0:0:
189,260,7444,5,8,0:0:0:0:
189,260,7521,1,8,0:0:0:0:
189,260,7599,1,8,0:0:0:0:
269,89,7754,1,10,0:2:0:0:
330,250,7910,2,0,P|378:258|419:266,1,74.6200011386109,2|10,1:2|2:3,0:0:0:0:
220,165,8221,2,0,P|172:173|131:181,1,74.6200011386109,10|0,2:3|1:0,0:0:0:0:
254,344,8532,1,12,0:0:0:0:
260,330,8843,5,10,0:0:0:0:
260,330,8920,1,8,0:0:0:0:
260,330,8998,2,0,L|311:320,1,41.8599985947876,10|8,0:0|0:0,0:0:0:0:
192,258,9153,1,10,0:0:0:0:
192,258,9230,1,8,0:0:0:0:
192,258,9309,2,0,L|141:248,1,41.8599985947876,10|8,0:0|0:0,0:0:0:0:
260,188,9464,5,10,0:0:0:0:
169,350,9620,1,8,0:0:0:0:
112,177,9775,1,10,0:0:0:0:
297,269,9931,6,0,P|349:221|193:110,1,331.239997978272,6|8,1:2|0:0,0:0:0:0:
81,318,11174,6,0,B|65:251|48:177|48:177|91:133,1,185.640001133057,6|0,1:2|1:0,0:0:0:0:
137,203,11563,1,0,1:0:0:0:
137,203,11640,2,0,P|189:193|235:184,1,92.8200005665283,10|0,0:0|0:0,0:0:0:0:
315,29,11951,2,0,P|263:19|217:10,1,92.8200005665283,2|2,1:2|0:0,0:0:0:0:
351,195,12262,1,10,0:0:0:0:
173,92,12418,1,2,0:0:0:0:
238,271,12573,1,0,1:0:0:0:
334,112,12729,1,0,0:0:0:0:
137,203,12884,2,0,P|132:263|128:311,1,92.8200005665283,10|0,0:0|0:0,0:0:0:0:
265,368,13195,1,2,1:2:0:0:
43,257,13350,2,0,P|48:317|50:349,1,92.8200005665283,2|8,0:0|0:0,0:0:0:0:
237,156,13661,6,0,B|290:126|336:169|318:178|365:212|435:184,1,185.640001133057,2|0,0:0|0:0,0:0:0:0:
283,59,14128,2,0,P|232:65|177:74,1,92.8200005665283,10|0,0:0|0:0,0:0:0:0:
146,258,14438,2,0,P|192:263|237:270,1,92.8200005665283,2|2,1:2|0:0,0:0:0:0:
105,140,14749,1,10,0:0:0:0:
195,343,14905,1,2,0:0:0:0:
306,198,15060,1,0,1:0:0:0:
146,258,15216,1,0,0:0:0:0:
293,359,15371,2,0,P|338:352|384:346,1,92.8200005665283,10|0,0:0|0:0,0:0:0:0:
355,123,15682,2,0,P|309:116|263:110,1,92.8200005665283,0|10,1:0|0:0,0:0:0:0:
229,124,15915,1,8,0:0:0:0:
229,124,15993,1,8,0:0:0:0:
102,336,16148,6,0,P|108:247|116:133,1,185.640001133057,6|0,1:2|1:0,0:0:0:0:
209,277,16615,1,10,2:0:0:0:
40,211,16770,1,0,2:0:0:0:
188,73,16925,2,0,P|198:142|202:179,1,92.8200005665283,2|2,1:2|0:0,0:0:0:0:
77,94,17236,1,10,0:0:0:0:
253,16,17392,1,2,0:0:0:0:
176,186,17547,1,0,1:0:0:0:
110,16,17703,1,0,0:0:0:0:
284,116,17858,2,0,P|274:185|270:222,1,92.8200005665283,10|0,0:0|0:0,0:0:0:0:
287,241,18091,1,8,0:0:0:0:
287,241,18169,1,10,0:0:0:0:
410,80,18402,5,10,0:3:0:0:
176,186,18616,5,10,0:3:0:0:
410,292,18793,6,0,P|347:300|323:302,1,74.6200011386109,6|0,1:2|0:0,0:0:0:0:
255,376,19103,2,0,P|217:372|180:367,1,74.6200011386109,0|0,1:0|0:0,0:0:0:0:
87,285,19414,2,0,P|143:232|229:263,1,149.240002277222,0|0,1:0|1:0,2:0:0:0:
93,128,19881,6,0,P|82:75|74:37,1,74.6200011386109,8|0,0:2|1:0,0:0:0:0:
267,174,20191,2,0,P|278:121|286:83,1,74.6200011386109,8|0,0:2|1:0,0:0:0:0:
270,70,20425,1,0,1:0:0:0:
274,73,20502,1,0,1:0:0:0:
385,162,20658,1,0,1:0:0:0:
210,246,20813,1,8,0:2:0:0:
210,246,21280,6,0,B|258:223|301:251|288:261|328:290|394:267,1,167.439994379151,4|2,1:2|1:2,0:0:0:0:
467,169,21746,1,0,0:0:0:0:
344,98,21901,2,0,P|353:155|357:188,1,83.7199971895753,2|0,1:2|0:0,0:0:0:0:
449,299,22212,2,0,P|454:257|461:216,1,83.7199971895753,2|2,1:2|2:2,0:0:0:0:
273,296,22523,6,0,P|172:284|87:277,1,167.439994379151,0|0,1:2|1:2,0:0:0:0:
43,195,22989,1,0,0:0:0:0:
129,88,23145,2,0,P|142:159|147:189,1,83.7199971895753,0|0,1:2|0:0,0:0:0:0:
253,252,23456,2,0,P|260:210|267:169,1,83.7199971895753,0|0,1:2|0:0,0:0:0:0:
332,40,23767,6,0,P|396:49|414:147,1,167.439994379151,0|2,1:2|1:2,0:0:0:0:
346,225,24233,1,0,0:3:0:0:
247,111,24388,2,0,P|190:119|155:126,1,83.7199971895753,2|0,1:2|0:0,0:0:0:0:
29,211,24699,1,2,1:2:0:0:
63,85,24855,1,2,2:2:0:0:
144,255,25010,6,0,P|185:262|226:267,1,83.7199971895753,0|2,1:2|0:0,0:0:0:0:
355,176,25321,1,0,1:0:0:0:
389,302,25477,1,0,0:0:0:0:
253,198,25632,2,0,P|259:138|264:98,1,83.7199971895753,0|0,1:0|0:0,0:0:0:0:
444,125,25943,2,0,P|448:166|452:208,1,83.7199971895753,0|0,1:0|2:0,0:0:0:0:
333,54,26254,6,0,B|285:31|242:59|255:69|215:98|149:75,1,167.439994379151,0|2,1:0|1:2,0:0:0:0:
47,39,26720,1,0,0:0:0:0:
153,116,26875,2,0,P|145:185|142:224,1,83.7199971895753,2|0,1:2|0:0,0:0:0:0:
25,259,27186,2,0,P|21:217|15:175,1,83.7199971895753,2|2,1:2|2:2,0:0:0:0:
148,311,27497,6,0,P|189:328|292:235,1,167.439994379151,0|0,1:0|1:0,0:0:0:0:
315,153,27963,1,0,0:0:0:0:
210,94,28119,2,0,P|221:173|225:197,1,83.7199971895753,0|0,1:2|2:2,2:2:0:0:
393,211,28430,2,0,P|399:169|404:128,1,83.7199971895753,2|2,1:2|0:0,0:0:0:0:
258,288,28741,6,0,B|194:299|137:308|137:308|117:284|97:259,1,167.439994379151,0|2,1:0|1:2,0:0:0:0:
124,134,29207,1,2,0:0:0:0:
219,206,29362,2,0,P|281:210|317:212,1,83.7199971895753,0|0,1:0|0:0,0:0:0:0:
421,115,29673,1,2,1:2:0:0:
384,266,29829,1,2,0:0:0:0:
292,112,29984,6,0,P|230:116|194:118,1,83.7199971895753,0|0,1:0|0:0,0:0:0:0:
39,32,30295,1,0,1:0:0:0:
76,183,30451,1,0,0:0:0:0:
168,29,30606,2,0,P|230:33|266:35,1,83.7199971895753,0|0,1:0|0:0,0:0:0:0:
251,200,30917,2,0,P|189:204|153:206,1,83.7199971895753,12|0,0:0|0:0,0:0:0:0:
353,42,31228,6,0,P|411:74|407:203,1,185.640001133057,4|10,1:2|0:0,0:0:0:0:
271,322,31694,1,0,0:0:0:0:
332,151,31849,1,2,1:2:0:0:
417,314,32005,1,0,1:0:0:0:
253,223,32160,2,0,P|184:236|143:244,1,92.8200005665283,10|2,0:0|0:0,0:0:0:0:
70,74,32471,6,0,P|164:82|268:91,1,185.640001133057,0|8,1:0|0:0,0:0:0:0:
134,211,32938,1,0,0:0:0:0:
332,151,33093,1,0,1:0:0:0:
222,309,33248,1,0,1:0:0:0:
409,189,33404,2,0,P|414:115|417:78,1,92.8200005665283,8|2,0:0|0:0,0:0:0:0:
371,32,33637,1,2,0:0:0:0:
371,32,33715,6,0,B|317:15|268:54|292:66|246:109|176:88,1,185.640001133057,2|10,1:2|0:0,0:0:0:0:
69,34,34181,1,0,0:0:0:0:
161,254,34337,1,2,1:2:0:0:
1,161,34492,1,0,1:0:0:0:
243,205,34647,2,0,P|236:280|233:319,1,92.8200005665283,10|2,0:0|0:0,0:0:0:0:
55,352,34958,6,0,P|51:305|46:259,1,92.8200005665283,0|2,1:0|0:0,0:0:0:0:
183,82,35269,2,0,P|249:92|293:101,1,92.8200005665283,8|0,0:0|0:0,0:0:0:0:
319,277,35580,1,2,1:2:0:0:
157,176,35736,1,0,1:0:0:0:
357,57,35891,2,0,P|352:103|349:150,1,92.8200005665283,8|0,0:0|0:0,0:0:0:0:
248,364,36202,6,0,P|243:260|235:139,1,185.640001133057,0|10,1:0|0:0,0:0:0:0:
342,256,36668,1,0,0:0:0:0:
153,317,36824,1,2,1:2:0:0:
351,354,36979,1,0,1:0:0:0:
195,216,37134,2,0,P|142:223|81:233,1,92.8200005665283,10|2,0:0|0:0,0:0:0:0:
304,70,37445,6,0,P|405:93|413:180,1,185.640001133057,0|8,1:0|0:0,0:0:0:0:
265,287,37912,1,0,0:0:0:0:
182,130,38067,1,0,1:0:0:0:
386,236,38223,1,0,1:0:0:0:
304,70,38378,2,0,P|302:126|299:185,1,92.8200005665283,10|2,0:0|0:0,0:0:0:0:
196,335,38689,6,0,B|122:327|58:323|58:323|47:290|32:240,1,185.640001133057,4|10,1:2|0:0,0:0:0:0:
161,55,39155,1,2,0:0:0:0:
118,249,39311,1,0,1:0:0:0:
83,33,39466,1,0,1:0:0:0:
203,263,39622,2,0,P|262:255|303:250,1,92.8200005665283,10|2,0:0|0:0,0:0:0:0:
431,97,39932,5,0,1:2:0:0:
396,313,40087,1,2,1:2:0:0:
266,147,40244,1,10,0:3:0:0:
474,220,40399,1,0,1:0:0:0:
270,330,40554,1,8,0:3:0:0:
390,172,40710,1,0,1:3:0:0:
453,384,40865,1,12,2:0:0:0:
189,49,41176,6,0,P|142:64|86:78,1,92.8200005665283,12|0,0:0|0:0,0:0:0:0:
245,285,41487,2,0,P|268:244|289:203,1,92.8200005665283,10|0,0:0|0:0,0:0:0:0:
29,200,41798,2,0,P|43:244|54:289,1,92.8200005665283,10|0,0:0|0:0,0:0:0:0:
156,166,42109,1,10,0:0:0:0:
105,357,42264,1,2,1:2:0:0:
258,134,42419,1,8,0:0:0:0:
314,348,42574,1,2,1:2:0:0:
414,173,42730,2,0,B|369:157|325:194|346:202|294:258|224:227,1,185.640001133057,8|8,0:0|0:0,0:0:0:0:
175,66,43197,1,0,1:0:0:0:
119,274,43352,2,0,P|68:267|14:260,1,92.8200005665283,8|0,0:0|0:0,0:0:0:0:
62,72,43663,6,0,P|148:81|158:195,1,185.640001133057,8|10,0:0|0:0,0:0:0:0:
78,348,44129,1,0,1:0:0:0:
245,218,44285,2,0,P|299:222|361:229,1,92.8200005665283,10|8,0:3|0:3,0:0:0:0:
376,247,44585,1,14,0:0:0:0:
456,32,44751,6,0,P|357:41|249:55,1,185.640001133057,6|10,1:2|0:0,0:0:0:0:
173,108,45148,2,0,P|116:100|111:99,2,45.5,8|8|8,0:0|0:0|0:0,0:0:0:0:
331,174,45492,1,8,0:0:0:0:
331,174,45569,1,8,0:0:0:0:
331,174,45647,1,8,0:0:0:0:
331,174,45725,1,8,0:0:0:0:
331,174,45825,2,0,P|329:233|328:278,1,92.8200005665283,6|0,1:2|0:0,0:0:0:0:
116,333,46150,6,0,P|114:286|113:240,1,92.8200005665283,0|10,1:0|0:2,0:0:0:0:
102,210,46383,1,10,0:2:0:0:
102,210,46460,1,10,0:2:0:0:
214,68,46616,1,10,0:2:0:0:
214,68,46694,1,10,0:2:0:0:
214,68,46771,2,0,P|220:130|222:144,1,46.4100002832642,10|8,0:0|0:0,0:0:0:0:
57,124,46927,2,0,P|59:100|61:77,1,46.4100002832642,8|8,0:0|0:0,0:0:0:0:
186,203,47082,1,10,0:2:0:0:
286,25,47238,1,10,0:0:0:0:
286,25,47315,1,8,0:0:0:0:
286,25,47393,5,8,0:0:0:0:
100,205,47588,1,0,1:0:0:0:
358,260,47811,1,0,1:0:0:0:
147,18,48017,6,0,P|143:122|141:154,1,118.299999277954,8|0,2:0|2:0,2:0:0:0:
100,205,48637,6,0,P|161:212|211:220,1,101.920001244141,4|0,1:2|0:0,0:0:0:0:
335,42,48947,2,0,P|284:47|233:55,1,101.920001244141,10|0,0:0|0:0,0:0:0:0:
276,320,49258,2,0,B|303:251|329:180|329:180|307:157|280:130,1,203.840002488281,2|8,1:2|0:0,0:0:0:0:
173,296,49725,5,2,0:0:0:0:
397,210,49880,1,0,1:0:0:0:
188,130,50035,1,2,0:0:0:0:
384,244,50191,1,10,0:0:0:0:
237,46,50346,1,2,0:0:0:0:
173,296,50502,1,2,1:2:0:0:
316,103,50657,1,2,0:0:0:0:
138,211,50813,1,10,0:0:0:0:
334,312,50968,1,0,0:0:0:0:
188,130,51124,6,0,P|130:137|82:143,1,101.920001244141,4|0,1:2|0:0,0:0:0:0:
94,366,51434,2,0,P|144:372|195:378,1,101.920001244141,10|0,0:0|0:0,0:0:0:0:
357,226,51745,2,0,B|299:203|255:251|275:263|219:313|136:269,1,203.840002488281,2|10,1:2|0:0,0:0:0:0:
312,138,52212,5,2,0:0:0:0:
233,361,52367,1,0,1:0:0:0:
255,89,52523,1,2,0:0:0:0:
334,312,52678,1,10,0:0:0:0:
340,64,52833,1,2,0:0:0:0:
193,240,52989,1,2,1:2:0:0:
392,120,53144,1,2,0:0:0:0:
160,63,53300,1,10,0:0:0:0:
291,241,53455,1,0,0:0:0:0:
346,22,53611,6,0,P|401:32|450:39,1,101.920001244141,4|0,1:2|0:0,0:0:0:0:
434,247,53921,2,0,P|378:257|330:264,1,101.920001244141,10|0,0:0|0:0,0:0:0:0:
124,125,54232,2,0,B|195:106|269:89|269:89|289:114|303:131,2,203.840002488281,2|8|0,1:2|0:0|1:0,0:0:0:0:
229,337,55010,5,2,2:0:0:0:
75,203,55165,2,0,P|69:274|65:321,1,101.920001244141,10|0,0:0|0:0,0:0:0:0:
342,244,55476,2,0,P|332:137|323:19,1,203.840002488281,2|8,1:2|0:0,0:0:0:0:
226,186,55942,5,2,0:0:0:0:
412,109,56098,1,6,1:2:0:0:
202,66,56253,1,2,0:0:0:0:
426,140,56409,1,10,0:0:0:0:
155,226,56564,1,2,0:0:0:0:
326,84,56719,2,0,P|332:155|336:202,1,101.920001244141,2|0,1:2|0:0,0:0:0:0:
233,348,57030,1,10,0:0:0:0:
422,229,57186,5,2,0:0:0:0:
200,149,57341,2,0,P|128:160|77:167,1,101.920001244141,0|0,1:2|0:0,0:0:0:0:
255,326,57652,2,0,P|305:333|355:341,1,101.920001244141,8|0,0:0|0:0,0:0:0:0:
396,131,57963,1,0,1:0:0:0:
221,234,58118,1,8,0:0:0:0:
221,234,58196,1,8,0:0:0:0:
221,234,58274,2,0,P|164:226|156:225,1,50.9600006220703,0|0,1:0|0:0,0:0:0:0:
233,75,58429,2,0,P|258:71|283:67,1,50.9600006220703,4|4,0:3|0:3,0:0:0:0:
360,205,58585,6,0,P|368:281|372:316,1,101.920001244141,4|0,1:2|0:0,0:0:0:0:
109,311,58896,2,0,P|114:260|119:209,1,101.920001244141,10|0,0:2|0:3,0:3:0:0:
240,30,59206,2,0,B|259:101|278:174|278:174|253:195|236:209,1,203.840002488281,2|8,1:2|0:0,0:0:0:0:
140,87,59673,5,2,0:2:0:0:
351,121,59828,1,0,1:3:0:0:
118,209,59984,1,2,0:0:0:0:
359,148,60139,1,10,0:0:0:0:
139,120,60295,1,2,0:0:0:0:
237,301,60450,1,2,1:2:0:0:
208,54,60605,1,2,0:0:0:0:
129,303,60761,1,10,0:0:0:0:
280,152,60916,1,0,0:0:0:0:
60,88,61072,6,0,P|68:152|74:207,1,101.920001244141,4|0,1:2|0:0,0:0:0:0:
237,301,61383,2,0,P|242:250|247:199,1,101.920001244141,10|0,0:0|0:0,0:0:0:0:
403,32,61693,2,0,P|418:140|432:250,1,203.840002488281,2|10,1:2|0:0,0:0:0:0:
227,66,62160,5,2,0:0:0:0:
459,138,62315,1,0,1:0:0:0:
206,227,62471,1,2,0:2:0:0:
374,111,62626,2,0,P|369:177|364:243,1,101.920001244141,10|2,0:2|0:2,0:0:0:0:
179,134,62937,1,2,1:2:0:0:
358,253,63092,1,2,0:2:0:0:
126,335,63248,1,10,0:0:0:0:
126,335,63559,6,0,P|63:326|22:322,1,101.920001244141,4|0,1:2|0:0,0:0:0:0:
0,128,63870,2,0,P|50:120|101:115,1,101.920001244141,10|0,0:0|0:0,0:0:0:0:
277,173,64181,2,0,B|219:154|176:195|195:206|153:251|69:226,2,203.840002488281,2|8|0,1:2|2:0|1:0,0:0:0:0:
417,329,64958,5,2,0:0:0:0:
338,104,65113,1,10,0:0:0:0:
228,310,65269,1,2,0:0:0:0:
423,166,65424,2,0,B|351:149|277:133|277:133|254:152|235:168,1,203.840002488281,2|8,1:2|0:0,0:0:0:0:
317,322,65890,5,2,0:0:0:0:
226,76,66046,1,6,1:2:0:0:
100,290,66201,1,2,0:0:0:0:
314,175,66357,1,10,0:0:0:0:
99,105,66512,1,2,0:0:0:0:
242,299,66668,2,0,P|300:289|357:282,1,101.920001244141,2|0,1:2|0:0,0:0:0:0:
404,70,66978,1,10,0:0:0:0:
226,198,67134,1,2,0:0:0:0:
421,338,67289,6,0,P|425:277|429:227,1,101.920001244141,0|0,1:2|0:0,0:0:0:0:
145,163,67600,2,0,P|148:213|152:264,1,101.920001244141,8|0,0:0|0:0,0:0:0:0:
317,107,67911,1,0,1:0:0:0:
76,232,68067,1,8,0:0:0:0:
303,303,68222,1,8,0:0:0:0:
303,303,68300,1,8,0:0:0:0:
200,78,68455,1,8,0:0:0:0:
200,78,68533,6,0,B|142:59|99:100|118:111|76:156|-8:131,1,203.840002488281,4|10,1:2|0:0,0:0:0:0:
154,302,68999,1,0,0:0:0:0:
245,163,69155,2,0,P|303:169|354:176,1,101.920001244141,2|0,0:0|1:0,0:0:0:0:
385,345,69466,1,10,0:0:0:0:
173,217,69621,6,0,P|88:236|74:374,1,203.840002488281,6|0,1:2|1:0,0:0:0:0:
243,319,70087,1,10,0:0:0:0:
82,202,70243,1,2,0:0:0:0:
239,61,70398,2,0,P|244:147|246:189,1,101.920001244141,0|0,0:0|1:0,0:0:0:0:
154,302,70709,1,10,0:0:0:0:
315,185,70865,1,2,0:0:0:0:
120,74,71020,6,0,P|115:160|113:202,1,101.920001244141,4|0,1:2|0:0,0:0:0:0:
243,319,71331,1,10,0:0:0:0:
356,114,71486,1,2,0:0:0:0:
186,215,71642,1,0,1:0:0:0:
398,301,71797,1,0,1:0:0:0:
256,101,71953,1,10,2:0:0:0:
216,351,72108,6,0,B|144:368|70:384|70:384|47:365|28:349,1,203.840002488281,6|0,1:2|1:0,0:0:0:0:
37,157,72574,2,0,P|98:147|161:137,1,101.920001244141,8|0,0:0|0:0,0:0:0:0:
276,286,72885,1,0,1:0:0:0:
103,243,73041,1,0,1:0:0:0:
252,67,73196,2,0,P|191:57|128:47,1,101.920001244141,8|0,2:0|2:0,2:0:0:0:
214,340,73507,6,0,P|288:382|372:307,1,203.840002488281,4|10,1:2|2:2,2:0:0:0:
323,116,73973,1,0,2:0:0:0:
195,244,74129,1,2,1:2:0:0:
404,173,74284,1,0,1:0:0:0:
184,213,74440,1,10,0:0:0:0:
420,298,74595,6,0,P|428:209|431:167,1,101.920001244141,2|0,0:0|1:0,0:0:0:0:
320,78,74906,1,2,1:2:0:0:
276,273,75061,1,10,0:0:0:0:
196,59,75217,1,2,0:0:0:0:
311,285,75372,2,0,P|306:234|302:183,1,101.920001244141,2|0,1:2|1:0,0:0:0:0:
373,8,75683,1,10,0:0:0:0:
189,215,75839,1,2,0:0:0:0:
454,139,75994,5,4,1:2:0:0:
196,59,76149,1,0,1:2:0:0:
454,181,76305,1,0,1:0:0:0:
116,285,76460,5,8,0:0:0:0:
345,79,76616,1,0,1:0:0:0:
282,367,76771,1,0,1:0:0:0:
112,104,76927,5,8,0:0:0:0:
349,280,77082,2,0,P|217:303|147:315,1,203.840002488281,4|8,1:2|0:3,0:0:0:0:
255,157,77548,1,10,0:3:0:0:
204,381,77704,1,8,0:3:0:0:
65,223,77859,1,2,0:0:0:0:
65,223,78170,1,10,0:0:0:0:
288,338,78326,6,0,B|304:271|321:197|321:197|292:167,1,185.640001133057,6|0,1:2|1:0,0:0:0:0:
226,119,78714,1,0,1:0:0:0:
226,119,78792,2,0,P|151:125|124:128,1,92.8200005665283,10|0,0:0|0:0,0:0:0:0:
204,311,79103,1,2,1:2:0:0:
316,130,79258,1,2,0:0:0:0:
180,210,79414,1,10,0:0:0:0:
367,310,79569,6,0,P|371:258|376:195,1,92.8200005665283,2|0,0:0|1:0,0:0:0:0:
288,53,79880,1,2,0:0:0:0:
453,244,80035,2,0,P|449:192|444:129,1,92.8200005665283,10|0,0:0|0:0,0:0:0:0:
286,261,80346,1,2,1:2:0:0:
396,72,80502,1,2,0:0:0:0:
210,140,80657,1,8,2:0:0:0:
420,217,80813,1,2,0:0:0:0:
288,53,80968,6,0,P|228:46|177:43,1,92.8200005665283,0|2,1:0|0:0,0:0:0:0:
130,268,81279,1,10,0:0:0:0:
318,156,81434,1,0,0:0:0:0:
123,78,81590,1,2,1:2:0:0:
221,302,81745,1,2,0:0:0:0:
114,107,81901,1,10,0:0:0:0:
75,328,82056,1,2,0:0:0:0:
291,180,82212,5,0,1:0:0:0:
49,232,82367,1,0,0:0:0:0:
322,270,82523,2,0,P|382:255|441:241,1,92.8200005665283,10|0,0:0|0:0,0:0:0:0:
283,53,82833,1,2,1:2:0:0:
163,212,82989,1,10,0:0:0:0:
163,212,83067,1,8,0:0:0:0:
163,212,83144,1,8,0:0:0:0:
386,92,83300,6,0,P|454:112|469:237,1,185.640001133057,6|0,1:2|1:0,0:0:0:0:
427,291,83688,1,0,1:0:0:0:
427,291,83766,2,0,P|383:287|334:284,1,92.8200005665283,10|0,2:0|2:0,2:0:0:0:
161,127,84077,2,0,P|205:123|254:120,1,92.8200005665283,2|2,1:2|2:2,0:0:0:0:
164,301,84388,1,10,0:0:0:0:
353,190,84543,1,2,2:0:0:0:
200,51,84699,5,0,1:0:0:0:
236,206,84854,1,0,0:0:0:0:
324,31,85010,1,2,1:3:0:0:
364,23,85087,1,8,0:3:0:0:
403,36,85165,1,10,0:3:0:0:
430,67,85243,1,8,0:3:0:0:
439,107,85320,2,0,P|429:180|428:188,2,61.8800003776855,2|8|2,1:2|0:3|1:2,0:0:0:0:
354,118,85631,2,0,P|300:111|268:108,1,61.8800003776855,8|2,0:3|0:0,0:0:0:0:
121,328,85942,6,0,B|202:375|276:290|254:275|336:195|436:254,1,327.600007998047,6|8,1:2|0:3,0:0:0:0:
351,321,86875,1,8,0:3:0:0:
255,255,87030,1,8,0:3:0:0:
360,130,87186,5,8,0:3:0:0:
264,64,87341,1,8,0:3:0:0:
240,167,87497,1,8,0:3:0:0:
336,233,87663,1,8,0:3:0:0:
133,159,87830,5,8,0:2:0:0:
416,32,87997,1,6,1:2:0:0:
