osu file format v14

[General]
AudioFilename: audio.mp3
AudioLeadIn: 0
PreviewTime: 48682
Countdown: 0
SampleSet: Soft
StackLeniency: 0.7
Mode: 0
LetterboxInBreaks: 0
WidescreenStoryboard: 0

[Editor]
DistanceSpacing: 1.21
BeatDivisor: 4
GridSize: 16
TimelineZoom: 2.400002

[Metadata]
Title:delete (TV Size)
TitleUnicode:delete (TV Size)
Artist:SID
ArtistUnicode:シド
Creator:kudosu
Version:FuJu's Insane
Source:七つの大罪 神々の逆鱗
Tags:nanatsu no taizai kamigami no gekirin seven deadly sins wrath of the god revival of the commandments meliodas elizabeth anime japanese rock j-rock opening op fuju agatsu soop so0p derandom otaku derandom_otaku ren sotarks
BeatmapID:2376637
BeatmapSetID:1137736

[Difficulty]
HPDrainRate:5
CircleSize:4
OverallDifficulty:8
ApproachRate:9
SliderMultiplier:1.7
SliderTickRate:1

[Events]
//Background and Video events
0,0,"elizabeth liones and meliodas (nanatsu no taizai) drawn by sakuramochi1003 - a075bd3101c5f8b90cf527fd55de51fa.jpg",0,0
//Break Periods
//Storyboard Layer 0 (Background)
//Storyboard Layer 1 (Fail)
//Storyboard Layer 2 (Pass)
//Storyboard Layer 3 (Foreground)
//Storyboard Layer 4 (Overlay)
//Storyboard Sound Samples

[TimingPoints]
1384,309.278350515464,4,2,1,5,1,0
1384,-200,4,2,1,50,0,0
2466,322.58064516129,4,2,1,50,1,0
2627,306.122448979592,4,2,1,50,1,0
3392,332.409972299169,4,2,1,50,1,0
3890,325.644504748982,4,2,1,50,1,0
3890,-185.185185185185,4,2,1,50,0,0
4541,261.437908496732,4,2,1,50,1,0
4802,310.880829015544,4,2,1,50,1,0
4957,-122.699386503067,4,2,1,50,0,0
5113,337.552742616034,4,2,1,50,1,0
5619,292.682926829268,4,2,1,50,1,0
5765,-133.333333333333,4,2,1,50,0,0
6155,301.507537688442,4,2,1,50,1,0
6155,-133.333333333333,4,2,1,50,0,0
6356,310.880829015544,4,2,1,50,1,0
9931,-200,4,2,1,50,0,0
11174,-105.263157894737,4,2,1,70,0,1
11330,-105.263157894737,4,2,1,70,0,0
18402,285.714285714286,4,2,1,70,1,0
18616,355.029585798817,4,2,1,70,1,0
18793,310.880829015544,4,2,1,50,1,0
21280,-117.64705882353,4,2,1,50,0,0
31228,-117.64705882353,4,2,1,60,0,0
41176,-105.263157894737,4,2,1,65,0,0
44285,400,4,2,1,65,1,0
44751,310.880829015544,4,2,1,65,1,0
45061,348.837209302326,4,2,1,65,1,0
45492,310.880829015544,4,2,1,65,1,0
45725,400,4,2,1,65,1,0
45825,325.20325203252,4,2,1,65,1,0
46150,310.880829015544,4,2,1,65,1,0
47394,389.61038961039,4,2,1,65,1,0
47588,447.761194029851,4,2,1,65,1,0
47811,413.080895008606,4,2,1,65,1,0
48637,310.880829015544,4,2,1,80,1,1
48637,-86.9565217391306,4,2,1,80,0,1
68533,-86.9565217391306,4,2,1,70,0,0
78326,-105.263157894737,4,2,1,70,0,1
78481,-105.263157894737,4,2,1,70,0,0
85942,-200,4,2,1,50,0,0
87497,333.333333333333,4,2,1,50,1,0

[Colours]
Combo1 : 225,159,169
Combo2 : 219,215,62
Combo3 : 136,145,185

[HitObjects]
69,111,1384,6,0,B|51:67|12:48|12:48|102:17|152:73|152:73|160:111|191:129,1,297.5,4|10,1:2|2:2,0:0:0:0:
181,122,2933,1,6,0:3:0:0:
122,232,3392,1,10,0:3:0:0:
181,122,3558,1,10,0:3:0:0:
235,179,3724,1,0,0:0:0:0:
393,170,3890,5,4,1:2:0:0:
361,325,4802,1,10,0:0:0:0:
319,233,4957,2,0,P|369:214|441:268,1,144.500002756119,2|2,3:0|3:0,0:0:0:0:
247,188,5450,1,2,0:0:0:0:
317,85,5619,1,10,0:0:0:0:
213,25,5765,1,10,0:0:0:0:
200,28,5862,2,8,P|174:34|145:40,1,42.5000016212464,8|10,0:0|0:3,0:0:0:0:
134,136,6058,1,10,0:3:0:0:
121,133,6155,2,8,P|95:127|66:121,1,42.5000016212464,10|8,0:0|0:2,0:0:0:0:
57,286,6356,5,4,1:2:0:0:
134,136,6511,1,4,1:2:0:0:
306,233,6977,5,8,0:0:0:0:
213,25,7132,1,8,0:0:0:0:
213,25,7288,1,0,1:0:0:0:
86,145,7444,1,8,0:0:0:0:
82,162,7521,1,8,0:0:0:0:
79,180,7599,1,8,0:0:0:0:
157,260,7755,5,10,0:2:0:0:
250,191,7910,1,2,1:2:0:0:
347,267,8065,2,0,L|337:319,2,42.5,10|10|10,2:3|2:3|2:3,0:0:0:0:
459,193,8376,1,0,1:0:0:0:
444,198,8453,1,0,1:0:0:0:
430,201,8532,2,0,B|435:161|435:161|438:158|438:158|445:117,1,85,12|2,0:0|0:0,0:0:0:0:
360,26,8843,5,10,0:0:0:0:
341,43,8920,1,8,0:0:0:0:
319,55,8998,1,10,0:0:0:0:
294,60,9076,1,8,0:0:0:0:
269,59,9154,2,0,L|227:44,1,42.5,10|8,0:0|0:0,0:0:0:0:
120,21,9309,5,10,0:0:0:0:
120,21,9387,1,8,0:0:0:0:
120,21,9464,2,0,L|135:63,1,42.5,10|0,0:0|0:0,0:0:0:0:
168,133,9620,1,8,0:0:0:0:
32,58,9775,1,10,0:0:0:0:
129,299,9931,6,0,B|213:250|287:319|287:319|300:365|350:378,1,255,6|0,1:2|0:0,0:0:0:0:
512,180,11019,1,8,0:0:0:0:
436,250,11174,6,0,P|399:233|353:217,1,80.7499978437424,6|0,1:2|0:0,0:0:0:0:
326,128,11485,1,0,1:0:0:0:
326,128,11563,1,0,1:0:0:0:
326,128,11640,2,0,P|342:91|359:45,1,80.7499978437424,10|0,0:0|0:0,0:0:0:0:
247,54,11951,1,2,1:2:0:0:
277,198,12107,1,2,0:0:0:0:
185,122,12262,6,0,P|148:100|107:104,1,80.7499978437424,10|2,0:0|0:0,0:0:0:0:
47,265,12573,1,0,1:0:0:0:
132,178,12729,1,0,0:0:0:0:
37,285,12884,2,0,P|49:323|61:362,1,80.7499978437424,10|0,0:0|0:0,0:0:0:0:
40,172,13195,1,2,1:2:0:0:
161,278,13350,2,0,P|195:258|236:257,1,80.7499978437424,2|8,0:0|0:0,0:0:0:0:
120,193,13661,6,0,P|128:151|135:103,1,80.7499978437424,2|0,0:0|1:0,0:0:0:0:
97,23,13972,1,0,0:0:0:0:
229,0,14128,2,0,P|246:34|237:85,1,80.7499978437424,10|0,0:0|0:0,0:0:0:0:
200,154,14438,1,2,1:2:0:0:
304,120,14594,1,2,0:0:0:0:
217,243,14749,2,0,P|176:230|131:221,1,80.7499978437424,10|2,0:0|0:0,0:0:0:0:
301,225,15060,5,0,1:0:0:0:
326,332,15216,1,0,0:0:0:0:
434,205,15371,2,0,P|422:243|413:283,1,80.7499978437424,10|0,0:0|0:0,0:0:0:0:
323,198,15682,1,0,1:0:0:0:
443,106,15837,1,10,0:0:0:0:
439,90,15914,1,8,0:0:0:0:
435,74,15992,1,8,0:0:0:0:
327,21,16148,6,0,P|288:32|240:43,1,80.7499978437424,6|0,1:2|0:0,0:0:0:0:
137,17,16459,1,0,1:0:0:0:
137,17,16537,1,0,1:0:0:0:
137,17,16615,2,0,P|148:56|159:104,1,80.7499978437424,10|0,2:0|2:0,0:0:0:0:
128,198,16926,1,2,1:2:0:0:
234,116,17081,1,2,0:0:0:0:
128,198,17236,6,0,B|90:191|90:191|85:194|85:194|39:184,1,80.7499978437424,10|2,0:0|0:0,0:0:0:0:
73,328,17547,1,0,1:0:0:0:
150,216,17703,1,0,0:0:0:0:
194,361,17858,1,10,0:0:0:0:
272,262,18014,1,2,0:0:0:0:
272,262,18091,1,10,0:0:0:0:
272,262,18169,5,10,0:0:0:0:
358,268,18402,5,10,0:3:0:0:
309,340,18616,5,10,0:3:0:0:
322,148,18793,6,0,B|385:154|385:154|432:181|432:181|489:187,1,170,6|0,1:2|1:0,0:0:0:0:
301,25,19414,1,0,1:0:0:0:
132,53,19725,1,0,1:0:0:0:
244,170,19881,5,8,2:2:0:0:
132,53,20036,1,0,1:0:0:0:
244,170,20191,1,8,2:2:0:0:
89,228,20347,1,0,1:0:0:0:
89,228,20425,1,0,1:0:0:0:
89,228,20502,1,0,1:0:0:0:
149,148,20658,1,0,1:0:0:0:
203,288,20813,5,8,2:2:0:0:
203,288,21280,6,0,P|238:281|293:274,1,72.2500013780594,4|0,1:2|0:0,0:0:0:0:
340,313,21590,2,0,P|345:348|351:384,1,72.2500013780594,2|0,1:2|2:0,2:0:0:0:
430,303,21901,2,0,P|444:269|441:231,1,72.2500013780594,2|0,1:2|2:0,2:0:0:0:
397,173,22212,1,2,1:2:0:0:
397,173,22367,1,2,2:2:0:0:
482,61,22523,6,0,B|405:53|421:100|342:94,1,144.500002756119,0|0,1:2|1:2,0:0:0:0:
287,21,22989,1,0,0:0:0:0:
287,21,23144,2,0,P|252:27|210:33,1,72.2500013780594,0|0,1:2|0:0,0:0:0:0:
116,0,23455,2,0,P|122:35|128:76,1,72.2500013780594,0|0,1:2|0:0,0:0:0:0:
40,157,23766,6,0,P|103:144|165:204,1,144.500002756119,0|2,1:2|1:2,0:0:0:0:
255,180,24232,1,0,0:3:0:0:
255,180,24388,2,0,P|245:214|236:258,1,72.2500013780594,2|0,1:2|0:0,0:0:0:0:
98,245,24699,1,2,1:2:0:0:
98,245,24855,2,0,P|108:279|117:323,1,72.2500013780594,2|0,2:2|1:0,0:0:0:0:
214,351,25165,5,2,0:0:0:0:
214,351,25320,2,0,P|249:335|290:343,1,72.2500013780594,0|0,1:0|0:0,0:3:0:0:
386,365,25631,2,0,P|391:325|405:279,1,72.2500013780594,0|0,1:0|0:0,0:0:0:0:
475,226,25942,1,0,1:0:0:0:
454,108,26098,1,2,2:0:0:0:
454,108,26175,1,2,2:0:0:0:
454,108,26254,6,0,B|402:117|402:117|367:144|367:144|309:152,1,144.500002756119,0|2,1:0|1:2,0:0:0:0:
271,76,26719,1,0,0:0:0:0:
317,0,26875,2,0,P|353:6|402:11,1,72.2500013780594,2|0,1:2|0:0,0:0:0:0:
498,23,27186,1,2,1:2:0:0:
498,23,27341,1,2,2:2:0:0:
439,116,27497,2,0,P|450:184|461:275,1,144.500002756119,0|0,1:0|1:0,0:0:0:0:
431,343,27963,1,0,0:0:0:0:
337,326,28118,1,0,1:2:0:0:
337,326,28429,5,2,1:2:0:0:
272,254,28585,1,2,0:0:0:0:
326,178,28741,2,0,P|318:142|311:93,1,72.2500013780594,0|0,1:0|0:0,0:0:0:0:
276,16,29051,5,2,1:2:0:0:
214,82,29207,1,2,0:0:0:0:
136,26,29362,2,0,P|130:61|122:96,1,72.2500013780594,0|0,1:0|0:0,0:0:0:0:
38,186,29673,1,2,1:2:0:0:
114,119,29828,1,2,0:0:0:0:
164,228,29984,6,0,B|89:233|101:270|23:284,1,144.500002756119,0|0,1:0|1:0,0:0:0:0:
151,318,30450,1,0,0:0:0:0:
223,176,30605,2,0,P|276:193|337:209,1,108.375002067089,0|0,1:0|0:0,0:0:0:0:
376,267,30916,2,0,B|363:214|363:214|390:168,1,108.375002067089,12|0,0:0|0:0,0:0:0:0:
482,124,31227,6,0,P|473:158|466:194,1,72.2500013780594,4|0,1:2|0:0,0:0:0:0:
450,48,31538,2,0,P|414:41|379:32,1,72.2500013780594,10|0,0:0|0:0,0:0:0:0:
217,15,31849,2,0,P|247:-2|287:0,1,72.2500013780594,2|0,1:2|1:0,0:0:0:0:
348,122,32160,1,10,0:0:0:0:
266,71,32315,1,2,0:0:0:0:
196,147,32471,6,0,P|203:182|216:231,1,72.2500013780594,0|0,1:0|0:0,0:0:0:0:
134,353,32782,2,0,P|126:315|138:278,1,72.2500013780594,8|0,0:0|0:0,0:0:0:0:
259,297,33092,1,0,1:0:0:0:
212,217,33248,1,0,1:0:0:0:
165,143,33403,2,0,P|129:150|76:161,1,72.2500013780594,8|2,0:0|2:0,0:0:0:0:
57,165,33636,1,2,2:2:0:0:
56,164,33714,6,0,P|44:129|52:95,1,72.2500013780594,0|0,1:0|0:0,0:0:0:0:
170,30,34025,2,0,P|205:37|259:48,1,72.2500013780594,10|0,0:0|0:0,0:0:0:0:
251,142,34336,1,2,1:2:0:0:
332,53,34491,1,0,1:0:0:0:
251,142,34647,1,10,0:0:0:0:
332,225,34802,6,0,P|367:217|407:212,1,72.2500013780594,2|0,0:0|1:0,0:0:0:0:
310,376,35113,1,2,0:0:0:0:
310,376,35269,2,0,P|302:341|297:301,1,72.2500013780594,8|0,2:0|2:0,2:0:0:0:
343,145,35579,1,2,1:2:0:0:
256,238,35735,1,0,1:0:0:0:
165,143,35890,2,0,L|184:60,1,72.2500013780594,8|0,0:0|0:0,0:0:0:0:
275,0,36202,6,0,B|353:-8|345:34|416:27,1,144.500002756119,0|10,1:0|0:0,0:0:0:0:
497,111,36667,1,0,0:0:0:0:
497,111,36823,2,0,P|487:146|478:185,1,72.2500013780594,2|0,1:2|1:0,0:0:0:0:
381,200,37134,1,10,0:0:0:0:
453,293,37289,1,2,0:0:0:0:
364,357,37445,6,0,P|337:334|299:332,1,72.2500013780594,0|0,1:0|0:0,0:0:0:0:
207,383,37756,2,0,P|201:348|192:313,1,72.2500013780594,8|0,0:0|0:0,0:0:0:0:
111,248,38066,1,0,1:0:0:0:
51,329,38222,1,0,1:0:0:0:
127,237,38377,1,10,0:0:0:0:
7,164,38533,1,2,2:2:0:0:
7,164,38610,1,2,2:0:0:0:
7,164,38688,6,0,P|45:157|98:146,1,72.2500013780594,4|0,1:2|0:0,0:0:0:0:
204,15,38999,1,10,0:0:0:0:
135,67,39155,2,0,P|96:60|44:49,1,72.2500013780594,2|0,0:0|1:0,0:0:0:0:
215,128,39465,1,0,1:0:0:0:
282,43,39621,1,10,0:0:0:0:
282,43,39776,6,0,P|320:41|368:67,1,72.2500013780594,2|0,0:0|1:2,0:0:0:0:
215,128,40087,1,2,1:2:0:0:
260,303,40243,1,10,0:3:0:0:
326,235,40398,1,0,1:0:0:0:
241,219,40553,1,8,0:3:0:0:
359,332,40709,1,0,1:3:0:0:
465,119,40864,2,0,L|450:243,1,108.375002067089,12|0,2:0|0:0,0:0:0:0:
434,302,41175,5,12,0:0:0:0:
434,302,41486,2,0,P|479:303|514:272,1,80.7499978437424,10|0,0:0|0:0,0:0:0:0:
420,184,41797,2,0,P|381:192|327:203,1,80.7499978437424,10|0,0:0|0:0,0:0:0:0:
465,48,42108,1,10,0:0:0:0:
338,20,42263,6,0,P|345:59|354:99,1,80.7499978437424,2|8,1:2|0:0,0:0:0:0:
326,235,42574,1,2,1:2:0:0:
224,138,42730,2,0,P|232:98|240:58,1,80.7499978437424,8|0,0:0|0:0,0:0:0:0:
109,7,43041,1,8,0:0:0:0:
147,98,43196,1,0,1:0:0:0:
93,180,43352,2,0,P|54:166|16:155,1,80.7499978437424,8|0,2:0|2:0,2:0:0:0:
45,326,43662,6,0,P|95:290|169:303,1,121.124996765614,8|0,2:0|2:0,2:0:0:0:
221,350,43973,1,10,0:0:0:0:
223,241,44129,1,0,1:0:0:0:
306,195,44285,2,0,L|361:212,1,42.5,10|8,0:3|0:3,0:0:0:0:
420,233,44485,1,8,0:3:0:0:
420,233,44585,1,14,0:0:0:0:
454,7,44751,6,0,P|441:42|427:95,1,85,6|0,1:2|0:0,0:0:0:0:
300,74,45061,1,10,0:0:0:0:
300,74,45148,1,8,0:0:0:0:
300,74,45235,2,0,L|245:91,1,42.5,8|8,0:0|0:0,0:0:0:0:
131,0,45492,1,8,0:0:0:0:
131,0,45569,1,8,0:0:0:0:
131,0,45647,2,0,P|144:19|148:55,1,42.5,8|8,0:0|0:0,0:0:0:0:
152,161,45825,6,0,B|96:146|96:146|63:101|63:101|5:86,1,170,6|0,1:2|1:0,0:0:0:0:
170,178,46305,1,10,0:2:0:0:
163,192,46383,1,10,0:2:0:0:
156,207,46460,1,10,0:2:0:0:
292,88,46616,1,10,0:2:0:0:
298,102,46694,1,10,0:2:0:0:
305,117,46771,1,10,0:0:0:0:
402,199,46927,1,8,0:0:0:0:
386,197,47004,1,8,0:0:0:0:
370,195,47082,1,10,0:2:0:0:
257,244,47238,1,10,0:0:0:0:
266,231,47315,1,8,0:0:0:0:
275,214,47393,5,8,0:0:0:0:
388,100,47588,5,0,1:0:0:0:
368,331,47811,5,0,1:0:0:0:
148,295,48017,2,0,P|142:288|139:298,1,21.25,8|8,2:0|2:0,0:0:0:0:
148,295,48637,6,0,B|158:230|158:230|163:226|163:226|174:146,1,146.62500279665,4|0,1:2|0:0,0:0:0:0:
141,61,48948,2,0,P|96:85|46:69,1,97.7500018644333,10|0,0:0|0:0,0:0:0:0:
221,13,49259,2,0,P|269:22|319:30,1,97.7500018644333,2|0,1:2|0:0,0:0:0:0:
401,0,49570,1,8,0:0:0:0:
377,129,49725,5,2,0:0:0:0:
486,105,49880,2,0,P|511:60|497:14,1,97.7500018644333,0|2,1:0|0:0,0:0:0:0:
377,129,50191,2,0,P|387:173|398:235,1,97.7500018644333,10|2,0:0|0:0,0:0:0:0:
381,384,50502,1,2,1:2:0:0:
463,263,50657,1,2,0:0:0:0:
350,307,50813,2,0,P|310:277|253:288,1,97.7500018644333,10|0,0:0|0:0,0:0:0:0:
140,362,51124,6,0,B|150:316|163:280|163:280|144:253|102:255,1,146.62500279665,4|0,1:2|0:3,0:3:0:0:
35,313,51434,2,0,P|31:264|24:215,1,97.7500018644333,10|0,0:0|0:0,0:0:0:0:
0,74,51745,2,0,P|41:101|99:93,1,97.7500018644333,2|0,1:2|0:0,0:0:0:0:
276,37,52056,1,10,0:0:0:0:
188,4,52212,6,0,P|196:50|205:111,1,97.7500018644333,2|0,0:0|1:0,0:0:0:0:
298,157,52523,1,2,0:0:0:0:
391,89,52678,2,0,P|419:46|408:-11,1,97.7500018644333,10|2,0:0|0:0,0:0:0:0:
414,228,52989,1,2,1:2:0:0:
298,157,53144,1,2,0:0:0:0:
276,333,53300,2,0,P|312:301|362:307,1,97.7500018644333,10|0,0:0|0:0,0:0:0:0:
223,231,53611,6,0,B|161:238|161:238|137:257|137:257|62:266,1,146.62500279665,4|0,1:2|0:0,0:0:0:0:
0,310,53921,2,0,P|7:261|16:196,1,97.7500018644333,10|0,0:0|0:0,0:0:0:0:
82,95,54232,2,0,P|117:126|165:125,1,97.7500018644333,2|0,1:2|0:0,0:0:0:0:
298,13,54543,2,0,P|252:20|198:26,1,97.7500018644333,8|0,0:0|0:0,0:0:0:0:
404,3,54854,1,0,1:0:0:0:
313,120,55010,5,2,2:0:0:0:
442,194,55165,2,0,P|447:145|454:97,1,97.7500018644333,10|0,0:0|0:0,0:0:0:0:
376,269,55476,2,0,P|327:261|279:256,1,97.7500018644333,2|0,1:2|0:0,0:0:0:0:
157,363,55787,1,8,0:0:0:0:
247,266,55942,5,2,0:0:0:0:
105,172,56098,2,0,P|115:214|124:270,1,97.7500018644333,6|2,1:2|0:0,0:0:0:0:
266,113,56409,2,0,P|223:91|176:102,1,97.7500018644333,10|2,2:0|2:0,2:0:0:0:
58,34,56719,2,0,P|106:26|153:15,1,97.7500018644333,2|0,1:2|0:0,0:0:0:0:
215,167,57030,1,10,0:0:0:0:
334,45,57186,1,2,0:0:0:0:
454,179,57341,6,0,B|413:167|413:167|401:172|401:172|359:163,1,97.7500018644333,0|0,1:2|0:0,0:0:0:0:
274,319,57652,1,8,0:0:0:0:
195,176,57807,1,0,0:0:0:0:
78,349,57963,1,0,1:0:0:0:
87,337,58040,1,8,0:0:0:0:
93,324,58118,2,0,P|86:297|76:264,1,48.8750009322167,8|8,0:0|0:0,0:0:0:0:
20,166,58274,1,0,1:0:0:0:
32,176,58351,1,0,0:0:0:0:
45,181,58429,2,0,P|72:174|105:164,1,48.8750009322167,4|4,0:3|0:3,0:0:0:0:
181,57,58585,6,0,P|226:109|307:103,1,146.62500279665,4|0,1:2|0:0,0:0:0:0:
390,69,58896,2,0,P|378:114|366:171,1,97.7500018644333,10|0,0:2|0:3,0:0:0:0:
420,285,59206,2,0,P|463:259|507:268,1,97.7500018644333,2|0,1:2|0:0,0:0:0:0:
367,164,59517,1,8,0:0:0:0:
322,378,59673,6,0,P|311:330|299:282,1,97.7500018644333,2|0,0:2|1:3,0:0:0:0:
167,305,59984,1,2,0:0:0:0:
138,198,60139,2,0,P|185:210|233:220,1,97.7500018644333,10|2,0:0|0:0,0:0:0:0:
101,105,60450,1,2,1:2:0:0:
167,305,60605,1,2,0:0:0:0:
55,341,60761,2,0,P|43:295|75:239,1,97.7500018644333,10|0,0:0|0:0,0:0:0:0:
175,125,61072,6,0,B|232:113|266:137|266:137|285:171|323:174,1,146.62500279665,4|0,1:2|0:0,0:0:0:0:
399,231,61383,2,0,P|380:185|395:133,1,97.7500018644333,10|0,0:0|0:0,0:0:0:0:
512,44,61693,2,0,P|502:88|494:142,1,97.7500018644333,2|0,1:2|0:0,0:0:0:0:
512,273,62004,1,10,0:0:0:0:
428,361,62160,2,0,P|392:327|334:327,1,97.7500018644333,2|0,0:0|1:0,0:0:0:0:
214,384,62471,5,2,0:2:0:0:
252,198,62626,2,0,P|262:242|271:293,1,97.7500018644333,10|2,0:2|0:2,0:0:0:0:
345,168,62937,1,2,1:2:0:0:
194,269,63092,1,2,0:2:0:0:
345,168,63248,2,0,P|392:160|437:191,1,97.7500018644333,10|0,0:0|0:0,0:0:0:0:
295,60,63559,6,0,P|253:85|162:65,1,146.62500279665,4|0,1:2|0:0,0:0:0:0:
91,0,63870,2,0,P|85:43|76:107,1,97.7500018644333,10|0,0:0|0:0,0:0:0:0:
32,226,64181,2,0,P|74:197|127:210,1,97.7500018644333,2|0,1:2|0:0,0:0:0:0:
196,322,64491,2,0,B|150:312|150:312|140:315|140:315|87:302,1,97.7500018644333,8|0,2:0|0:0,0:0:0:0:
223,221,64802,1,0,1:0:0:0:
272,371,64958,5,2,0:0:0:0:
323,221,65113,2,0,B|369:211|369:211|379:214|379:214|432:201,1,97.7500018644333,10|2,0:0|0:0,0:0:0:0:
249,47,65424,2,0,P|258:90|269:156,1,97.7500018644333,2|0,1:2|0:0,0:0:0:0:
346,301,65735,1,8,0:0:0:0:
429,192,65890,5,2,0:0:0:0:
346,301,66046,2,0,P|308:268|253:277,1,97.7500018644333,6|2,1:2|0:0,0:0:0:0:
116,357,66357,2,0,P|163:359|198:327,1,97.7500018644333,10|2,0:0|0:0,0:0:0:0:
21,214,66668,2,0,P|30:254|42:319,1,97.7500018644333,2|0,1:2|0:0,0:0:0:0:
189,243,66978,1,10,0:0:0:0:
141,140,67134,1,2,0:0:0:0:
222,66,67289,6,0,P|271:79|328:93,1,97.7500018644333,0|0,1:2|0:0,0:0:0:0:
502,12,67600,2,0,P|453:5|407:36,1,97.7500018644333,8|0,0:0|0:0,0:0:0:0:
374,172,67911,1,0,1:0:0:0:
468,84,68067,1,8,0:0:0:0:
498,198,68222,1,8,0:0:0:0:
503,212,68300,2,0,L|483:270,1,48.8750009322167,8|0,0:0|0:0,0:0:0:0:
440,341,68455,1,8,0:0:0:0:
426,346,68533,6,0,P|389:316|327:322,1,97.7500018644333,4|0,1:2|0:0,3:0:0:0:
223,272,68844,2,0,P|232:318|244:380,1,97.7500018644333,10|0,0:0|0:0,0:0:0:0:
137,242,69155,2,0,P|90:266|41:254,1,97.7500018644333,2|0,0:0|1:0,0:0:0:0:
149,159,69466,1,10,0:0:0:0:
282,44,69621,6,0,B|343:60|343:60|395:112|395:112|457:129,1,195.500003728867,6|0,1:2|1:0,0:0:0:0:
342,174,70087,1,10,0:0:0:0:
452,41,70243,1,2,0:0:0:0:
342,174,70398,2,0,P|293:183|241:197,1,97.7500018644333,0|0,2:0|1:0,2:0:0:0:
115,189,70709,1,10,0:0:0:0:
26,98,70864,1,2,0:0:0:0:
26,98,70942,1,2,0:0:0:0:
26,98,71020,6,0,P|64:74|117:80,1,97.7500018644333,4|0,1:2|0:0,0:0:0:0:
115,189,71331,1,10,0:0:0:0:
194,300,71486,2,0,P|241:287|289:278,1,97.7500018644333,2|0,2:0|2:0,2:0:0:0:
365,331,71797,1,0,1:0:0:0:
296,191,71953,1,10,2:0:0:0:
439,38,72108,6,0,P|414:122|382:240,1,195.500003728867,6|0,1:2|1:0,0:0:0:0:
296,191,72574,2,0,P|272:175|241:176,1,48.8750009322167,8|0,0:0|0:0,0:0:0:0:
182,206,72730,1,0,0:0:0:0:
288,97,72885,2,0,P|281:47|277:-7,1,97.7500018644333,0|0,1:0|1:0,0:0:0:0:
142,56,73196,2,0,P|118:101|131:153,1,97.7500018644333,8|0,2:0|2:0,0:0:0:0:
72,305,73507,6,8,P|117:281|169:295,1,97.7500018644333,4|0,1:2|2:0,0:0:0:0:
254,384,73818,2,0,P|264:333|277:285,1,97.7500018644333,10|0,2:2|2:0,0:0:0:0:
435,252,74129,2,0,P|387:241|339:230,1,97.7500018644333,2|0,1:2|1:0,0:0:0:0:
260,199,74440,1,10,0:0:0:0:
349,36,74595,2,0,P|370:75|362:138,1,97.7500018644333,2|0,0:0|1:0,0:0:0:0:
215,25,74906,5,2,1:2:0:0:
260,199,75061,2,0,P|269:148|279:87,1,97.7500018644333,10|2,0:0|0:0,0:0:0:0:
134,0,75372,2,0,P|86:14|29:28,1,97.7500018644333,2|0,1:2|1:0,0:0:0:0:
19,178,75683,1,10,0:0:0:0:
148,76,75839,1,2,0:0:0:0:
19,178,75994,6,0,B|30:224|30:224|27:232|27:232|36:272,1,97.7500018644333,4|0,1:2|1:2,0:0:0:0:
148,76,76305,1,0,1:0:0:0:
245,218,76460,2,0,P|196:208|148:203,1,97.7500018644333,8|0,0:0|1:0,0:0:0:0:
289,97,76771,1,0,1:0:0:0:
391,45,76927,2,0,L|372:96,1,48.8750009322167,8|0,0:0|0:0,0:0:0:0:
340,167,77082,6,0,B|316:213|347:258|347:258|340:265|340:265|369:308|342:361,1,195.500003728867,4|8,1:2|0:3,0:0:0:0:
407,206,77548,1,10,0:3:0:0:
279,312,77704,1,10,0:3:0:0:
279,312,77782,1,2,0:0:0:0:
279,312,77859,1,2,0:0:0:0:
391,45,78170,2,0,L|372:96,1,48.8750009322167,10|0,0:0|0:0,0:0:0:0:
340,167,78326,6,0,P|301:154|262:144,1,80.7499978437424,6|0,1:2|0:0,0:0:0:0:
139,66,78637,1,0,1:0:0:0:
139,66,78714,1,0,1:0:0:0:
139,66,78792,2,0,P|178:56|216:43,1,80.7499978437424,10|0,0:0|0:0,0:0:0:0:
237,152,79103,1,2,1:2:0:0:
126,89,79258,1,2,0:0:0:0:
58,187,79414,2,0,B|66:222|66:222|64:230|64:230|72:265,1,80.7499978437424,10|2,0:0|0:0,0:0:0:0:
121,362,79725,5,0,1:0:0:0:
196,278,79880,1,2,0:0:0:0:
276,383,80035,2,0,P|298:350|298:302,1,80.7499978437424,10|0,0:0|0:0,0:0:0:0:
187,257,80346,1,2,1:2:0:0:
291,200,80502,2,0,P|329:212|378:224,1,80.7499978437424,2|8,0:0|2:0,0:0:0:0:
498,126,80813,6,0,P|460:122|422:147,1,80.7499978437424,2|0,0:0|1:0,0:0:0:0:
443,224,81124,1,2,0:0:0:0:
363,82,81279,2,0,P|325:94|286:104,1,80.7499978437424,10|0,0:0|0:0,0:0:0:0:
194,141,81590,1,2,1:2:0:0:
263,22,81745,1,2,0:0:0:0:
194,141,81901,2,0,P|204:179|216:230,1,80.7499978437424,10|2,0:0|0:0,0:0:0:0:
129,359,82212,6,0,P|120:319|139:273,1,80.7499978437424,0|0,1:0|0:0,0:0:0:0:
293,200,82523,1,10,0:0:0:0:
247,299,82678,1,0,0:0:0:0:
331,369,82833,1,2,1:2:0:0:
369,261,82989,1,10,0:0:0:0:
391,252,83066,1,8,0:0:0:0:
413,244,83144,1,8,0:0:0:0:
436,122,83300,6,0,P|395:129|351:135,1,80.7499978437424,6|0,1:2|0:0,0:0:0:0:
279,83,83611,1,0,1:0:0:0:
279,83,83688,1,0,1:0:0:0:
279,83,83766,2,0,P|299:43|286:-2,1,80.7499978437424,10|0,2:0|2:0,2:0:0:0:
182,98,84077,1,2,1:2:0:0:
112,6,84232,1,2,2:2:0:0:
182,98,84388,2,0,P|191:136|204:194,1,80.7499978437424,10|2,0:0|2:0,0:0:0:0:
208,281,84699,5,0,1:0:0:0:
283,204,84854,1,0,0:0:0:0:
345,291,85010,2,0,L|399:279,1,40.3749989218712,2|8,1:3|0:3,0:0:0:0:
445,214,85165,1,10,0:3:0:0:
445,214,85243,1,8,0:3:0:0:
445,214,85320,2,0,P|439:181|429:143,2,53.8333318958283,2|8|2,1:2|0:3|1:2,0:0:0:0:
468,292,85631,2,0,P|459:332|450:379,1,53.8333318958283,8|2,0:3|0:0,0:0:0:0:
419,131,85942,6,0,B|327:123|338:187|243:182,1,170,6|0,1:2|0:0,0:0:0:0:
181,124,86719,1,8,0:3:0:0:
103,181,86875,1,8,0:3:0:0:
164,260,87030,1,8,0:3:0:0:
93,320,87186,5,8,0:3:0:0:
164,260,87341,1,8,0:3:0:0:
181,351,87497,1,8,0:3:0:0:
93,320,87663,1,8,0:3:0:0:
234,201,87830,5,8,0:2:0:0:
104,99,87997,1,6,1:2:0:0:
