osu file format v14

[General]
AudioFilename: audio.mp3
AudioLeadIn: 0
PreviewTime: 56480
Countdown: 0
SampleSet: Soft
StackLeniency: 0.7
Mode: 0
LetterboxInBreaks: 0
WidescreenStoryboard: 0

[Editor]
DistanceSpacing: 1.6
BeatDivisor: 4
GridSize: 32
TimelineZoom: 2.5

[Metadata]
Title:V.I.P (TV Size)
TitleUnicode:V.I.P (TV Size)
Artist:SID
ArtistUnicode:シド
Creator:Nevo
Version:Shunao's Hard
Source:マギ The labyrinth of magic
Tags:magi opening vip armin a_r_m_i_n xchorse ultima fox irohas shunao shogunmoon agatsu [[Pika]] pika sotarks
BeatmapID:1652590
BeatmapSetID:618552

[Difficulty]
HPDrainRate:5
CircleSize:3.7
OverallDifficulty:6
ApproachRate:8
SliderMultiplier:1.4
SliderTickRate:1

[Events]
//Background and Video events
0,0,"027.jpg",0,0
Video,0,"video.avi"
//Break Periods
//Storyboard Layer 0 (Background)
//Storyboard Layer 1 (Fail)
//Storyboard Layer 2 (Pass)
//Storyboard Layer 3 (Foreground)
//Storyboard Sound Samples

[TimingPoints]
534,324.324324324324,4,2,22,60,1,0
3128,-100,4,2,22,60,0,0
19993,-111.111111111111,4,2,22,60,0,0
40750,-125,4,2,22,60,0,0
53560,-100,4,2,22,60,0,0
55344,-117.647058823529,4,2,22,60,0,0
57452,-83.3333333333333,4,2,22,60,0,1
69290,-100,4,2,22,60,0,0
78371,-83.3333333333333,4,2,22,60,0,1
82101,-100,4,2,22,60,0,0
87614,-100,4,2,22,5,0,0

[Colours]
Combo1 : 255,255,0
Combo2 : 255,0,128
Combo3 : 0,96,255

[HitObjects]
195,125,696,6,0,L|241:121,3,35,10|0|6|0,0:3|0:0|3:0|0:0,0:0:0:0:
272,107,1020,2,0,L|306:110,3,35,2|8|10|0,1:0|0:0|0:0|1:0,0:0:0:0:
346,132,1344,2,0,L|392:128,3,35,2|8|10|0,1:0|0:0|0:0|0:0,0:0:0:0:
426,123,1668,1,6,1:0:0:0:
501,289,1993,5,0,1:0:0:0:
239,367,2479,1,8,0:0:0:0:
239,367,2641,1,8,0:0:0:0:
52,166,3128,6,0,B|123:141|114:203|195:173,1,140,4|0,0:0|0:0,0:0:0:0:
254,115,3614,1,0,3:0:0:0:
254,115,3695,1,0,3:0:0:0:
254,115,3777,2,0,P|240:177|233:263,1,140,0|2,3:0|0:0,0:0:0:0:
289,324,4263,1,2,0:0:0:0:
370,363,4425,6,0,P|495:340|497:191,1,280,4|4,1:0|1:0,0:0:0:0:
179,49,5723,6,0,L|128:44,2,46.6666666666667,4|0|0,1:0|0:0|0:0,0:0:0:0:
258,92,6048,2,0,L|313:86,2,46.6666666666667,4|0|0,0:3|0:0|0:0,0:0:0:0:
190,147,6371,2,0,L|139:142,2,46.6666666666667,8|0|0,0:3|0:0|0:0,0:0:0:0:
269,187,6695,2,0,L|315:191,2,46.6666666666667,10|0|0,0:3|0:0|0:0,0:0:0:0:
196,251,7020,6,0,L|202:340,1,70,4|2,1:0|0:0,0:0:0:0:
275,371,7344,1,0,0:0:0:0:
275,371,7506,2,0,P|338:344|406:360,1,140,2|2,0:0|0:0,0:0:0:0:
474,299,7993,1,2,0:0:0:0:
474,299,8155,6,0,L|484:154,2,140,2|2|2,0:0|1:0|1:0,0:0:0:0:
388,267,8966,2,0,L|377:124,1,140,8|2,0:0|0:0,0:0:0:0:
320,56,9452,1,2,0:0:0:0:
320,56,9614,6,0,P|284:64|247:56,1,70,6|2,1:0|0:0,0:0:0:0:
164,31,9939,1,2,0:0:0:0:
164,31,10101,2,0,L|77:22,2,70,2|8|0,0:0|0:0|0:0,0:0:0:0:
174,121,10587,1,2,0:0:0:0:
174,121,10750,6,0,P|181:158|185:205,1,70,2|0,0:0|1:0,0:0:0:0:
269,221,11074,2,0,P|275:186|279:151,1,70,2|0,0:0|0:0,0:0:0:0:
354,100,11398,2,0,P|387:90|432:98,2,70,2|8|0,0:0|0:0|0:0,0:0:0:0:
361,191,11885,2,0,L|367:273,1,70,0|0,1:0|0:0,0:0:0:0:
456,248,12209,6,0,L|449:360,2,105,6|0|0,1:0|0:0|1:0,0:0:0:0:
507,172,12858,2,0,L|500:59,2,105,0|0|0,1:0|0:0|1:0,0:0:0:0:
456,248,13506,5,8,0:3:0:0:
365,236,13668,1,8,0:3:0:0:
291,290,13831,1,8,0:0:0:0:
222,350,13993,2,0,L|171:346,2,35,10|8|10,0:0|0:0|0:0,0:0:0:0:
171,273,14317,2,0,L|122:269,2,35,8|8|10,0:0|0:0|0:0,0:0:0:0:
237,210,14641,6,0,B|247:162|247:162|216:64,1,140,6|2,1:0|1:0,0:0:0:0:
145,21,15128,1,8,0:0:0:0:
22,155,15452,2,0,L|30:233,1,70,2|2,1:0|1:0,0:0:0:0:
104,276,15777,2,0,L|96:361,1,70,8|0,0:0|0:0,0:0:0:0:
185,370,16101,5,2,1:0:0:0:
185,370,16263,2,0,P|219:362|263:368,1,70,0|10,1:0|0:0,0:0:0:0:
331,318,16587,2,0,L|324:237,2,70,2|2|2,0:0|1:0|1:0,0:0:0:0:
410,363,17074,1,10,0:0:0:0:
410,363,17236,6,0,P|444:369|482:363,1,70,2|0,0:0|1:0,0:0:0:0:
494,274,17561,1,2,0:0:0:0:
494,274,17723,2,0,L|501:191,1,70,10|0,0:0|0:0,0:0:0:0:
413,175,18047,1,2,1:0:0:0:
413,175,18209,2,0,L|420:92,1,70,2|8,1:0|0:0,0:0:0:0:
493,52,18533,6,0,P|425:66|358:42,1,140,2|2,0:0|1:0,0:0:0:0:
270,24,19020,1,8,0:0:0:0:
270,24,19182,2,0,B|245:59|245:59|259:165,1,140,2|2,0:0|1:0,0:0:0:0:
292,239,19668,1,8,0:0:0:0:
270,339,19831,1,0,0:0:0:0:
270,339,19993,6,0,L|191:333,1,62.9999980773926,4|0,1:0|0:0,0:0:0:0:
130,379,20317,2,0,B|0:370,1,125.999996154785,10|2,0:0|1:0,0:0:0:0:
3,281,20804,2,0,P|9:215|63:166,1,125.999996154785,0|0,1:0|0:0,0:0:0:0:
111,110,21290,5,2,1:0:0:0:
111,110,21452,2,0,L|104:25,2,62.9999980773926,2|10|2,1:0|0:0|0:0,0:0:0:0:
185,158,21939,2,0,P|219:165|258:156,1,62.9999980773926,2|2,1:0|1:0,0:0:0:0:
317,108,22263,1,10,0:0:0:0:
317,108,22425,6,0,P|376:88|439:120,1,125.999996154785,2|0,0:0|0:0,0:0:0:0:
491,178,22912,2,0,B|505:217|505:217|497:312,1,125.999996154785,10|2,0:0|1:0,0:0:0:0:
438,366,23399,2,0,L|312:355,1,125.999996154785,2|2,1:0|0:0,0:0:0:0:
242,302,23885,5,2,1:0:0:0:
242,302,24047,2,0,L|160:309,2,62.9999980773926,2|10|0,1:0|0:0|0:0,0:0:0:0:
296,231,24534,2,0,P|302:197|296:163,1,62.9999980773926,2|2,1:0|1:0,0:0:0:0:
218,130,24858,2,0,P|212:96|221:60,1,62.9999980773926,10|2,0:0|0:0,0:0:0:0:
136,33,25182,6,0,P|74:26|17:76,1,125.999996154785,2|8,1:0|0:0,0:0:0:0:
7,147,25668,2,0,L|18:288,1,125.999996154785,2|0,0:0|1:0,0:0:0:0:
80,334,26155,1,8,0:0:0:0:
162,304,26317,1,0,0:0:0:0:
162,304,26479,6,0,P|196:297|242:310,1,62.9999980773926,0|0,1:0|1:0,0:0:0:0:
305,334,26804,2,0,L|315:207,1,125.999996154785,10|2,0:0|1:0,0:0:0:0:
250,147,27290,1,0,1:0:0:0:
250,147,27452,2,0,L|245:72,1,62.9999980773926,10|0,0:0|0:0,0:0:0:0:
317,32,27777,6,0,B|384:4|376:62|449:40,1,125.999996154785,2|8,1:0|0:0,0:0:0:0:
500,104,28263,2,0,L|494:180,1,62.9999980773926,0|0,0:0|1:0,0:0:0:0:
484,254,28588,1,2,1:0:0:0:
421,316,28750,1,10,0:0:0:0:
421,316,28912,6,0,P|388:308|354:312,1,62.9999980773926,2|0,0:0|1:0,0:0:0:0:
279,347,29236,1,0,1:0:0:0:
279,347,29398,2,0,L|269:203,1,125.999996154785,8|0,0:0|1:0,0:0:0:0:
184,220,29885,1,0,1:0:0:0:
184,220,30047,2,0,P|149:226|112:219,1,62.9999980773926,8|0,0:0|0:0,0:0:0:0:
37,197,30371,6,0,L|31:117,1,62.9999980773926,4|0,1:0|0:0,0:0:0:0:
43,46,30695,2,0,P|99:64|165:41,1,125.999996154785,10|2,0:0|1:0,0:0:0:0:
245,17,31182,2,0,L|255:148,1,125.999996154785,2|2,1:0|0:0,0:0:0:0:
319,202,31668,5,2,1:0:0:0:
319,202,31830,2,0,P|349:196|381:201,2,62.9999980773926,2|10|2,1:0|0:0|0:0,0:0:0:0:
251,258,32317,2,0,L|246:333,1,62.9999980773926,2|2,1:0|1:0,0:0:0:0:
165,354,32641,1,10,0:0:0:0:
165,354,32803,6,0,P|106:326|33:349,1,125.999996154785,2|0,0:0|0:0,0:0:0:0:
22,253,33290,2,0,B|16:108,1,125.999996154785,10|2,0:0|1:0,0:0:0:0:
37,41,33777,2,0,P|100:21|166:61,1,125.999996154785,2|2,1:0|0:0,0:0:0:0:
224,94,34263,5,2,1:0:0:0:
224,94,34425,2,0,L|289:88,2,62.9999980773926,2|10|2,1:0|0:0|0:0,0:0:0:0:
194,177,34912,2,0,L|128:171,1,62.9999980773926,2|2,1:0|1:0,0:0:0:0:
115,258,35236,2,0,P|119:293|121:333,1,62.9999980773926,10|2,0:0|0:0,0:0:0:0:
204,346,35560,6,0,B|273:326|260:382|348:352,1,125.999996154785,2|8,1:0|0:0,0:0:0:0:
410,334,36046,2,0,L|400:202,1,125.999996154785,2|0,0:0|1:0,0:0:0:0:
471,155,36533,1,8,0:0:0:0:
438,72,36695,1,0,0:0:0:0:
438,72,36857,6,0,L|368:67,1,62.9999980773926,0|0,1:0|1:0,0:0:0:0:
288,84,37182,2,0,B|270:122|270:122|281:223,1,125.999996154785,10|2,0:0|1:0,0:0:0:0:
254,290,37668,1,0,1:0:0:0:
254,290,37830,2,0,L|177:285,1,62.9999980773926,10|0,0:0|0:0,0:0:0:0:
107,314,38155,6,0,P|105:254|91:174,1,125.999996154785,2|8,1:0|0:0,0:0:0:0:
20,141,38641,2,0,P|23:106|30:63,1,62.9999980773926,0|0,0:0|1:0,0:0:0:0:
94,22,38965,2,0,L|161:29,1,62.9999980773926,2|10,1:0|0:0,0:0:0:0:
232,74,39290,6,0,L|303:67,1,62.9999980773926,2|0,0:0|1:0,0:0:0:0:
376,34,39614,1,0,1:0:0:0:
449,83,39777,1,8,0:0:0:0:
449,83,39939,2,0,L|443:156,1,62.9999980773926,8|0,0:0|1:0,0:0:0:0:
468,230,40263,1,8,0:3:0:0:
403,289,40425,1,8,0:0:0:0:
322,253,40587,1,0,0:0:0:0:
221,303,40750,6,0,L|226:371,1,56,4|0,1:0|0:0,0:0:0:0:
315,364,41074,2,0,L|322:252,1,112,10|10,0:0|0:3,0:0:0:0:
336,163,41560,1,10,0:3:0:0:
278,102,41723,1,10,0:0:0:0:
278,102,41885,6,0,L|218:96,1,56,2|8,0:0|0:3,0:0:0:0:
162,30,42209,2,0,L|95:37,1,56,10|8,0:3|0:0,0:0:0:0:
35,90,42533,2,0,P|17:141|33:200,1,112,2|10,0:0|0:3,0:0:0:0:
104,246,43020,1,8,0:0:0:0:
188,216,43182,1,2,0:0:0:0:
188,216,43344,6,0,L|313:223,1,112,8|10,0:3|0:0,0:0:0:0:
385,195,43831,2,0,P|369:144|394:86,1,112,2|10,0:0|0:3,0:0:0:0:
458,34,44317,1,8,0:0:0:0:
458,34,44479,6,0,P|400:41|338:17,1,112,2|8,0:0|0:3,0:0:0:0:
260,13,44966,2,0,L|253:82,1,56,8|0,0:0|0:0,0:0:0:0:
170,101,45290,2,0,L|178:171,1,56,8|8,0:3|0:3,0:0:0:0:
232,226,45614,1,8,0:0:0:0:
189,305,45777,1,0,0:0:0:0:
189,305,45858,1,0,0:0:0:0:
189,305,45939,6,0,P|132:285|72:298,1,112,4|10,1:0|0:0,0:0:0:0:
1,331,46425,1,0,0:0:0:0:
1,331,46587,2,0,L|9:207,1,112,10|8,0:3|0:0,0:0:0:0:
65,149,47074,6,0,L|61:83,1,56,2|8,0:0|0:3,0:0:0:0:
128,33,47398,2,0,P|159:27|196:32,1,56,8|8,0:3|0:0,0:0:0:0:
271,48,47723,2,0,P|300:53|331:47,1,56,2|8,0:0|0:3,0:0:0:0:
411,23,48047,1,10,0:3:0:0:
473,86,48209,1,8,0:0:0:0:
432,165,48371,1,2,0:0:0:0:
432,165,48452,1,0,0:0:0:0:
432,165,48533,6,0,P|422:215|416:294,1,112,6|8,1:0|0:0,0:0:0:0:
331,304,49020,1,0,0:0:0:0:
331,304,49182,2,0,P|328:273|321:241,1,56,8|8,0:3|0:3,0:0:0:0:
233,248,49506,2,0,P|230:279|223:311,1,56,8|2,0:0|0:0,0:0:0:0:
165,370,49831,6,0,P|219:356|278:375,1,112,8|10,0:3|0:0,0:0:0:0:
360,379,50317,1,8,0:3:0:0:
360,379,50479,2,0,L|439:373,1,56,2|8,0:0|0:3,0:0:0:0:
469,302,50804,2,0,L|394:296,1,56,10|0,0:0|0:0,0:0:0:0:
348,235,51128,6,0,B|333:182|333:182|352:119,1,112,4|10,1:0|0:0,0:0:0:0:
432,94,51615,1,0,0:0:0:0:
432,94,51777,2,0,L|425:21,1,56,10|10,0:3|0:3,0:0:0:0:
341,10,52101,1,10,0:0:0:0:
264,55,52263,1,2,0:0:0:0:
264,55,52344,1,0,0:0:0:0:
264,55,52425,6,0,P|229:60|193:54,1,56,8|10,0:3|0:3,0:0:0:0:
140,117,52750,1,8,0:0:0:0:
140,117,52912,2,0,P|106:115|74:121,1,56,2|8,0:0|0:3,0:0:0:0:
23,183,53236,1,10,0:3:0:0:
38,271,53398,1,8,0:0:0:0:
95,368,53561,6,0,P|157:359|243:363,1,140,6|2,1:0|1:0,0:0:0:0:
323,320,54047,2,0,L|335:170,1,140,10|0,0:0|1:0,0:0:0:0:
261,114,54533,1,0,1:0:0:0:
303,25,54695,1,8,0:0:0:0:
416,24,54858,6,0,P|479:39|511:117,1,140,4|0,1:0|1:0,0:0:0:0:
505,202,55344,2,0,B|334:118|347:298|158:202,1,357.000006809235,4|0,1:0|0:0,0:0:0:0:
26,28,57452,5,4,1:0:0:0:
188,175,57777,1,0,1:0:0:0:
188,175,57939,2,0,B|279:147|256:214|357:188,1,167.999994873047,8|0,0:0|1:0,0:0:0:0:
454,159,58425,2,0,P|445:201|442:259,1,83.9999974365235,8|8,0:3|0:0,0:0:0:0:
400,343,58750,6,0,P|326:319|251:370,1,167.999994873047,6|0,1:0|1:0,0:0:0:0:
145,371,59236,2,0,P|139:326|128:270,1,83.9999974365235,8|0,0:0|0:0,0:0:0:0:
42,225,59560,2,0,P|48:180|59:124,1,83.9999974365235,0|8,1:0|0:3,0:0:0:0:
127,59,59885,1,10,0:0:0:0:
228,98,60047,1,2,0:0:0:0:
228,98,60209,6,0,P|267:109|318:97,1,83.9999974365235,0|8,1:0|0:3,0:0:0:0:
410,59,60533,1,10,0:0:0:0:
460,276,60858,1,2,1:0:0:0:
460,276,61020,2,0,L|369:268,1,83.9999974365235,10|8,0:3|0:0,0:0:0:0:
267,254,61345,6,0,P|236:180|273:94,1,167.999994873047,6|0,1:0|1:0,0:0:0:0:
157,116,61831,2,0,P|151:71|140:15,1,83.9999974365235,8|0,0:0|0:0,0:0:0:0:
42,74,62155,2,0,P|34:115|28:156,1,83.9999974365235,0|8,1:0|0:3,0:0:0:0:
56,262,62480,1,10,0:0:0:0:
165,308,62642,1,2,1:0:0:0:
165,308,62723,1,0,0:0:0:0:
165,308,62804,6,0,P|203:299|254:304,1,83.9999974365235,4|0,1:0|0:0,0:0:0:0:
353,327,63128,1,10,0:0:0:0:
445,268,63290,2,0,B|452:209|452:209|431:161|431:161|440:87,1,167.999994873047,2|2,0:0|1:0,0:0:0:0:
363,24,63777,1,10,0:0:0:0:
256,47,63939,1,2,0:0:0:0:
226,151,64101,6,0,L|136:141,1,83.9999974365235,4|2,1:0|1:0,0:0:0:0:
171,247,64425,2,0,L|270:237,1,83.9999974365235,8|0,0:0|0:0,0:0:0:0:
362,220,64750,2,0,P|354:262|350:308,1,83.9999974365235,0|0,1:0|1:0,0:0:0:0:
269,376,65074,1,10,0:0:0:0:
165,340,65236,6,0,B|74:313|91:379|-8:347,1,167.999994873047,2|2,0:0|1:0,0:0:0:0:
4,240,65723,1,10,0:0:0:0:
81,162,65885,1,2,0:0:0:0:
171,222,66047,2,0,L|221:217,3,41.9999987182618,8|8|2|0,0:0|0:0|1:3|1:3,0:0:0:0:
261,192,66371,2,0,L|316:197,3,41.9999987182618,10|8|2|0,0:0|0:3|0:0|1:0,0:0:0:0:
347,163,66696,6,0,P|340:124|355:78,1,83.9999974365235,0|2,0:0|0:0,0:0:0:0:
448,29,67020,1,8,0:0:0:0:
487,130,67182,1,10,0:3:0:0:
437,227,67344,2,0,L|443:274,3,41.9999987182618,2|0|10|8,1:0|1:1|0:0|0:0,0:0:0:0:
446,323,67669,1,10,0:3:0:0:
346,368,67831,5,6,1:0:0:0:
135,311,68155,1,6,1:0:0:0:
13,7,68641,1,10,0:0:0:0:
116,42,68803,1,10,0:0:0:0:
369,143,69290,6,0,P|444:128|526:120,1,140,6|0,1:0|0:0,0:0:0:0:
487,31,69777,1,8,1:3:0:0:
487,31,69858,1,8,1:3:0:0:
487,31,69939,2,0,P|442:26|396:16,1,70,8|8,1:3|0:3,0:0:0:0:
327,15,70263,1,0,3:0:0:0:
246,56,70425,1,4,3:0:0:0:
239,147,70588,6,0,P|164:134|84:130,2,140,4|0|4,1:0|0:0|1:0,0:0:0:0:
391,245,71560,1,0,0:0:0:0:
247,357,71885,6,0,L|183:351,2,46.6666666666667,4|8|0,1:0|0:0|1:0,0:0:0:0:
232,274,72209,2,0,L|177:269,2,46.6666666666667,8|0|8,0:0|1:0|0:0,0:0:0:0:
218,191,72533,2,0,L|163:186,2,46.6666666666667,0|0|0,1:0|1:0|1:0,0:0:0:0:
206,107,72858,2,0,L|151:102,2,46.6666666666667,8|0|10,0:0|0:0|0:0,0:0:0:0:
268,44,73182,6,0,L|348:38,1,70,4|2,1:0|0:0,0:0:0:0:
428,38,73506,1,2,0:0:0:0:
428,38,73669,2,0,P|453:107|430:179,1,140,2|2,1:0|0:0,0:0:0:0:
358,216,74155,1,0,3:0:0:0:
358,216,74317,6,0,B|285:193|292:244|213:218,2,140,2|2|2,1:0|0:0|1:0,0:0:0:0:
425,277,75128,1,8,0:0:0:0:
425,277,75290,2,0,L|420:364,1,70,8|2,0:0|1:0,0:0:0:0:
333,370,75614,1,2,0:0:0:0:
333,370,75776,6,0,P|295:362|261:368,1,70,4|2,1:0|0:0,0:0:0:0:
174,349,76101,1,2,0:0:0:0:
174,349,76263,2,0,L|170:274,2,70,2|8|2,1:0|0:0|0:0,0:0:0:0:
87,322,76749,1,2,1:0:0:0:
87,322,76912,6,0,L|93:242,1,70,10|0,0:0|1:0,0:0:0:0:
33,183,77236,2,0,L|27:110,1,70,10|0,0:0|3:0,0:0:0:0:
67,31,77560,2,0,P|102:19|148:21,2,70,2|10|0,1:0|0:0|0:0,0:0:0:0:
117,106,78047,2,0,L|198:109,1,70,0|0,1:0|0:0,0:0:0:0:
290,73,78371,6,0,L|435:60,2,125.999996154785,6|0|0,1:0|0:0|1:0,0:0:0:0:
215,153,79020,2,0,L|83:142,2,125.999996154785,0|0|0,1:0|0:0|1:0,0:0:0:0:
261,251,79668,5,8,1:3:0:0:
261,251,79830,1,8,1:3:0:0:
373,235,79993,1,8,1:3:0:0:
373,235,80155,1,10,1:3:0:0:
449,157,80317,2,0,L|437:65,1,83.9999974365235,10|8,1:3|1:3,0:0:0:0:
345,14,80642,1,10,1:3:0:0:
252,71,80804,6,0,B|193:194|308:182|249:322,1,251.999992309571,6|8,1:3|0:0,0:0:0:0:
162,373,81452,1,0,1:0:0:0:
68,316,81615,1,8,0:0:0:0:
68,316,81696,1,8,0:0:0:0:
68,316,81777,2,0,P|61:270|73:225,1,83.9999974365235,8|8,0:0|0:0,0:0:0:0:
98,147,82101,1,6,1:0:0:0:
256,192,82182,12,0,87614,0:0:0:0:
