osu file format v14

[General]
AudioFilename: audio.mp3
AudioLeadIn: 0
PreviewTime: 56480
Countdown: 0
SampleSet: Soft
StackLeniency: 0.4
Mode: 0
LetterboxInBreaks: 0
WidescreenStoryboard: 0

[Editor]
Bookmarks: 19994,40751,51129,53561,66048,67832,69291,69453,70588,82102,87616
DistanceSpacing: 1.4
BeatDivisor: 4
GridSize: 4
TimelineZoom: 2.5

[Metadata]
Title:V.I.P (TV Size)
TitleUnicode:V.I.P (TV Size)
Artist:SID
ArtistUnicode:シド
Creator:Nevo
Version:Pika's Insane
Source:マギ The labyrinth of magic
Tags:magi opening vip armin a_r_m_i_n xchorse ultima fox irohas shunao shogunmoon agatsu [[Pika]] pika sotarks
BeatmapID:1647158
BeatmapSetID:618552

[Difficulty]
HPDrainRate:6
CircleSize:4
OverallDifficulty:7.5
ApproachRate:9
SliderMultiplier:1.6
SliderTickRate:1

[Events]
//Background and Video events
0,0,"027.jpg",0,0
Video,0,"video.avi"
//Break Periods
//Storyboard Layer 0 (Background)
//Storyboard Layer 1 (Fail)
//Storyboard Layer 2 (Pass)
//Storyboard Layer 3 (Foreground)
//Storyboard Sound Samples

[TimingPoints]
534,324.324324324324,4,2,22,60,1,0
3128,-166.666666666667,4,2,22,60,0,0
4426,-125,4,2,22,60,0,0
4993,-125,4,2,22,60,0,0
5074,-125,4,2,22,60,0,0
5642,-125,4,2,22,60,0,0
5723,-100,4,2,22,60,0,0
7020,-149.253731343284,4,2,22,60,0,0
9615,-133.333333333333,4,2,22,60,0,0
12210,-117.647058823529,4,2,22,60,0,0
13507,-100,4,2,22,60,0,0
14642,-95.2380952380952,4,2,22,60,0,0
40750,-99.009900990099,4,2,22,60,0,0
54858,-81.9672131147541,4,2,22,60,0,0
56479,-138.888888888889,4,2,22,60,0,0
57452,-86.9565217391304,4,2,22,60,0,1
67750,-86.9565217391304,4,2,22,60,0,0
67831,-81.9672131147541,4,2,22,60,0,1
67912,-81.9672131147541,4,2,22,60,0,0
68642,-81.9672131147541,4,2,22,60,0,1
68804,-81.9672131147541,4,2,22,60,0,0
69290,-105.263157894737,4,2,22,60,0,1
70506,-105.263157894737,4,2,22,60,0,0
70588,-116.279069767442,4,2,22,60,0,1
71155,-116.279069767442,4,2,22,60,0,0
71236,-123.456790123457,4,2,22,60,0,1
71804,-123.456790123457,4,2,22,60,0,0
71885,-90.9090909090909,4,2,22,60,0,1
73182,-89.2857142857143,4,2,22,60,0,1
73831,-106.382978723404,4,2,22,60,0,1
74479,-87.719298245614,4,2,22,60,0,1
75128,-100,4,2,22,60,0,1
75777,-90.9090909090909,4,2,22,60,0,1
76425,-96.1538461538461,4,2,22,60,0,1
77074,-86.2068965517241,4,2,22,60,0,1
77723,-89.2857142857143,4,2,22,60,0,1
78290,-89.2857142857143,4,2,22,60,0,0
78371,-95.2380952380952,4,2,22,60,0,1
82101,-95.2380952380952,4,2,22,60,0,0

[Colours]
Combo1 : 255,255,0
Combo2 : 255,0,128
Combo3 : 0,96,255

[HitObjects]
69,307,697,6,0,L|23:309,2,40,10|0|0,0:3|0:0|0:0,0:0:0:0:
197,132,1021,2,0,L|195:86,1,40,2|0,1:0|0:0,0:0:0:0:
131,201,1183,2,0,L|133:247,1,40,10|0,0:0|0:0,0:0:0:0:
209,337,1345,2,0,L|207:291,1,40,2|0,1:0|0:0,0:0:0:0:
242,211,1507,1,10,0:0:0:0:
258,197,1588,1,0,0:0:0:0:
274,183,1669,6,0,B|319:176|319:176|392:185|392:185|437:178,1,160,6|0,1:0|1:0,0:0:0:0:
433,179,2480,5,8,0:0:0:0:
397,100,2642,1,8,0:0:0:0:
397,100,3128,6,0,B|314:145|349:255|418:260|418:260|370:272|351:321|362:358,1,335.999989746094,4|0,0:0|0:0,0:0:0:0:
444,338,4426,6,0,B|397:329|361:353|361:353|359:330|370:308|370:308|334:322|278:317,1,224,4|0,1:0|0:0,0:0:0:0:
143,351,5074,2,0,P|233:352|243:237,1,224,4|0,1:0|0:0,0:0:0:0:
182,181,5723,6,0,L|127:187,2,53.3333333333333,4|0|0,1:0|0:0|0:0,0:0:0:0:
261,155,6047,2,0,L|316:161,2,53.3333333333333,4|0|0,0:3|0:0|0:0,0:0:0:0:
144,102,6372,2,0,L|89:108,2,53.3333333333333,8|0|0,0:3|0:0|0:0,0:0:0:0:
299,83,6696,1,10,0:3:0:0:
299,83,7020,6,0,B|382:57|381:108|458:84,1,160.799992393799,4|2,1:0|0:0,0:0:0:0:
486,76,7669,2,0,P|470:126|497:179,1,107.199994929199,8|2,0:0|0:0,0:0:0:0:
342,325,8318,6,0,B|328:288|328:288|340:156,1,160.799992393799,0|2,1:0|1:0,0:0:0:0:
419,222,8966,2,0,L|413:276,1,53.5999974645997,8|8,0:0|0:0,0:0:0:0:
342,325,9291,2,0,L|348:379,1,53.5999974645997,2|0,0:0|0:0,0:0:0:0:
256,281,9615,6,0,B|197:275|197:275|133:288|133:288,1,120.000004577637,6|2,1:0|0:0,0:0:0:0:
63,324,10101,2,0,P|57:295|61:257,1,60.0000022888184,2|8,0:0|0:0,0:0:0:0:
121,202,10426,1,0,0:0:0:0:
121,202,10588,1,2,0:0:0:0:
59,84,10750,6,0,P|53:113|57:151,1,60.0000022888184,2|0,0:0|1:0,0:0:0:0:
193,90,11074,2,0,P|170:70|135:54,1,60.0000022888184,2|0,0:0|0:0,0:0:0:0:
120,202,11398,1,2,0:0:0:0:
265,220,11561,2,0,L|260:151,1,60.0000022888184,8|0,0:0|0:0,0:0:0:0:
323,93,11885,2,0,B|348:85|348:85|423:84,1,90.0000034332277,0|0,1:0|0:0,0:0:0:0:
441,93,12210,5,6,1:0:0:0:
441,93,12534,5,0,1:0:0:0:
430,218,12696,1,0,1:0:0:0:
449,101,12858,5,0,1:0:0:0:
446,233,13020,1,0,1:0:0:0:
457,109,13183,5,0,1:0:0:0:
462,248,13345,1,0,1:0:0:0:
293,217,13507,5,8,0:3:0:0:
465,117,13669,1,8,0:3:0:0:
256,133,13831,1,8,0:0:0:0:
383,209,13993,2,0,L|431:204,2,40,10|8|10,0:0|0:0|0:0,0:0:0:0:
204,248,14318,1,8,0:0:0:0:
201,228,14399,1,8,0:0:0:0:
202,208,14480,1,10,0:0:0:0:
325,320,14642,6,0,B|235:298|250:351|161:325,1,167.999994873047,6|2,1:0|1:0,0:0:0:0:
77,292,15128,2,0,B|89:315|89:315|87:378,1,83.9999974365235,8|0,0:0|0:0,0:0:0:0:
21,203,15453,1,2,1:0:0:0:
105,184,15615,1,2,1:0:0:0:
13,211,15777,2,0,L|16:122,1,83.9999974365235,8|0,0:0|0:0,0:0:0:0:
194,82,16101,6,0,B|203:124|203:124|197:166,1,83.9999974365235,2|0,1:0|1:0,0:0:0:0:
23,36,16426,2,0,L|115:39,1,83.9999974365235,10|2,0:0|0:0,0:0:0:0:
274,44,16750,1,2,1:0:0:0:
193,82,16912,2,0,B|177:39|197:0,1,83.9999974365235,2|10,1:0|0:0,0:0:0:0:
355,134,17237,2,0,L|267:133,1,83.9999974365235,2|0,0:0|0:0,0:0:0:0:
436,96,17561,5,2,0:0:0:0:
432,267,17723,2,0,B|423:241|423:241|428:182,1,83.9999974365235,10|0,0:0|0:0,0:0:0:0:
507,228,18047,1,2,1:0:0:0:
474,344,18210,2,0,L|391:342,1,83.9999974365235,2|0,1:0|0:0,0:0:0:0:
183,218,18534,6,0,B|268:191|277:240|347:217,1,167.999994873047,2|2,0:0|1:0,0:0:0:0:
232,381,19020,1,8,0:0:0:0:
232,381,19183,2,0,L|234:298,1,83.9999974365235,2|0,0:0|0:0,0:0:0:0:
104,183,19507,1,2,1:0:0:0:
104,183,19670,2,0,L|106:266,1,83.9999974365235,8|0,0:0|0:0,0:0:0:0:
255,6,19993,6,0,P|318:58|308:139,1,167.999994873047,4|10,1:0|0:0,0:0:0:0:
148,95,20480,1,0,0:0:0:0:
148,95,20642,2,0,P|191:87|231:93,1,83.9999974365235,2|0,1:0|1:0,0:0:0:0:
391,139,20966,2,0,P|348:131|308:137,1,83.9999974365235,10|0,0:0|0:0,0:0:0:0:
344,304,21291,6,0,L|349:216,1,83.9999974365235,2|0,1:0|0:0,0:0:0:0:
195,183,21615,2,0,L|200:267,1,83.9999974365235,10|2,0:0|0:0,0:0:0:0:
353,225,21939,5,2,1:0:0:0:
353,225,22101,1,2,1:0:0:0:
192,259,22264,1,10,0:0:0:0:
298,372,22426,1,2,0:0:0:0:
298,372,22507,1,0,0:0:0:0:
298,372,22588,6,0,B|338:386|338:386|424:372,1,125.999996154785,0|0,1:0|0:0,0:0:0:0:
458,383,22912,2,0,P|452:344|458:301,1,83.9999974365235,10|0,0:0|0:0,0:0:0:0:
509,173,23237,1,2,1:0:0:0:
353,225,23399,2,0,L|445:223,1,83.9999974365235,2|8,1:0|0:0,0:0:0:0:
428,52,23723,1,2,0:0:0:0:
428,52,23804,1,0,0:0:0:0:
428,52,23885,6,0,B|435:95|435:95|428:134,1,83.9999974365235,2|2,1:0|1:0,0:0:0:0:
260,88,24210,2,0,B|253:49|253:49|260:6,1,83.9999974365235,10|0,0:0|0:0,0:0:0:0:
345,217,24534,5,2,1:0:0:0:
349,90,24696,1,2,1:0:0:0:
345,217,24858,1,10,0:0:0:0:
185,123,25020,1,2,0:0:0:0:
185,123,25101,1,0,0:0:0:0:
185,123,25183,6,0,P|186:48|281:8,1,167.999994873047,2|8,1:0|0:0,0:0:0:0:
203,216,25669,1,2,0:0:0:0:
113,188,25831,2,0,L|27:191,1,83.9999974365235,0|0,1:0|1:0,0:0:0:0:
211,224,26156,2,0,L|297:221,1,83.9999974365235,8|0,0:0|0:0,0:0:0:0:
499,265,26480,6,0,B|436:252|437:280|373:267,1,125.999996154785,0|0,1:0|0:0,0:0:0:0:
354,286,26804,2,0,P|373:333|367:372,1,83.9999974365235,10|0,0:0|0:0,0:0:0:0:
204,353,27128,1,2,1:0:0:0:
289,339,27291,1,0,1:0:0:0:
196,345,27453,2,0,L|108:350,1,83.9999974365235,10|0,0:0|0:0,0:0:0:0:
20,231,27777,6,0,P|125:224|141:304,1,167.999994873047,2|8,1:0|0:0,0:0:0:0:
246,97,28264,2,0,P|141:90|125:170,1,167.999994873047,0|2,0:0|1:0,0:0:0:0:
208,210,28750,1,10,0:0:0:0:
281,22,28912,1,2,0:0:0:0:
281,22,28993,1,0,0:0:0:0:
281,22,29074,6,0,L|370:19,1,83.9999974365235,0|0,1:0|1:0,0:0:0:0:
512,89,29399,2,0,P|474:71|433:78,1,83.9999974365235,8|0,0:0|0:0,0:0:0:0:
333,183,29723,1,0,1:0:0:0:
464,152,29885,1,0,1:0:0:0:
445,335,30047,2,0,L|361:325,1,83.9999974365235,8|0,0:0|0:0,0:0:0:0:
241,352,30372,6,0,B|164:334|165:379|75:353,1,167.999994873047,4|0,1:0|0:0,0:0:0:0:
127,191,30858,1,0,0:0:0:0:
127,191,31020,2,0,L|124:277,1,83.9999974365235,2|2,1:0|1:0,0:0:0:0:
90,109,31345,2,0,L|92:25,1,83.9999974365235,8|0,0:0|0:0,0:0:0:0:
255,127,31669,6,0,P|240:172|181:205,1,83.9999974365235,2|0,1:0|0:0,0:0:0:0:
90,109,31993,2,0,P|113:61|168:39,1,83.9999974365235,10|2,0:0|0:0,0:0:0:0:
288,49,32318,5,2,1:0:0:0:
288,49,32480,1,2,1:0:0:0:
171,120,32642,1,10,0:0:0:0:
340,136,32804,1,2,0:0:0:0:
340,136,32885,1,0,0:0:0:0:
340,136,32966,6,0,B|429:142|429:142|465:130,1,125.999996154785,0|0,1:0|0:0,0:0:0:0:
482,146,33291,2,0,L|474:236,1,83.9999974365235,10|0,0:0|0:0,0:0:0:0:
359,321,33615,1,2,1:0:0:0:
310,247,33777,2,0,B|353:235|353:235|394:239,1,83.9999974365235,2|8,1:0|0:0,0:0:0:0:
236,366,34101,1,2,0:0:0:0:
236,366,34183,1,0,0:0:0:0:
236,366,34264,6,0,L|150:366,1,83.9999974365235,2|0,1:0|0:0,0:0:0:0:
0,309,34588,2,0,L|84:309,1,83.9999974365235,10|2,0:0|0:0,0:0:0:0:
205,225,34912,5,2,1:0:0:0:
46,223,35074,1,2,1:0:0:0:
205,225,35237,1,10,0:0:0:0:
60,57,35399,1,2,0:0:0:0:
67,74,35480,1,0,0:0:0:0:
74,91,35561,6,0,B|117:109|117:109|247:100,1,167.999994873047,2|8,1:0|0:0,0:0:0:0:
397,89,36047,1,2,0:0:0:0:
319,53,36210,2,0,P|313:100|327:138,1,83.9999974365235,0|0,1:0|1:0,0:0:0:0:
486,170,36534,2,0,L|403:176,1,83.9999974365235,8|0,0:0|0:0,0:0:0:0:
380,203,36777,1,0,0:0:0:0:
380,203,36858,6,0,B|387:247|387:247|381:288,1,83.9999974365235,0|0,1:0|1:0,0:0:0:0:
213,239,37183,2,0,L|296:245,1,83.9999974365235,10|0,0:0|0:0,0:0:0:0:
209,344,37507,1,2,1:0:0:0:
306,341,37669,1,0,1:0:0:0:
217,352,37831,2,0,L|134:358,1,83.9999974365235,10|0,0:0|0:0,0:0:0:0:
33,308,38074,1,0,0:0:0:0:
41,316,38156,6,0,B|59:273|59:273|46:143,1,167.999994873047,2|8,1:0|0:0,0:0:0:0:
140,28,38642,2,0,B|122:71|122:71|135:201,1,167.999994873047,0|2,0:0|1:0,0:0:0:0:
291,81,39128,1,10,0:0:0:0:
208,86,39291,1,2,0:0:0:0:
368,121,39453,6,0,P|377:85|367:39,1,83.9999974365235,0|0,1:0|0:0,0:0:0:0:
279,170,39777,1,8,0:0:0:0:
472,144,39939,1,8,0:0:0:0:
287,162,40101,5,0,1:0:0:0:
462,166,40264,1,8,0:3:0:0:
310,257,40426,5,8,0:0:0:0:
436,287,40588,1,0,0:0:0:0:
261,337,40750,6,0,B|215:349|215:349|82:340,1,161.599996794434,4|10,1:0|0:0,0:0:0:0:
123,178,41237,1,0,0:0:0:0:
123,178,41399,2,0,B|128:221|128:221|117:258,1,80.7999983972168,10|10,0:3|0:3,0:0:0:0:
35,210,41723,1,10,0:0:0:0:
76,94,41885,6,0,B|170:64|152:124|237:92,1,161.599996794434,2|10,0:0|0:3,0:0:0:0:
378,35,42372,1,8,0:0:0:0:
378,35,42534,2,0,B|298:37,1,80.7999983972168,2|8,0:0|0:3,0:0:0:0:
431,109,42858,2,0,B|511:107,1,80.7999983972168,10|8,0:3|0:0,0:0:0:0:
378,183,43183,1,2,0:0:0:0:
378,183,43264,1,0,0:0:0:0:
378,183,43345,6,0,B|371:252|371:252|387:279|387:279|381:341,1,161.599996794434,8|10,0:3|0:0,0:0:0:0:
217,297,43831,2,0,P|262:291|294:305,1,80.7999983972168,2|8,0:0|0:3,0:0:0:0:
244,382,44156,2,0,P|199:388|167:374,1,80.7999983972168,10|8,0:3|0:0,0:0:0:0:
104,194,44480,1,2,0:0:0:0:
113,203,44642,6,0,L|116:283,1,80.7999983972168,8|8,0:3|0:3,0:0:0:0:
18,334,44966,2,0,L|14:253,1,80.7999983972168,8|0,0:0|0:0,0:0:0:0:
121,211,45291,6,0,L|124:291,1,80.7999983972168,8|8,0:3|0:3,0:0:0:0:
26,342,45615,2,0,L|22:261,1,80.7999983972168,8|0,0:0|0:0,0:0:0:0:
28,242,45858,1,0,0:0:0:0:
33,222,45939,6,0,B|29:126|29:126|15:81,1,121.199997595825,4|0,1:0|0:0,0:0:0:0:
11,78,46264,1,10,0:0:0:0:
57,5,46426,1,0,0:0:0:0:
172,84,46588,1,10,0:3:0:0:
172,84,46750,2,0,L|76:82,1,80.7999983972168,8|8,0:3|0:0,0:0:0:0:
230,18,47074,6,0,B|269:9|269:9|311:12,1,80.7999983972168,2|8,0:0|0:3,0:0:0:0:
221,159,47399,2,0,B|182:168|182:168|140:165,1,80.7999983972168,8|8,0:3|0:0,0:0:0:0:
238,26,47723,6,0,B|277:17|277:17|319:20,1,80.7999983972168,2|8,0:0|0:3,0:0:0:0:
213,151,48047,2,0,B|174:160|174:160|132:157,1,80.7999983972168,10|8,0:3|0:0,0:0:0:0:
299,103,48372,1,2,0:0:0:0:
299,103,48453,1,0,0:0:0:0:
299,103,48534,6,0,B|327:181|276:184|306:264,1,161.599996794434,6|8,1:0|0:0,0:0:0:0:
382,307,49020,1,0,0:0:0:0:
467,211,49183,2,0,L|382:218,1,80.7999983972168,8|8,0:3|0:3,0:0:0:0:
305,261,49507,2,0,L|220:254,1,80.7999983972168,8|2,0:0|0:0,0:0:0:0:
105,342,49831,6,0,B|198:317|179:378|272:343,1,161.599996794434,8|10,0:3|0:0,0:0:0:0:
52,277,50318,1,8,0:3:0:0:
52,277,50479,2,0,P|26:314|21:360,1,80.7999983972168,2|8,0:0|0:3,0:0:0:0:
88,194,50804,2,0,L|7:203,1,80.7999983972168,10|0,0:0|0:0,0:0:0:0:
25,39,51128,6,0,B|55:7|55:7|44:133,1,161.599996794434,4|10,1:0|0:0,0:0:0:0:
7,202,51615,1,0,0:0:0:0:
125,115,51777,1,10,0:3:0:0:
125,115,51939,2,0,L|44:124,1,80.7999983972168,10|10,0:3|0:0,0:0:0:0:
214,181,52263,6,0,B|222:142|212:97,1,80.7999983972168,2|8,0:0|0:3,0:0:0:0:
291,0,52588,2,0,B|283:39|293:84,1,80.7999983972168,10|8,0:3|0:0,0:0:0:0:
206,173,52912,6,0,B|214:134|204:89,1,80.7999983972168,2|8,0:0|0:3,0:0:0:0:
299,8,53237,2,0,B|291:47|301:92,1,80.7999983972168,10|8,0:3|0:0,0:0:0:0:
512,141,53561,6,0,B|448:140|448:140|418:158|418:158|338:156,1,161.599996794434,6|2,1:0|1:0,0:0:0:0:
481,222,54047,2,0,B|490:262|490:262|485:302,1,80.7999983972168,10|0,0:0|0:0,0:0:0:0:
323,281,54371,1,0,1:0:0:0:
405,267,54533,1,0,1:0:0:0:
376,345,54696,1,8,0:0:0:0:
163,295,54858,6,0,B|203:277|203:277|311:279,1,146.399993968506,4|0,1:0|0:0,0:0:0:0:
323,281,55182,1,0,1:0:0:0:
86,269,55344,1,4,1:0:0:0:
86,269,56479,6,0,P|91:309|91:331,1,57.60000140625,2|2,0:0|0:0,0:0:0:0:
169,186,56804,2,0,P|159:234|159:256,1,57.60000140625,0|2,0:0|0:0,0:0:0:0:
54,108,57128,2,0,P|69:160|69:182,1,57.60000140625,0|2,0:0|0:0,0:0:0:0:
138,46,57452,6,0,B|244:13|213:105|322:63,1,184.000003509522,4|0,1:0|1:0,0:0:0:0:
390,29,57939,1,8,0:0:0:0:
390,29,58263,5,0,1:0:0:0:
381,117,58425,1,8,0:3:0:0:
311,66,58587,1,8,0:0:0:0:
469,80,58750,6,0,B|477:157|477:157|466:193|466:193|473:261,1,184.000003509522,6|0,1:0|1:0,0:0:0:0:
508,353,59236,2,0,P|458:333|413:342,1,92.0000017547608,8|0,0:0|0:0,0:0:0:0:
255,379,59561,2,0,L|364:383,1,92.0000017547608,0|8,1:0|0:3,0:0:0:0:
339,212,59885,1,10,0:0:0:0:
344,297,60047,1,2,0:0:0:0:
267,259,60209,5,0,1:0:0:0:
473,261,60371,1,8,0:3:0:0:
473,261,60533,1,10,0:0:0:0:
267,259,60858,5,2,1:0:0:0:
339,212,61020,1,10,0:3:0:0:
344,297,61182,1,8,0:0:0:0:
189,227,61344,6,0,P|257:175|347:227,1,184.000003509522,6|0,1:0|1:0,0:0:0:0:
197,309,61831,2,0,L|102:307,1,92.0000017547608,8|0,0:0|0:0,0:0:0:0:
36,356,62155,2,0,P|88:337|106:286,1,92.0000017547608,0|8,1:0|0:3,0:0:0:0:
29,199,62479,1,10,0:0:0:0:
32,278,62642,1,2,1:0:0:0:
141,146,62804,6,0,B|166:110|166:110|4:118,1,184.000003509522,4|10,1:0|0:0,0:0:0:0:
241,143,63290,2,0,P|249:90|231:54,1,92.0000017547608,2|0,0:0|1:0,0:0:0:0:
51,35,63615,1,2,1:0:0:0:
138,26,63777,2,0,L|46:30,1,92.0000017547608,10|2,0:0|0:0,0:0:0:0:
233,56,64101,6,0,B|334:33|334:82|420:55,1,184.000003509522,4|8,1:0|0:0,0:0:0:0:
496,17,64588,1,0,0:0:0:0:
496,17,64750,2,0,L|489:122,1,92.0000017547608,0|0,1:0|1:0,0:0:0:0:
406,236,65074,1,10,0:0:0:0:
413,148,65236,1,2,0:0:0:0:
475,289,65398,6,0,P|429:322|326:269,1,184.000003509522,4|10,1:0|0:0,0:0:0:0:
328,179,65885,1,2,0:0:0:0:
199,229,66047,2,0,L|246:225,1,46.0000008773804,8|8,0:0|0:0,0:0:0:0:
269,344,66209,1,2,1:3:0:0:
246,342,66290,1,0,1:3:0:0:
223,341,66371,1,10,0:0:0:0:
200,339,66452,1,8,0:3:0:0:
177,338,66533,6,0,L|68:333,1,92.0000017547608,2|0,0:0|0:0,0:0:0:0:
78,153,66858,2,0,B|89:199|89:199|84:245,1,92.0000017547608,2|8,0:0|0:0,0:0:0:0:
2,206,67182,1,10,0:3:0:0:
32,74,67344,5,2,1:0:0:0:
61,64,67425,1,0,1:1:0:0:
91,63,67506,1,10,0:0:0:0:
120,74,67587,1,8,0:0:0:0:
148,86,67668,1,10,0:3:0:0:
178,86,67749,1,0,0:0:0:0:
208,78,67831,6,0,B|292:84|292:84|322:74|322:74|406:79|406:79,1,195.199991958008,6|6,1:0|1:0,0:0:0:0:
401,78,68642,1,10,0:0:0:0:
375,0,68804,1,10,0:0:0:0:
375,0,69290,6,0,B|470:-17|504:65|489:118|443:149|443:149|463:177|463:177|412:214|429:322|523:318,1,455.999987823487,6|0,1:0|3:0,0:0:0:0:
512,238,70425,1,4,3:0:0:0:
397,353,70588,6,0,B|354:369|354:369|269:351|269:351|226:364|226:364|262:345|266:313,1,240.800003674316,4|0,1:0|0:0,0:0:0:0:
250,221,71236,6,0,P|208:184|200:292,1,226.800005537109,4|0,1:0|0:0,0:0:0:0:
258,213,71885,6,0,L|255:151,2,58.6666684570313,4|8|0,1:0|0:0|1:0,0:0:0:0:
336,127,72209,2,0,L|339:69,2,58.6666684570313,8|0|8,0:0|1:0|0:0,0:0:0:0:
250,221,72533,2,0,L|247:159,2,58.6666684570313,0|0|0,1:0|1:0|1:0,0:0:0:0:
344,119,72858,2,0,L|346:60,2,58.6666684570313,8|0|10,0:0|0:0|0:0,0:0:0:0:
263,82,73182,6,0,B|179:57|212:142|22:159|47:51|114:-17|151:39|146:58,1,268.80000328125,4|2,1:0|1:0,0:0:0:0:
29,153,73831,6,0,B|2:163|-12:186|-12:186|10:3,1,225.599996557617,8|2,0:0|1:0,0:0:0:0:
163,193,74479,6,0,P|186:243|63:212,1,273.599996660156,4|2,1:0|1:0,0:0:0:0:
155,185,75128,6,0,L|237:181,1,80,8|8,0:0|0:0,0:0:0:0:
314,226,75452,2,0,L|396:222,1,80,2|2,1:0|0:0,0:0:0:0:
449,305,75777,6,0,B|468:354|445:396|361:393|336:317|403:205,1,264.000008056641,4|2,1:0|1:0,0:0:0:0:
512,105,76425,6,0,B|530:77|520:40|520:40|432:13|433:69|338:35|338:35,1,249.599998476563,8|10,0:0|0:0,0:0:0:0:
230,100,77074,5,0,1:0:0:0:
230,100,77236,2,0,P|315:115|334:25,1,185.600005664063,10|2,0:0|1:0,0:0:0:0:
144,44,77723,6,0,B|140:116|140:116|147:144|147:144|141:222,2,179.2000021875,10|0|6,0:0|1:0|1:0,0:0:0:0:
152,36,78696,6,0,L|147:128,1,83.9999974365235,0|0,1:0|1:0,0:0:0:0:
66,166,79020,2,0,L|61:258,1,83.9999974365235,0|0,1:0|1:0,0:0:0:0:
218,275,79344,2,0,L|213:367,1,83.9999974365235,0|0,1:0|1:0,0:0:0:0:
141,221,79669,5,8,1:3:0:0:
298,321,79831,1,8,1:3:0:0:
135,310,79993,5,8,1:3:0:0:
302,223,80155,1,10,1:3:0:0:
215,364,80317,5,10,1:3:0:0:
133,213,80479,1,8,1:3:0:0:
306,329,80642,1,10,1:3:0:0:
223,173,80804,6,0,B|261:142|261:142|412:141,1,167.999994873047,6|0,1:3|1:0,0:0:0:0:
472,141,81290,1,8,0:0:0:0:
383,274,81452,1,0,1:0:0:0:
300,142,81615,5,8,0:0:0:0:
309,101,81696,1,8,0:0:0:0:
338,71,81777,1,8,0:0:0:0:
378,60,81858,1,8,0:0:0:0:
418,70,81939,1,8,0:0:0:0:
383,290,82101,5,6,1:0:0:0:
256,192,82182,12,0,87615,0:0:0:0:
