osu file format v14

[General]
AudioFilename: audio.mp3
AudioLeadIn: 0
PreviewTime: 67750
Countdown: 0
SampleSet: Soft
StackLeniency: 0.3
Mode: 0
LetterboxInBreaks: 0
WidescreenStoryboard: 0

[Editor]
Bookmarks: -300,1087,6636,12185,17734,20501,25834,31167,36500,41834,47167,52500,57834,63167,68500,73834,79167,84500,89834
DistanceSpacing: 0.5
BeatDivisor: 8
GridSize: 4
TimelineZoom: 1.8

[Metadata]
Title:Uso - 'Hagane no Renkinjutsushi FULLMETAL ALCHEMIST' ED Ver.-
TitleUnicode:嘘 -「鋼の錬金術師 FULLMETAL ALCHEMIST」 ED Ver.-
Artist:SID
ArtistUnicode:シド
Creator:Pata-Mon
Version:Kencho's Yakusoku
Source:鋼の錬金術師 FULLMETAL ALCHEMIST
Tags:Kencho Anime ED ending tv size
BeatmapID:1367804
BeatmapSetID:641285

[Difficulty]
HPDrainRate:5.3
CircleSize:4.1
OverallDifficulty:8.3
ApproachRate:9.1
SliderMultiplier:1.6
SliderTickRate:1

[Events]
//Background and Video events
0,0,"BG.jpg",0,0
Video,-1190,"video.flv"
//Break Periods
//Storyboard Layer 0 (Background)
//Storyboard Layer 1 (Fail)
//Storyboard Layer 2 (Pass)
//Storyboard Layer 3 (Foreground)
//Storyboard Sound Samples

[TimingPoints]
-300,346.820809248555,4,2,2,40,1,0
393,-166.666666666667,4,2,2,40,0,0
12185,-125,4,2,2,45,0,0
17734,-166.666666666667,4,2,2,40,0,0
20162,-100,4,2,2,45,0,0
20335,333.333333333333,4,2,2,45,1,0
20501,333.333333333333,4,2,2,60,1,0
25750,-100,4,2,2,60,0,0
25834,-100,4,2,2,50,0,0
32334,-100,4,2,2,20,0,0
32500,-100,4,2,2,50,0,0
46500,-100,4,2,2,60,0,0
47167,-100,4,2,2,50,0,0
62500,-100,4,2,2,60,0,0
63167,-125,4,2,2,50,0,0
67167,-83.3333333333333,4,2,2,60,0,0
68167,-71.4285714285714,4,2,2,40,0,0
68334,-71.4285714285714,4,2,2,60,0,0
68500,-83.3333333333333,4,2,2,70,0,1
78667,-83.3333333333333,4,2,2,50,0,1
78750,-83.3333333333333,4,2,2,40,0,1
78834,-83.3333333333333,4,2,2,70,0,1
78917,-83.3333333333333,4,2,2,40,0,1
79000,-83.3333333333333,4,2,2,50,0,1
79084,-83.3333333333333,4,2,2,60,0,0
79167,-83.3333333333333,4,2,2,70,0,1
85834,-83.3333333333333,4,2,2,70,0,1
88334,-83.3333333333333,4,2,2,70,0,0

[Colours]
Combo1 : 95,95,207
Combo2 : 223,207,31
Combo3 : 95,207,207
Combo4 : 207,31,31

[HitObjects]
256,264,393,6,0,L|256:168,1,95.9999970703126,0|0,0:0|0:0,0:0:0:0:
256,168,1087,6,0,P|209:161|164:176,1,95.9999970703126,0|2,0:0|0:3,0:0:0:0:
102,228,1607,1,0,3:0:0:0:
102,228,1780,2,0,P|109:181|94:136,1,95.9999970703126,2|0,0:3|0:0,0:0:0:0:
11,72,2301,6,0,L|15:120,1,47.9999985351563,0|0,3:0|0:0,0:0:0:0:
94,136,2647,2,0,L|86:40,1,95.9999970703126,0|0,3:0|3:0,0:0:0:0:
55,205,3168,2,0,P|102:215|145:197,1,95.9999970703126,2|0,0:3|0:0,0:0:0:0:
212,153,3688,1,0,3:0:0:0:
212,153,3861,6,0,L|220:249,1,95.9999970703126,0|2,0:0|0:3,0:0:0:0:
270,312,4382,1,0,3:0:0:0:
270,312,4555,2,0,B|302:320|302:320|365:314,1,95.9999970703126,2|0,0:3|0:0,0:0:0:0:
381,235,5075,6,0,L|333:239,1,47.9999985351563,0|0,3:0|0:0,0:0:0:0:
270,312,5422,1,0,3:0:0:0:
190,222,5595,1,2,0:3:0:0:
190,222,5769,2,0,L|182:318,1,95.9999970703126,0|0,3:0|0:0,0:0:0:0:
103,227,6289,2,0,L|99:179,1,47.9999985351563,0|0,0:0|3:0,0:0:0:0:
138,116,6636,6,0,P|96:134|48:124,1,95.9999970703126,0|2,0:0|0:3,0:0:0:0:
87,55,7156,1,0,3:0:0:0:
87,55,7330,2,0,L|83:7,1,47.9999985351563,2|0,0:3|3:0,0:0:0:0:
138,116,7676,2,0,L|134:164,1,47.9999985351563,0|0,0:0|3:0,0:0:0:0:
166,42,8023,6,0,P|209:24|256:35,1,95.9999970703126,0|2,0:0|0:3,0:0:0:0:
319,84,8543,1,0,3:0:0:0:
319,84,8717,2,0,L|315:132,1,47.9999985351563,2|0,0:3|3:0,0:0:0:0:
221,151,9064,2,0,L|217:103,1,47.9999985351563,0|0,0:0|3:0,0:0:0:0:
357,200,9410,6,0,L|309:204,1,47.9999985351563,0|0,0:0|3:0,0:0:0:0:
173,155,9757,2,0,L|221:151,1,47.9999985351563,2|0,0:3|3:0,0:0:0:0:
351,272,10104,2,0,L|303:276,1,47.9999985351563,2|0,0:3|3:0,0:0:0:0:
167,227,10451,2,0,L|215:223,1,47.9999985351563,0|0,0:0|3:0,0:0:0:0:
345,344,10798,6,0,L|249:352,1,95.9999970703126,0|2,0:0|0:3,0:0:0:0:
169,357,11318,1,0,3:0:0:0:
169,357,11491,2,0,L|165:309,1,47.9999985351563,2|0,0:3|3:0,0:0:0:0:
82,245,11838,2,0,L|86:293,1,47.9999985351563,0|0,0:0|3:0,0:0:0:0:
157,213,12185,6,0,L|146:85,1,128,2|2,3:0|0:3,0:0:0:0:
139,6,12705,1,0,3:0:0:0:
87,66,12879,2,0,P|115:83|147:85,1,64,2|0,0:3|3:0,0:0:0:0:
212,40,13226,1,0,0:0:0:0:
285,74,13399,6,0,L|348:68,1,64,0|2,3:0|3:0,0:0:0:0:
412,19,13746,2,0,P|382:73|391:135,1,128,0|0,3:0|3:0,0:0:0:0:
451,190,14266,2,0,L|323:179,1,128,2|0,0:3|0:0,0:0:0:0:
244,172,14786,1,0,3:0:0:0:
219,248,14960,6,0,P|251:252|282:242,1,64,2|0,3:0|3:0,0:0:0:0:
190,112,15306,2,0,P|170:137|163:169,1,64,2|0,0:3|3:0,0:0:0:0:
322,155,15653,2,0,P|309:125|285:103,1,64,2|0,0:3|3:0,0:0:0:0:
244,172,16000,1,0,0:0:0:0:
359,226,16173,6,0,L|422:220,1,64,0|2,3:0|3:0,0:0:0:0:
322,155,16520,1,0,3:0:0:0:
281,242,16694,1,2,0:3:0:0:
281,242,16867,2,0,B|275:285|275:285|287:326|287:326|281:367,1,128,0|0,3:0|3:0,0:0:0:0:
145,338,17387,2,0,L|208:332,1,64,0|0,0:0|3:0,0:0:0:0:
353,277,17734,6,0,B|365:320|365:320|357:374,1,96,2|2,3:0|0:3,0:0:0:0:
281,242,18254,1,0,3:0:0:0:
281,242,18428,2,0,B|269:199|269:199|277:145,1,96,2|0,0:3|0:0,0:0:0:0:
328,87,18948,1,0,3:0:0:0:
328,87,19121,6,0,P|344:103|354:127,1,47.9999985351563,2|0,3:0|3:0,0:0:0:0:
249,72,19468,2,0,L|245:24,1,47.9999985351563,2|0,0:3|3:0,0:0:0:0:
276,148,19815,2,0,L|272:196,1,47.9999985351563,2|0,0:3|3:0,0:0:0:0:
206,266,20162,5,0,0:0:0:0:
365,218,20335,1,2,3:0:0:0:
365,218,20501,6,0,L|372:139,1,80,6|0,3:2|0:0,0:0:0:0:
381,42,20834,1,8,0:0:0:0:
294,82,21001,2,0,P|255:88|218:76,1,80,2|2,3:2|0:0,0:0:0:0:
126,44,21334,2,0,L|133:123,1,80,8|0,0:0|0:0,0:0:0:0:
201,251,21667,6,0,L|208:172,1,80,2|0,3:2|0:0,0:0:0:0:
119,283,22001,1,2,3:2:0:0:
283,219,22167,1,8,0:0:0:0:
133,124,22334,1,2,3:2:0:0:
131,148,22417,1,8,0:0:0:0:
129,172,22500,1,2,0:0:0:0:
217,75,22667,1,8,3:2:0:0:
60,60,22834,1,0,0:0:0:0:
43,242,23000,1,2,3:2:0:0:
41,266,23084,1,0,0:0:0:0:
39,290,23167,6,0,L|118:283,1,80,2|0,3:2|0:0,0:0:0:0:
235,253,23500,1,8,0:0:0:0:
133,124,23667,2,0,P|126:164|126:203,1,80,0|2,3:0|0:0,0:0:0:0:
228,332,24000,2,0,P|235:292|235:253,1,80,8|0,0:0|0:0,0:0:0:0:
39,290,24334,6,0,L|118:283,1,80,2|0,3:2|0:0,0:0:0:0:
242,173,24667,1,2,3:2:0:0:
126,203,24834,1,8,0:0:0:0:
235,253,25000,1,0,3:0:0:0:
133,124,25167,1,8,0:0:0:0:
308,220,25334,1,2,3:2:0:0:
337,217,25417,1,2,0:0:0:0:
367,214,25500,1,2,0:0:0:0:
397,211,25584,1,2,0:0:0:0:
427,208,25667,1,2,0:0:0:0:
228,332,25834,6,0,L|68:346,1,160,6|8,0:0|0:0,0:0:0:0:
102,263,26334,2,0,L|181:256,1,80,0|2,0:0|0:0,0:0:0:0:
69,346,26667,1,8,0:0:0:0:
55,186,26834,2,0,L|48:107,1,80,0|2,0:0|0:0,0:0:0:0:
189,176,27167,6,0,L|182:255,1,80,2|2,1:2|0:0,0:0:0:0:
123,130,27500,1,8,0:0:0:0:
262,142,27667,2,0,L|269:221,1,80,0|2,0:0|0:0,0:0:0:0:
196,96,28000,1,2,0:0:0:0:
339,136,28167,2,0,P|301:148|262:142,1,80,8|0,0:0|0:0,0:0:0:0:
385,60,28500,5,2,0:0:0:0:
371,220,28667,1,0,0:0:0:0:
371,220,28750,1,0,0:0:0:0:
371,220,28834,1,8,0:0:0:0:
339,136,29000,2,0,P|378:130|415:142,1,80,0|2,3:0|0:0,0:0:0:0:
284,206,29334,2,0,P|259:175|251:137,1,80,2|0,3:2|0:0,0:0:0:0:
371,220,29667,6,0,L|364:299,1,80,8|2,3:2|3:2,0:0:0:0:
277,372,30000,1,2,0:0:0:0:
284,292,30167,1,8,0:0:0:0:
427,348,30334,2,0,P|396:373|357:380,1,80,0|2,3:2|0:0,0:0:0:0:
212,326,30667,1,2,0:0:0:0:
332,230,30834,2,0,P|357:261|364:300,1,80,8|0,0:0|0:0,0:0:0:0:
250,219,31167,6,0,L|236:59,1,160,2|8,0:0|0:0,0:0:0:0:
81,151,31667,2,0,P|120:157|157:145,1,80,0|2,3:0|0:0,0:0:0:0:
113,69,32000,1,8,0:0:0:0:
127,229,32167,2,0,L|134:308,1,80,0|4,0:0|0:0,0:0:0:0:
262,348,32500,6,0,P|276:278|206:263,1,160,2|8,1:2|0:0,0:0:0:0:
101,380,33000,2,0,P|140:386|177:374,1,80,0|2,3:0|0:0,0:0:0:0:
287,325,33334,1,2,0:0:0:0:
212,184,33500,2,0,L|205:263,1,80,8|0,0:0|0:0,0:0:0:0:
297,134,33834,5,2,0:0:0:0:
120,149,34000,1,0,0:0:0:0:
120,149,34084,1,0,0:0:0:0:
120,149,34167,2,0,L|127:228,1,80,8|0,0:0|3:0,0:0:0:0:
186,103,34500,1,2,0:0:0:0:
113,69,34667,1,2,3:2:0:0:
120,149,34834,1,0,0:0:0:0:
186,103,35000,1,8,0:0:0:0:
47,115,35167,5,2,3:2:0:0:
193,183,35334,1,2,0:0:0:0:
113,69,35500,1,8,0:0:0:0:
127,229,35667,2,0,L|134:308,1,80,0|2,3:0|0:0,0:0:0:0:
266,217,36000,1,2,0:0:0:0:
193,183,36167,1,8,3:2:0:0:
205,323,36334,1,2,3:2:0:0:
206,333,36417,1,2,3:2:0:0:
207,343,36500,6,0,B|261:348|261:348|308:324|308:324|361:329,1,160,6|8,3:2|0:0,0:0:0:0:
438,335,37000,2,0,P|399:341|362:329,1,80,0|2,0:0|0:0,0:0:0:0:
247,266,37334,1,8,0:0:0:0:
347,169,37500,2,0,L|354:248,1,80,0|2,0:0|0:0,0:0:0:0:
181,220,37834,6,0,L|188:141,1,80,2|2,1:2|0:0,0:0:0:0:
247,266,38167,1,8,0:0:0:0:
108,254,38334,2,0,L|101:175,1,80,0|2,3:0|0:0,0:0:0:0:
174,300,38667,1,2,3:2:0:0:
31,260,38834,2,0,P|69:248|108:254,1,80,8|0,0:0|0:0,0:0:0:0:
205,383,39167,5,2,3:2:0:0:
219,223,39334,1,0,0:0:0:0:
219,223,39417,1,0,0:0:0:0:
219,223,39500,1,8,0:0:0:0:
251,307,39667,2,0,P|212:313|175:301,1,80,0|2,3:0|0:0,0:0:0:0:
187,139,40000,2,0,P|226:133|263:145,1,80,2|0,3:2|0:0,0:0:0:0:
100,213,40334,6,0,L|21:206,1,80,8|2,0:0|3:2,0:0:0:0:
187,139,40667,1,2,0:0:0:0:
174,300,40834,1,8,0:0:0:0:
187,139,41000,2,0,L|194:60,1,80,0|2,3:0|0:0,0:0:0:0:
261,226,41334,1,2,3:2:0:0:
100,213,41500,2,0,L|21:206,1,80,8|0,0:0|0:0,0:0:0:0:
254,306,41834,6,0,P|325:274|336:200,1,160,6|8,3:2|0:0,0:0:0:0:
231,101,42334,1,0,3:0:0:0:
181,219,42500,2,0,P|221:226|260:226,1,80,0|2,0:0|0:0,0:0:0:0:
386,81,42834,2,0,P|346:74|307:74,1,80,8|2,0:0|0:0,0:0:0:0:
336,199,43167,6,0,P|415:207|482:167,1,160,6|8,1:2|0:0,0:0:0:0:
386,81,43667,1,0,3:0:0:0:
336,199,43834,2,0,P|329:239|329:278,1,80,0|2,0:0|0:0,0:0:0:0:
454,249,44167,1,8,0:0:0:0:
386,81,44334,1,0,0:0:0:0:
256,192,44500,6,0,P|296:199|335:199,1,80,6|0,3:2|0:0,0:0:0:0:
222,119,44834,1,8,0:0:0:0:
210,258,45000,2,0,L|203:337,1,80,0|0,3:0|0:0,0:0:0:0:
256,192,45334,1,2,0:0:0:0:
176,185,45500,1,8,3:2:0:0:
210,258,45667,1,0,0:0:0:0:
222,119,45834,5,2,3:2:0:0:
130,251,46000,1,2,0:0:0:0:
287,264,46167,1,8,0:0:0:0:
176,185,46334,1,2,0:0:0:0:
180,189,46417,1,8,0:0:0:0:
184,193,46500,5,8,0:0:0:0:
210,258,46667,1,2,0:0:0:0:
164,324,46834,1,2,0:0:0:0:
84,317,47000,1,2,0:0:0:0:
96,178,47167,5,2,0:0:0:0:
96,178,47334,1,2,0:0:0:0:
256,192,47500,1,8,0:0:0:0:
130,251,47667,1,2,0:0:0:0:
142,112,47834,6,0,L|149:33,1,80,2|2,0:0|3:2,0:0:0:0:
176,185,48167,1,8,0:0:0:0:
96,178,48334,1,2,3:2:0:0:
222,119,48500,6,0,P|261:119|301:126,1,80,2|2,0:0|0:0,0:0:0:0:
176,185,48834,1,8,0:0:0:0:
142,112,49000,1,2,0:0:0:0:
268,53,49167,5,2,0:0:0:0:
130,251,49334,1,2,3:2:0:0:
28,32,49500,1,8,0:0:0:0:
142,112,49667,1,2,0:0:0:0:
16,171,49834,5,2,3:2:0:0:
16,171,50000,1,2,0:0:0:0:
176,185,50167,1,8,0:0:0:0:
62,105,50334,1,2,0:0:0:0:
50,244,50500,6,0,L|43:323,1,80,2|2,0:0|3:2,0:0:0:0:
176,185,50834,1,8,0:0:0:0:
96,178,51000,1,2,3:2:0:0:
210,258,51167,5,2,0:0:0:0:
142,112,51334,1,2,0:0:0:0:
130,251,51500,1,8,0:0:0:0:
222,119,51667,1,2,0:0:0:0:
50,244,51834,5,2,0:0:0:0:
256,192,52000,1,2,0:0:0:0:
108,39,52167,1,8,0:0:0:0:
256,192,52334,6,0,B|310:197|310:197|357:173|357:173|410:178,1,160,6|2,3:2|0:0,0:0:0:0:
389,329,52834,2,0,P|372:292|371:254,1,80,8|0,3:2|0:0,0:0:0:0:
474,123,53167,2,0,P|491:160|492:198,1,80,2|8,3:2|0:0,0:0:0:0:
394,95,53500,1,0,0:0:0:0:
256,192,53667,6,0,B|202:197|202:197|155:173|155:173|102:178,1,160,2|2,3:2|0:0,0:0:0:0:
123,329,54167,2,0,P|140:292|141:254,1,80,8|0,0:0|3:0,0:0:0:0:
38,123,54500,2,0,P|21:160|20:198,1,80,2|8,0:0|3:2,0:0:0:0:
118,95,54834,1,2,0:0:0:0:
256,192,55000,1,0,3:0:0:0:
256,192,55084,1,0,3:0:0:0:
256,192,55167,6,0,L|335:185,1,80,2|0,0:0|3:0,0:0:0:0:
222,265,55500,1,8,3:2:0:0:
210,126,55667,1,0,0:0:0:0:
336,185,55834,1,2,3:2:0:0:
176,199,56000,1,8,3:2:0:0:
290,118,56167,1,0,0:0:0:0:
302,258,56334,6,0,P|271:329|196:342,1,160,2|2,3:2|0:0,0:0:0:0:
256,192,56834,1,8,0:0:0:0:
382,251,57000,2,0,L|375:330,1,80,0|2,3:0|0:0,0:0:0:0:
336,185,57334,1,2,0:0:0:0:
459,243,57500,2,0,P|421:256|382:251,1,80,8|0,3:2|0:0,0:0:0:0:
256,192,57834,6,0,L|270:352,1,160,6|8,0:0|0:0,0:0:0:0:
336,185,58334,1,2,0:0:0:0:
176,199,58500,6,0,L|183:278,1,80,2|2,0:0|3:2,0:0:0:0:
210,126,58834,1,8,0:0:0:0:
130,133,59000,1,2,3:2:0:0:
256,192,59167,6,0,P|295:192|335:185,1,80,2|2,0:0|0:0,0:0:0:0:
210,126,59500,1,8,0:0:0:0:
176,199,59667,1,2,0:0:0:0:
302,258,59834,5,2,0:0:0:0:
164,60,60000,1,2,3:2:0:0:
142,272,60167,1,8,0:0:0:0:
244,53,60334,1,2,3:2:0:0:
336,185,60500,6,0,L|257:192,1,80,2|2,3:2|0:0,0:0:0:0:
176,199,60834,1,8,0:0:0:0:
210,126,61000,1,2,0:0:0:0:
302,258,61167,6,0,L|223:265,1,80,2|2,0:0|3:2,0:0:0:0:
142,272,61500,1,8,0:0:0:0:
176,199,61667,1,2,3:2:0:0:
222,265,61834,5,2,0:0:0:0:
96,206,62000,1,2,0:0:0:0:
256,192,62167,1,8,0:0:0:0:
142,272,62334,1,2,0:0:0:0:
164,60,62500,5,8,0:0:0:0:
188,338,62667,1,2,0:0:0:0:
210,126,62834,1,8,0:0:0:0:
142,272,63000,1,2,0:0:0:0:
290,119,63167,6,0,P|351:104|409:129,1,128,6|0,3:2|0:0,0:0:0:0:
451,197,63667,1,2,0:0:0:0:
451,197,63834,2,0,L|462:69,1,128,8|0,3:2|0:0,0:0:0:0:
344,197,64334,1,0,0:0:0:0:
344,197,64500,6,0,L|350:260,1,64,2|0,3:2|0:0,0:0:0:0:
466,356,64834,2,0,L|460:293,1,64,0|2,0:0|0:0,0:0:0:0:
359,356,65167,1,8,3:2:0:0:
451,197,65500,1,0,0:0:0:0:
217,307,65834,5,0,3:0:0:0:
219,328,66167,1,0,3:0:0:0:
221,349,66500,5,0,3:0:0:0:
223,370,66667,1,0,3:0:0:0:
223,370,67167,5,8,3:2:0:0:
205,171,67334,1,2,0:0:0:0:
141,335,67500,6,0,L|137:288,1,47.9999985351563,8|8,3:2|0:0,0:0:0:0:
123,136,67667,1,2,0:0:0:0:
59,300,67834,5,8,3:2:0:0:
41,101,68000,1,2,0:0:0:0:
243,242,68167,6,0,P|280:203|282:148,1,111.999996582031,0|2,0:0|0:0,0:0:0:0:
269,122,68417,1,0,0:0:0:0:
205,171,68500,6,0,L|396:188,1,191.999994140625,6|8,3:2|3:2,0:0:0:0:
485,152,69000,1,0,0:0:0:0:
407,96,69167,2,0,P|391:140|396:188,1,95.9999970703126,2|2,1:2|3:2,0:0:0:0:
494,56,69500,1,8,1:2:0:0:
329,40,69667,6,0,L|233:31,1,95.9999970703126,2|2,3:2|1:2,0:0:0:0:
396,188,70000,2,0,P|412:144|407:96,1,95.9999970703126,0|8,0:0|1:2,0:0:0:0:
309,228,70334,1,0,0:0:0:0:
485,151,70500,2,0,L|494:55,1,95.9999970703126,2|2,1:2|3:2,0:0:0:0:
405,284,70834,2,0,L|414:380,1,95.9999970703126,8|0,1:2|0:0,0:0:0:0:
269,206,71167,6,0,P|316:198|364:197,1,95.9999970703126,2|2,3:2|0:0,0:0:0:0:
500,275,71500,2,0,P|453:283|405:284,1,95.9999970703126,8|0,1:2|0:0,0:0:0:0:
324,110,71834,1,2,1:2:0:0:
460,206,72000,1,2,3:2:0:0:
309,275,72167,1,8,1:2:0:0:
419,118,72334,6,0,L|474:39,1,95.9999970703126,2|2,3:2|1:2,0:0:0:0:
460,206,72667,1,2,3:2:0:0:
324,110,72834,1,8,1:2:0:0:
460,206,73000,1,2,3:2:0:0:
470,228,73084,1,8,0:0:0:0:
479,250,73167,2,0,P|487:297|488:345,1,95.9999970703126,2|2,1:2|3:2,0:0:0:0:
324,110,73500,2,0,P|316:157|315:205,1,95.9999970703126,8|0,1:2|0:0,0:0:0:0:
409,67,73834,6,0,P|331:15|248:51,1,191.999994140625,6|8,3:2|1:2,0:0:0:0:
237,150,74334,1,0,3:0:0:0:
324,110,74500,1,2,1:2:0:0:
159,94,74667,1,2,0:0:0:0:
228,246,74834,2,0,L|324:237,1,95.9999970703126,8|0,1:2|0:0,0:0:0:0:
150,190,75167,6,0,L|54:199,1,95.9999970703126,2|2,1:2|0:0,0:0:0:0:
219,342,75500,2,0,L|315:333,1,95.9999970703126,8|0,1:2|3:0,0:0:0:0:
237,150,75834,1,2,1:2:0:0:
228,246,76000,1,2,0:0:0:0:
324,110,76167,2,0,P|294:73|249:54,1,95.9999970703126,8|0,1:2|0:0,0:0:0:0:
150,190,76500,5,2,3:2:0:0:
315,206,76667,1,2,0:0:0:0:
219,342,76834,1,8,1:2:0:0:
237,150,77000,1,0,0:0:0:0:
393,262,77167,5,2,1:2:0:0:
228,246,77334,1,2,3:2:0:0:
324,110,77500,1,8,1:2:0:0:
306,302,77667,1,2,3:2:0:0:
59,226,77834,5,2,1:2:0:0:
402,166,78000,1,2,3:2:0:0:
141,286,78167,5,8,1:2:0:0:
324,110,78334,1,2,3:2:0:0:
219,342,78500,5,2,1:2:0:0:
246,55,78667,2,0,L|250:8,1,47.9999985351563,2|8,3:2|0:0,0:0:0:0:
155,127,78834,5,8,1:2:0:0:
151,166,78917,1,8,0:0:0:0:
148,206,79000,1,10,3:2:0:0:
144,246,79084,1,8,0:0:0:0:
141,286,79167,6,0,B|205:274|205:274|264:298|264:298|325:286,1,191.999994140625,6|8,3:2|1:2,0:0:0:0:
415,250,79667,1,0,0:0:0:0:
337,194,79834,2,0,P|321:238|326:286,1,95.9999970703126,2|2,1:2|0:0,0:0:0:0:
424,154,80167,1,8,1:2:0:0:
259,138,80334,6,0,L|163:129,1,95.9999970703126,0|2,3:2|1:2,0:0:0:0:
415,250,80667,2,0,L|511:241,1,95.9999970703126,2|8,3:2|1:2,0:0:0:0:
346,98,81000,1,0,3:0:0:0:
250,234,81167,2,0,P|242:281|241:329,1,95.9999970703126,2|2,1:2|3:2,0:0:0:0:
424,154,81500,2,0,P|432:107|433:59,1,95.9999970703126,8|0,1:2|0:0,0:0:0:0:
163,274,81834,5,6,3:2:0:0:
493,306,82167,1,8,1:2:0:0:
259,138,82500,2,0,L|182:81,1,95.9999970703126,6|2,3:2|0:0,0:0:0:0:
346,98,82834,1,8,0:0:0:0:
250,234,83000,1,2,0:0:0:0:
250,234,83084,1,2,0:0:0:0:
250,234,83167,6,0,L|154:225,1,95.9999970703126,6|0,3:2|3:2,0:0:0:0:
332,185,83500,1,8,3:2:0:0:
211,322,83667,1,2,3:2:0:0:
228,140,83834,1,6,3:2:0:0:
321,297,84000,1,2,3:2:0:0:
154,225,84167,1,12,3:2:0:0:
424,251,84334,1,0,0:0:0:0:
99,323,84500,6,0,P|44:246|65:157,1,191.999994140625,6|8,3:2|1:2,0:0:0:0:
154,225,85000,1,0,0:0:0:0:
99,323,85167,2,0,L|3:332,1,95.9999970703126,2|2,1:2|0:0,0:0:0:0:
227,311,85500,2,0,L|323:302,1,95.9999970703126,8|0,1:2|0:0,0:0:0:0:
312,183,85834,5,2,1:2:0:0:
323,302,86000,1,2,0:0:0:0:
410,114,86167,5,12,0:0:0:0:
214,252,86334,1,2,0:0:0:0:
421,233,86500,5,12,1:2:0:0:
203,133,86667,1,2,0:0:0:0:
432,352,86834,5,12,0:0:0:0:
301,64,87000,1,8,0:0:0:0:
116,321,87167,6,0,P|194:371|286:348,1,191.999994140625,6|8,3:2|1:2,0:0:0:0:
421,233,87667,2,0,P|376:219|328:224,1,95.9999970703126,0|2,3:0|1:2,0:0:0:0:
432,352,88000,5,2,3:2:0:0:
410,114,88167,1,8,1:2:0:0:
214,252,88334,1,0,3:0:0:0:
