osu file format v14

[General]
AudioFilename: audio.mp3
AudioLeadIn: 0
PreviewTime: 67750
Countdown: 0
SampleSet: Soft
StackLeniency: 0.4
Mode: 0
LetterboxInBreaks: 0
WidescreenStoryboard: 0

[Editor]
Bookmarks: 20501,25834,47167,68500,88334
DistanceSpacing: 1.4
BeatDivisor: 2
GridSize: 32
TimelineZoom: 1.3

[Metadata]
Title:Uso - 'Hagane no Renkinjutsushi FULLMETAL ALCHEMIST' ED Ver.-
TitleUnicode:嘘 -「鋼の錬金術師 FULLMETAL ALCHEMIST」 ED Ver.-
Artist:SID
ArtistUnicode:シド
Creator:Pata-Mon
Version:Insane
Source:鋼の錬金術師 FULLMETAL ALCHEMIST
Tags:Kencho Anime ED ending tv size
BeatmapID:1359865
BeatmapSetID:641285

[Difficulty]
HPDrainRate:6
CircleSize:3.8
OverallDifficulty:7
ApproachRate:9
SliderMultiplier:1.6
SliderTickRate:1

[Events]
//Background and Video events
0,0,"BG.jpg",0,0
Video,-1190,"video.flv"
//Break Periods
//Storyboard Layer 0 (Background)
//Storyboard Layer 1 (Fail)
//Storyboard Layer 2 (Pass)
//Storyboard Layer 3 (Foreground)
//Storyboard Sound Samples

[TimingPoints]
-300,346.820809248555,4,2,1,20,1,0
393,-166.666666666667,4,2,1,20,0,0
1087,-166.666666666667,4,2,1,25,0,0
12185,-125,4,2,1,30,0,0
20335,333.333333333333,4,2,1,30,1,0
20501,333.333333333333,4,2,1,50,1,0
46000,-100,4,2,1,30,0,0
46500,-100,4,2,1,50,0,0
46667,-100,4,2,1,30,0,0
47167,-100,4,2,1,50,0,0
47500,-100,4,2,1,30,0,0
48334,-100,4,2,1,50,0,0
49834,-100,4,2,1,30,0,0
51000,-100,4,2,1,50,0,0
54417,-100,4,2,1,30,0,0
54667,-100,4,2,1,50,0,0
58167,-100,4,2,1,30,0,0
59000,-100,4,2,1,50,0,0
60667,-100,4,2,1,30,0,0
61000,-100,4,2,1,50,0,0
61334,-100,4,2,1,30,0,0
61667,-100,4,2,1,50,0,0
62000,-100,4,2,1,30,0,0
62500,-100,4,2,1,50,0,0
62834,-100,4,2,1,30,0,0
63167,-142.857142857143,4,2,1,50,0,0
65917,-142.857142857143,4,2,1,5,0,0
66167,-142.857142857143,4,2,1,50,0,0
66250,-142.857142857143,4,2,1,5,0,0
66500,-142.857142857143,4,2,1,50,0,0
66584,-142.857142857143,4,2,1,5,0,0
66667,-142.857142857143,4,2,1,50,0,0
66750,-142.857142857143,4,2,1,5,0,0
66834,-142.857142857143,4,2,1,50,0,0
67084,-142.857142857143,4,2,1,5,0,0
67167,-100,4,2,1,40,0,0
68417,-100,4,2,1,5,0,0
68500,-83.3333333333333,4,2,1,60,0,1
88334,-100,4,2,1,60,0,0

[Colours]
Combo1 : 95,95,207
Combo2 : 223,207,31
Combo3 : 95,207,207
Combo4 : 207,31,31

[HitObjects]
256,300,393,6,0,L|256:204,1,95.9999970703126,2|2,0:0|0:0,0:0:0:0:
127,87,1087,6,0,L|197:81,1,47.9999985351563,2|0,0:0|0:0,0:0:0:0:
259,101,1434,2,0,L|329:95,1,47.9999985351563,2|0,0:0|0:0,0:0:0:0:
390,62,1780,2,0,P|385:117|391:183,1,95.9999970703126,2|2,0:0|0:0,0:0:0:0:
449,262,2301,6,0,L|452:215,1,47.9999985351563,2|0,0:0|0:0,0:0:0:0:
368,243,2647,2,0,P|326:247|249:243,1,95.9999970703126,2|0,0:0|0:0,0:0:0:0:
154,203,3168,2,0,L|201:196,1,47.9999985351563,2|0,0:0|0:0,0:0:0:0:
144,117,3515,2,0,L|191:110,1,47.9999985351563,2|0,0:0|0:0,0:0:0:0:
58,117,3861,6,0,L|40:161,1,47.9999985351563,2|0,0:0|0:0,0:0:0:0:
101,43,4208,2,0,L|71:5,1,47.9999985351563,2|0,0:0|0:0,0:0:0:0:
144,117,4555,2,0,L|238:103,1,95.9999970703126,2|2,0:0|0:0,0:0:0:0:
346,41,5075,6,0,P|322:39|299:41,1,47.9999985351563,2|0,0:0|0:0,0:0:0:0:
424,80,5422,1,2,0:0:0:0:
388,158,5595,2,0,P|342:166|275:166,1,95.9999970703126,2|0,0:0|0:0,0:0:0:0:
96,90,6289,2,0,L|144:86,1,47.9999985351563,2|0,0:0|0:0,0:0:0:0:
48,161,6636,6,0,L|0:157,2,47.9999985351563,2|0|0,0:0|0:0|0:0,0:0:0:0:
135,168,7156,1,2,0:0:0:0:
96,90,7330,2,0,P|180:94|213:129,1,95.9999970703126,2|2,0:0|0:0,0:0:0:0:
416,90,8023,6,0,P|332:94|299:129,1,95.9999970703126,2|2,0:0|0:0,0:0:0:0:
256,288,8717,2,0,L|256:192,1,95.9999970703126,2|2,0:0|0:0,0:0:0:0:
385,75,9410,6,0,L|315:69,1,47.9999985351563,2|0,0:0|0:0,0:0:0:0:
253,89,9757,2,0,L|183:83,1,47.9999985351563,2|0,0:0|0:0,0:0:0:0:
122,50,10104,2,0,P|127:105|121:171,1,95.9999970703126,2|2,0:0|0:0,0:0:0:0:
256,302,10798,6,0,P|251:247|257:181,1,95.9999970703126,2|0,0:0|0:0,0:0:0:0:
376,72,11491,2,0,L|455:67,1,47.9999985351563,2|0,0:0|0:0,0:0:0:0:
309,127,11838,2,0,L|230:122,1,47.9999985351563,2|0,0:0|0:0,0:0:0:0:
397,165,12185,6,0,P|406:223|402:349,1,128,2|0,0:0|0:0,0:0:0:0:
379,384,12705,1,2,0:0:0:0:
296,337,12879,2,0,P|268:334|194:348,1,64,2|0,0:0|0:0,0:0:0:0:
148,384,13226,1,2,0:0:0:0:
1,337,13399,6,0,P|29:334|103:348,1,64,2|0,0:0|0:0,0:0:0:0:
148,288,13746,2,0,L|148:224,1,64,2|0,0:0|0:0,0:0:0:0:
148,127,14093,1,2,0:0:0:0:
231,174,14266,2,0,P|259:177|333:163,1,64,2|0,0:0|0:0,0:0:0:0:
148,127,14613,2,0,P|120:124|46:138,1,64,2|0,0:0|0:0,0:0:0:0:
199,262,14960,6,0,P|262:268|326:262,1,128,2|2,0:0|0:0,0:0:0:0:
383,35,15653,2,0,P|380:78|384:122,1,64,2|0,0:0|0:0,0:0:0:0:
395,194,16000,1,2,0:0:0:0:
407,353,16173,6,0,P|409:309|406:266,1,64,2|0,0:0|0:0,0:0:0:0:
395,194,16520,1,2,0:0:0:0:
303,224,16694,2,0,P|236:231|175:224,1,128,2|0,0:0|0:0,0:0:0:0:
9,128,17387,2,0,P|5:164|6:210,1,64,2|0,0:0|0:0,0:0:0:0:
84,69,17734,6,0,P|80:33|81:-13,2,64,2|0|0,0:0|0:0|0:0,0:0:0:0:
98,164,18254,1,2,0:0:0:0:
179,60,18428,2,0,P|246:53|307:60,1,128,2|0,0:0|0:0,0:0:0:0:
398,85,18948,1,2,0:0:0:0:
288,154,19121,6,0,P|281:221|288:282,1,128,2|2,0:0|0:0,0:0:0:0:
480,281,19815,2,0,P|487:214|480:153,1,128,2|2,0:0|0:0,0:0:0:0:
382,75,20335,1,2,0:0:0:0:
368,67,20418,1,2,0:0:0:0:
354,59,20501,6,0,L|171:68,1,160,6|8,0:0|0:0,0:0:0:0:
109,152,21001,2,0,L|17:147,1,80,2|0,0:0|0:0,0:0:0:0:
194,67,21334,1,8,0:0:0:0:
225,183,21501,1,2,0:0:0:0:
34,59,21667,6,0,L|217:68,1,160,2|0,0:0|0:0,0:0:0:0:
310,98,22167,1,8,0:0:0:0:
225,183,22334,2,0,P|216:220|219:300,1,80,2|0,0:0|0:0,0:0:0:0:
426,129,22667,1,8,0:0:0:0:
310,98,22834,1,2,0:0:0:0:
341,214,23000,1,2,0:0:0:0:
354,224,23084,1,2,0:0:0:0:
367,234,23167,6,0,P|351:346|261:394,1,160,2|8,0:0|0:0,0:0:0:0:
175,271,23667,2,0,L|255:275,1,80,2|0,0:0|0:0,0:0:0:0:
68,325,24000,1,8,0:0:0:0:
142,155,24167,2,0,L|222:159,1,80,2|0,0:0|0:0,0:0:0:0:
419,186,24500,6,0,L|339:190,1,80,2|0,0:0|0:0,0:0:0:0:
474,11,24834,2,0,P|486:54|487:130,1,80,8|0,0:0|0:0,0:0:0:0:
419,186,25167,1,8,0:0:0:0:
404,214,25250,1,8,0:0:0:0:
399,246,25334,1,8,0:0:0:0:
404,278,25417,1,8,0:0:0:0:
419,306,25500,2,0,L|459:308,1,40,8|0,0:0|0:0,0:0:0:0:
315,246,25667,2,0,L|275:248,1,40,8|0,0:0|0:0,0:0:0:0:
419,186,25834,6,0,P|417:116|390:5,1,160,6|8,0:0|0:0,0:0:0:0:
237,127,26334,2,0,L|317:123,1,80,2|0,0:0|0:0,0:0:0:0:
510,107,26667,1,8,0:0:0:0:
419,186,26834,2,0,P|415:234|422:287,1,80,2|0,0:0|0:0,0:0:0:0:
317,123,27167,6,0,L|237:127,1,80,2|0,0:0|0:0,0:0:0:0:
44,143,27500,1,8,0:0:0:0:
146,206,27667,2,0,P|156:248|151:334,1,80,2|0,0:0|0:0,0:0:0:0:
44,143,28000,1,2,0:0:0:0:
237,127,28167,2,0,P|259:156|285:238,1,80,8|0,0:0|0:0,0:0:0:0:
135,64,28500,6,0,P|172:26|268:11,1,80,2|0,0:0|0:0,0:0:0:0:
383,83,28834,1,8,0:0:0:0:
237,127,29000,2,0,P|227:178|234:254,1,80,2|0,0:0|0:0,0:0:0:0:
374,265,29334,2,0,P|384:214|377:138,1,80
268,320,29667,1,8,0:0:0:0:
428,372,29834,6,0,P|467:382|507:384,1,80,2|0,0:0|0:0,0:0:0:0:
374,265,30167,1,8,0:0:0:0:
268,320,30334,2,0,P|228:317|189:307,1,80,2|0,0:0|0:0,0:0:0:0:
118,209,30667,1,2,0:0:0:0:
244,69,30834,2,0,P|237:108|219:144,1,80,8|0,0:0|0:0,0:0:0:0:
139,367,31167,6,0,P|123:294|118:209,1,160,6|8,0:0|0:0,0:0:0:0:
120,89,31667,1,2,0:0:0:0:
16,149,31834,1,2,0:0:0:0:
224,149,32000,1,8,0:0:0:0:
120,10,32167,2,0,P|116:52|129:118,1,80,2|0,0:0|0:0,0:0:0:0:
224,228,32500,6,0,P|228:186|215:120,1,80,2|0,0:0|0:0,0:0:0:0:
119,286,32834,1,8,0:0:0:0:
302,318,33000,2,0,P|342:319|415:308,1,80,2|0,0:0|0:0,0:0:0:0:
498,282,33334,1,2,0:0:0:0:
413,119,33500,2,0,P|407:158|413:198,1,80,8|0,0:0|0:0,0:0:0:0:
292,169,33834,6,0,L|169:172,1,80,2|0,0:0|0:0,0:0:0:0:
27,232,34167,2,0,L|150:229,1,80,8|0,0:0|0:0,0:0:0:0:
168,59,34500,1,2,0:0:0:0:
93,153,34667,2,0,P|94:193|107:230,1,80,2|0,0:0|0:0,0:0:0:0:
168,59,35000,1,8,0:0:0:0:
287,77,35167,6,0,P|330:146|325:212,1,80,2|0,0:0|0:0,0:0:0:0:
168,59,35500,1,8,0:0:0:0:
329,143,35667,2,0,P|314:235|281:269,1,80,2|0,0:0|0:0,0:0:0:0:
224,291,36000,1,2,0:0:0:0:
427,277,36167,1,8,0:0:0:0:
212,171,36334,1,10,0:0:0:0:
182,160,36417,1,10,0:0:0:0:
152,149,36500,6,0,P|77:164|-2:228,1,160,6|8,0:0|0:0,0:0:0:0:
265,186,37000,2,0,L|254:79,1,80,2|0,0:0|0:0,0:0:0:0:
175,265,37334,1,8,0:0:0:0:
344,276,37500,2,0,P|386:274|423:264,1,80,2|0,0:0|0:0,0:0:0:0:
175,265,37834,6,0,L|186:372,1,80,2|0,0:0|0:0,0:0:0:0:
265,186,38167,1,8,0:0:0:0:
96,175,38334,2,0,P|54:177|17:187,1,80,2|0,0:0|0:0,0:0:0:0:
175,265,38667,1,2,0:0:0:0:
186,96,38834,2,0,P|125:59|51:64,1,80,8|0,0:0|0:0,0:0:0:0:
265,186,39167,6,0,P|303:176|343:179,1,80,2|0,0:0|0:0,0:0:0:0:
492,320,39500,1,8,0:0:0:0:
461,204,39667,2,0,P|464:160|479:83,1,80,2|0,0:0|0:0,0:0:0:0:
492,320,40000,2,0,P|417:315|368:279,1,80,2|0,0:0|0:0,0:0:0:0:
343,179,40334,1,8,0:0:0:0:
478,45,40500,6,0,P|475:89|460:166,1,80,2|0,0:0|0:0,0:0:0:0:
294,288,40834,1,8,0:0:0:0:
343,179,41000,2,0,P|407:249|413:299,1,80,2|0,0:0|0:0,0:0:0:0:
294,288,41334,1,2,0:0:0:0:
231,136,41500,2,0,P|234:92|249:15,1,80,8|0,0:0|0:0,0:0:0:0:
294,288,41834,6,0,P|210:273|71:301,1,160,6|8,0:0|0:0,0:0:0:0:
19,306,42334,1,2,0:0:0:0:
124,159,42500,2,0,P|122:126|118:79,1,80,2|0,0:0|0:0,0:0:0:0:
13,226,42834,2,0,P|14:258|18:305,1,80,8|0,0:0|0:0,0:0:0:0:
203,164,43167,6,0,P|161:159|70:166,1,80,6|0,0:0|0:0,0:0:0:0:
317,202,43500,2,0,P|342:168|381:85,1,80,8|0,0:0|0:0,0:0:0:0:
227,282,43834,2,0,P|244:321|296:396,1,80,2|0,0:0|0:0,0:0:0:0:
203,164,44167,1,8,0:0:0:0:
113,244,44334,1,2,0:0:0:0:
317,202,44500,6,0,P|356:202|396:207,1,80,6|0,0:0|0:0,0:0:0:0:
227,282,44834,1,8,0:0:0:0:
227,122,45000,2,0,P|188:122|148:127,1,80,2|0,0:0|0:0,0:0:0:0:
317,202,45334,1,8,0:0:0:0:
317,42,45500,2,0,P|356:42|396:47,1,80,2|0,0:0|0:0,0:0:0:0:
227,122,45834,5,10,0:0:0:0:
203,5,46000,1,8,0:0:0:0:
341,159,46167,1,8,0:0:0:0:
137,202,46334,1,8,0:0:0:0:
111,184,46417,1,8,0:0:0:0:
85,166,46500,1,8,0:0:0:0:
227,122,46667,1,8,0:0:0:0:
59,148,46834,1,8,0:0:0:0:
166,281,47000,1,8,0:0:0:0:
227,122,47167,6,0,P|219:70|204:18,1,80,6|0,0:0|0:0,0:0:0:0:
176,193,47500,1,10,0:0:0:0:
172,197,47667,1,8,0:0:0:0:
264,202,47834,1,10,0:0:0:0:
260,206,48000,1,8,0:0:0:0:
352,211,48167,1,10,0:0:0:0:
315,131,48334,6,0,P|237:119|187:160,1,80,10|0,0:0|0:0,0:0:0:0:
224,281,48667,2,0,P|277:289|301:282,1,80,10|0,0:0|0:0,0:0:0:0:
352,211,49000,1,10,0:0:0:0:
264,202,49167,1,2,0:0:0:0:
389,291,49334,1,8,0:0:0:0:
264,202,49500,1,8,0:0:0:0:
389,291,49667,1,8,0:0:0:0:
352,211,49834,5,10,0:0:0:0:
356,207,50000,1,8,0:0:0:0:
264,202,50167,1,10,0:0:0:0:
268,198,50334,1,8,0:0:0:0:
176,193,50500,1,10,0:0:0:0:
180,189,50667,1,8,0:0:0:0:
88,184,50834,1,10,0:0:0:0:
51,104,51000,6,0,P|92:38|162:28,1,80,10|0,0:0|0:0,0:0:0:0:
88,184,51334,2,0,P|47:250|-23:260,1,80,10|0,0:0|0:0,0:0:0:0:
0,175,51667,1,10,0:0:0:0:
139,113,51834,2,0,L|218:106,1,80,10|0,0:0|0:0,0:0:0:0:
422,173,52167,1,8,0:0:0:0:
330,43,52334,6,0,P|320:117|331:259,1,160,6|0,0:0|1:0,0:0:0:0:
500,188,52834,2,0,P|462:176|423:173,1,80,2|0,0:0|0:0,0:0:0:0:
345,335,53167,2,0,P|374:308|396:275,1,80,2|8,0:0|0:0,0:0:0:0:
422,173,53500,1,2,0:0:0:0:
253,205,53667,6,0,P|243:279|254:421,1,160,2|0,0:0|0:0,0:0:0:0:
356,248,54167,2,0,L|354:168,1,80,8|0,0:0|0:0,0:0:0:0:
345,155,54417,1,2,0:0:0:0:
336,142,54500,1,2,0:0:0:0:
149,205,54667,1,8,0:0:0:0:
253,205,54834,1,2,0:0:0:0:
66,142,55000,1,2,0:0:0:0:
57,155,55084,1,2,0:0:0:0:
48,168,55167,6,0,L|46:248,1,80,2|0,0:0|0:0,0:0:0:0:
253,205,55500,2,0,L|255:125,1,80,8|0,0:0|0:0,0:0:0:0:
149,205,55834,1,2,0:0:0:0:
201,295,56000,1,8,0:0:0:0:
305,295,56167,1,2,0:0:0:0:
149,205,56334,6,0,P|100:320|146:383,1,160,2|0,0:0|0:0,0:0:0:0:
253,205,56834,1,8,0:0:0:0:
201,115,57000,2,0,P|166:108|91:108,1,80,2|0,0:0|0:0,0:0:0:0:
253,205,57334,1,2,0:0:0:0:
253,25,57500,2,0,P|223:17|145:8,1,80,8|0,0:0|0:0,0:0:0:0:
343,154,57834,6,0,P|343:107|350:46,1,80,6|0,0:0|0:0,0:0:0:0:
380,234,58167,1,10,0:0:0:0:
384,238,58334,1,8,0:0:0:0:
292,225,58500,1,10,0:0:0:0:
296,229,58667,1,8,0:0:0:0:
204,216,58834,1,10,0:0:0:0:
241,296,59000,6,0,P|223:331|194:359,1,80,10|0,0:0|0:0,0:0:0:0:
69,270,59334,2,0,P|87:235|116:207,1,80,10|0,0:0|0:0,0:0:0:0:
204,216,59667,1,10,0:0:0:0:
255,145,59834,1,10,0:0:0:0:
116,207,60000,2,0,P|76:204|39:189,1,80,2|0,0:0|0:0,0:0:0:0:
255,145,60334,6,0,P|277:112|308:87,1,80,10|0,0:0|0:0,0:0:0:0:
292,225,60667,1,8,0:0:0:0:
167,136,60834,1,10,0:0:0:0:
241,296,61000,2,0,P|258:332|263:371,1,80,10|0,0:0|0:0,0:0:0:0:
153,287,61334,1,8,0:0:0:0:
292,225,61500,1,10,0:0:0:0:
116,207,61667,6,0,P|76:204|39:189,1,80,10|0,0:0|0:0,0:0:0:0:
167,136,62000,1,10,0:0:0:0:
153,287,62167,1,10,0:0:0:0:
34,174,62334,1,8,0:0:0:0:
29,159,62417,1,8,0:0:0:0:
24,144,62500,1,8,0:0:0:0:
204,216,62667,1,8,0:0:0:0:
51,335,62834,1,8,0:0:0:0:
93,232,63000,1,8,0:0:0:0:
273,304,63167,6,0,P|340:311|420:290,1,111.999996582031,6|0,0:0|0:0,0:0:0:0:
473,271,63667,1,2,0:0:0:0:
440,71,63834,2,0,P|433:138|454:218,1,111.999996582031,6|0,0:0|0:0,0:0:0:0:
473,271,64334,1,2,0:0:0:0:
347,325,64500,6,0,P|313:327|252:313,1,55.9999982910157,2|0,0:0|0:0,0:0:0:0:
291,217,64834,2,0,P|325:215|386:229,1,55.9999982910157,2|0,0:0|0:0,0:0:0:0:
165,271,65167,2,0,P|158:204|179:124,1,111.999996582031,6|0,0:0|0:0,0:0:0:0:
198,71,65667,1,2,0:0:0:0:
347,217,65834,6,0,L|350:256,1,27.9999991455078,2|0,0:0|0:0,0:0:0:0:
165,271,66167,6,0,L|162:310,1,27.9999991455078,2|0,0:0|0:0,0:0:0:0:
278,354,66500,6,0,L|281:393,1,27.9999991455078,2|0,0:0|0:0,0:0:0:0:
267,354,66667,2,0,L|270:393,1,27.9999991455078,2|0,0:0|0:0,0:0:0:0:
256,276,66834,6,0,L|256:192,1,83.9999974365235,2|0,0:0|0:0,0:0:0:0:
256,114,67167,5,10,0:0:0:0:
256,276,67334,1,8,0:0:0:0:
256,102,67500,1,8,0:0:0:0:
256,90,67584,1,8,0:0:0:0:
256,78,67667,1,8,0:0:0:0:
158,248,67834,5,10,0:0:0:0:
354,248,68000,1,8,0:0:0:0:
309,29,68167,2,0,P|237:8|192:44,1,120,2|0,0:0|0:0,0:0:0:0:
256,78,68500,6,0,P|341:77|472:84,1,191.999994140625,6|8,0:0|0:0,0:0:0:0:
512,200,69000,1,2,0:0:0:0:
399,273,69167,2,0,P|351:273|303:271,1,95.9999970703126,2|0,0:0|0:0,0:0:0:0:
149,135,69500,1,8,0:0:0:0:
168,268,69667,6,0,P|166:315|158:363,1,95.9999970703126,2|0,0:0|0:0,0:0:0:0:
44,219,70000,1,2,0:0:0:0:
273,184,70167,2,0,P|281:231|282:279,1,95.9999970703126,8|0,0:0|0:0,0:0:0:0:
149,135,70500,1,2,0:0:0:0:
254,51,70667,1,2,0:0:0:0:
397,233,70834,2,0,P|405:280|406:328,1,95.9999970703126,8|0,0:0|0:0,0:0:0:0:
245,146,71167,6,0,P|253:98|254:50,1,95.9999970703126,2|0,0:0|0:0,0:0:0:0:
178,262,71500,2,0,P|215:292|256:317,1,95.9999970703126,8|0,0:0|0:0,0:0:0:0:
111,146,71834,2,0,P|65:163|23:186,1,95.9999970703126,2|0,0:0|0:0,0:0:0:0:
245,146,72167,1,8,0:0:0:0:
101,51,72334,6,0,P|103:98|111:146,1,95.9999970703126,2|0,0:0|0:0,0:0:0:0:
178,262,72667,1,2,0:0:0:0:
379,146,72834,1,8,0:0:0:0:
245,146,73000,1,8,0:0:0:0:
248,165,73084,1,8,0:0:0:0:
251,184,73167,1,2,0:0:0:0:
349,276,73334,1,2,0:0:0:0:
474,137,73500,2,0,P|426:138|379:146,1,95.9999970703126,8|0,0:0|0:0,0:0:0:0:
200,13,73834,6,0,P|296:15|390:31,1,191.999994140625,6|8,0:0|0:0,0:0:0:0:
474,137,74334,1,2,0:0:0:0:
323,250,74500,2,0,P|328:202|342:156,1,95.9999970703126,2|0,0:0|0:0,0:0:0:0:
494,44,74834,2,0,P|488:91|474:137,1,95.9999970703126,8|0,0:0|0:0,0:0:0:0:
264,44,75167,6,0,P|217:33|169:30,1,95.9999970703126,2|0,0:0|0:0,0:0:0:0:
228,263,75500,2,0,P|276:260|323:250,1,95.9999970703126,8|0,0:0|0:0,0:0:0:0:
145,157,75834,1,2,0:0:0:0:
95,282,76000,1,2,0:0:0:0:
278,138,76167,2,0,P|277:89|264:45,1,95.9999970703126,8|0,0:0|0:0,0:0:0:0:
228,263,76500,5,2,0:0:0:0:
224,267,76667,1,2,0:0:0:0:
361,244,76834,2,0,P|401:238|489:239,1,95.9999970703126,8|0,0:0|0:0,0:0:0:0:
173,356,77167,1,2,0:0:0:0:
169,352,77334,1,2,0:0:0:0:
306,375,77500,2,0,P|346:380|434:380,1,95.9999970703126,8|0,0:0|0:0,0:0:0:0:
118,263,77834,5,2,0:0:0:0:
114,267,78000,1,2,0:0:0:0:
309,157,78167,1,8,0:0:0:0:
244,264,78334,2,0,L|253:317,1,47.9999985351563,8|8,0:0|0:0,0:0:0:0:
340,331,78500,2,0,P|352:285|354:221,1,95.9999970703126,2|0,0:0|0:0,0:0:0:0:
309,157,78750,1,8,0:0:0:0:
302,139,78834,2,0,P|304:91|317:44,1,95.9999970703126,2|0,0:0|0:0,0:0:0:0:
398,1,79084,1,8,0:0:0:0:
417,4,79167,6,0,P|484:48|493:201,1,191.999994140625,6|8,0:0|0:0,0:0:0:0:
430,259,79667,1,2,0:0:0:0:
282,148,79834,2,0,P|329:138|377:135,1,95.9999970703126,2|0,0:0|0:0,0:0:0:0:
169,222,80167,1,8,0:0:0:0:
335,273,80334,6,0,P|382:269|429:259,1,95.9999970703126,2|0,0:0|0:0,0:0:0:0:
512,152,80667,1,2,0:0:0:0:
366,40,80834,2,0,P|367:87|381:149,1,95.9999970703126,8|0,0:0|0:0,0:0:0:0:
430,259,81167,1,2,0:0:0:0:
512,152,81334,1,2,0:0:0:0:
296,243,81500,2,0,P|184:258|140:240,1,95.9999970703126,8|0,0:0|0:0,0:0:0:0:
29,88,81834,6,0,P|124:88|219:102,1,191.999994140625,6|8,0:0|0:0,0:0:0:0:
344,154,82334,1,2,0:0:0:0:
61,213,82500,2,0,P|108:213|156:220,1,95.9999970703126,6|0,0:0|0:0,0:0:0:0:
281,272,82834,1,8,0:0:0:0:
344,154,83000,1,8,0:0:0:0:
362,147,83084,1,8,2:0:0:0:
380,140,83167,5,6,2:0:0:0:
281,272,83334,1,2,0:0:0:0:
219,102,83500,1,8,0:0:0:0:
398,133,83667,1,8,0:0:0:0:
124,148,83834,2,0,P|121:62|163:12,1,95.9999970703126,6|0,0:0|0:0,0:0:0:0:
376,226,84167,2,0,P|379:312|337:362,1,95.9999970703126,12|0,0:0|0:0,0:0:0:0:
219,102,84500,6,0,P|333:95|454:98,1,191.999994140625,6|8,0:0|0:0,0:0:0:0:
506,191,85000,1,2,0:0:0:0:
369,322,85167,2,0,P|370:271|382:194,1,95.9999970703126,2|0,0:0|0:0,0:0:0:0:
512,95,85500,2,0,P|511:146|499:223,1,95.9999970703126,8|0,0:0|0:0,0:0:0:0:
279,132,85834,6,0,P|216:125|133:166,1,95.9999970703126,2|0,0:0|0:0,0:0:0:0:
226,354,86167,2,0,P|230:303|232:230,1,95.9999970703126,12|0,0:0|0:0,0:0:0:0:
60,67,86500,2,0,P|55:117|54:191,1,95.9999970703126,12|0,0:0|0:0,0:0:0:0:
231,258,86834,1,8,0:0:0:0:
184,132,87000,1,2,0:0:0:0:
387,93,87167,6,0,P|364:124|316:154,1,95.9999970703126,6|0,0:0|0:0,0:0:0:0:
95,102,87500,2,0,P|143:110|184:132,1,95.9999970703126,8|0,0:0|0:0,0:0:0:0:
231,258,87834,1,2,0:0:0:0:
269,28,88000,1,10,0:0:0:0:
99,236,88167,1,10,0:0:0:0:
363,280,88334,1,10,0:0:0:0:
