osu file format v14

[General]
AudioFilename: audio.mp3
AudioLeadIn: 0
PreviewTime: 67750
Countdown: 0
SampleSet: Soft
StackLeniency: 0.7
Mode: 0
LetterboxInBreaks: 0
WidescreenStoryboard: 0

[Editor]
Bookmarks: 20501,25834,47167,68500,88334
DistanceSpacing: 1
BeatDivisor: 1
GridSize: 32
TimelineZoom: 1.1

[Metadata]
Title:Uso - 'Hagane no Renkinjutsushi FULLMETAL ALCHEMIST' ED Ver.-
TitleUnicode:嘘 -「鋼の錬金術師 FULLMETAL ALCHEMIST」 ED Ver.-
Artist:SID
ArtistUnicode:シド
Creator:Pata-Mon
Version:Easy
Source:鋼の錬金術師 FULLMETAL ALCHEMIST
Tags:Kencho Anime ED ending tv size
BeatmapID:1360727
BeatmapSetID:641285

[Difficulty]
HPDrainRate:2
CircleSize:2.5
OverallDifficulty:2
ApproachRate:3
SliderMultiplier:0.9
SliderTickRate:1

[Events]
//Background and Video events
0,0,"BG.jpg",0,0
Video,-1190,"video.flv"
//Break Periods
//Storyboard Layer 0 (Background)
//Storyboard Layer 1 (Fail)
//Storyboard Layer 2 (Pass)
//Storyboard Layer 3 (Foreground)
//Storyboard Sound Samples

[TimingPoints]
-300,346.820809248555,4,2,1,20,1,0
1087,-100,4,2,1,25,0,0
12185,-100,4,2,1,30,0,0
20335,333.333333333333,4,2,1,30,1,0
20501,333.333333333333,4,2,1,50,1,0
68500,-100,4,2,1,60,0,1
88334,-100,4,2,1,60,0,0

[Colours]
Combo1 : 95,95,207
Combo2 : 223,207,31
Combo3 : 95,207,207
Combo4 : 207,31,31

[HitObjects]
423,47,393,6,0,L|426:136,1,90,2|2,0:0|0:0,0:0:0:0:
495,195,1087,2,0,L|492:284,1,90,2|2,0:0|0:0,0:0:0:0:
435,354,1780,2,0,P|367:353|301:341,1,135,2|2,0:0|0:0,0:0:0:0:
211,341,2647,2,0,P|144:352|77:353,1,135,2|2,0:0|0:0,0:0:0:0:
19,284,3515,1,2,0:0:0:0:
54,201,3861,6,0,L|50:88,1,90,2|2,0:0|0:0,0:0:0:0:
117,50,4555,2,0,P|185:51|251:63,2,135,2|2|2,0:0|0:0|0:0,0:0:0:0:
88,228,6289,6,0,P|100:271|105:315,1,90,2|2,0:0|0:0,0:0:0:0:
285,315,7330,2,0,P|289:270|302:227,1,90,2|2,0:0|0:0,0:0:0:0:
362,160,8023,2,0,P|358:115|345:72,1,90,2|2,0:0|0:0,0:0:0:0:
259,99,8717,2,0,P|206:104|135:87,1,90,2|2,0:0|0:0,0:0:0:0:
84,72,9410,6,0,P|72:115|67:159,1,90,2|2,0:0|0:0,0:0:0:0:
127,227,10104,2,0,P|139:270|144:314,2,90,2|2|2,0:0|0:0|0:0,0:0:0:0:
86,52,11491,6,0,P|129:64|173:69,1,90,2|2,0:0|0:0,0:0:0:0:
264,69,12185,2,0,P|309:65|352:52,1,90,2|2,0:0|0:0,0:0:0:0:
430,7,12879,2,0,P|476:55|493:119,1,135,2|2,0:0|0:0,0:0:0:0:
493,209,13746,2,0,P|476:273|429:321,1,135,2|2,0:0|0:0,0:0:0:0:
344,351,14613,1,2,0:0:0:0:
259,321,14960,6,0,P|216:309|172:304,1,90,2|2,0:0|0:0,0:0:0:0:
82,321,15653,2,0,P|36:273|19:209,2,135,2|2|2,0:0|0:0|0:0,0:0:0:0:
256,369,17387,5,2,0:0:0:0:
301,291,17734,2,0,P|313:248|318:204,1,90,2|0,0:0|0:0,0:0:0:0:
318,112,18428,2,0,P|314:67|301:24,1,90,2|0,0:0|0:0,0:0:0:0:
211,24,19121,2,0,P|199:67|194:111,1,90,2|2,0:0|0:0,0:0:0:0:
194,203,19815,2,0,P|198:248|211:291,1,90,2|2,0:0|0:0,0:0:0:0:
301,291,20501,6,0,L|390:286,1,90,6|8,0:0|0:0,0:0:0:0:
431,205,21167,2,0,P|471:245|474:321,2,135,2|2|8,0:0|0:0|0:0,0:0:0:0:
391,286,22500,2,0,L|302:291,1,90,2|8,0:0|0:0,0:0:0:0:
211,291,23167,6,0,L|122:286,1,90,0|8,0:0|0:0,0:0:0:0:
81,205,23834,2,0,P|41:245|38:321,2,135,2|2|8,0:0|0:0|0:0,0:0:0:0:
121,286,25167,2,0,L|210:291,1,90,2|8,0:0|0:0,0:0:0:0:
289,246,25834,6,0,P|363:233|461:232,2,135,6|2|8,0:0|0:0|0:0,0:0:0:0:
289,335,27167,2,0,P|363:348|461:349,2,135,2|2|8,0:0|0:0|0:0,0:0:0:0:
199,335,28500,6,0,P|125:348|27:349,1,135,2|2,0:0|0:0,0:0:0:0:
24,270,29334,2,0,P|34:212|30:160,1,90,2|8,0:0|0:0,0:0:0:0:
0,50,30167,2,0,P|87:28|176:20,1,180,8|8,0:0|0:0,0:0:0:0:
211,105,31167,6,0,P|198:179|197:277,2,135,2|2|8,0:0|0:0|0:0,0:0:0:0:
301,105,32500,2,0,P|314:179|315:277,2,135,2|2|8,0:0|0:0|0:0,0:0:0:0:
335,21,33834,2,0,P|424:28|511:50,2,180,2|2|2,0:0|0:0|0:0,0:0:0:0:
245,21,35500,2,0,P|156:28|69:50,1,180,8|8,0:0|0:0,0:0:0:0:
95,136,36500,6,0,P|93:206|62:299,2,135,2|2|8,0:0|0:0|0:0,0:0:0:0:
185,136,37834,2,0,P|187:206|218:299,2,135,2|2|8,0:0|0:0|0:0,0:0:0:0:
252,76,39167,6,0,L|395:86,1,135,2|2,0:0|0:0,0:0:0:0:
468,123,40000,2,0,P|485:176|487:241,1,90,2|8,0:0|0:0,0:0:0:0:
480,345,40834,2,0,P|390:355|301:345,1,180,8|8,0:0|0:0,0:0:0:0:
211,345,41834,6,0,P|121:355|32:345,2,180,6|2|6,0:0|0:0|0:0,0:0:0:0:
256,267,43500,1,8,0:0:0:0:
256,177,43834,2,0,L|256:87,1,90,2|8,0:0|0:0,0:0:0:0:
211,9,44500,6,0,P|165:10|44:39,2,135,6|2|8,0:0|0:0|0:0,0:0:0:0:
301,9,45834,2,0,P|347:10|468:39,2,135,2|2|8,0:0|0:0|0:0,0:0:0:0:
256,87,47167,6,0,L|256:177,1,90,6|2,0:0|0:0,0:0:0:0:
182,232,47834,2,0,P|188:299|212:363,1,135,2|2,0:0|0:0,0:0:0:0:
301,361,48667,2,0,P|323:298|330:231,1,135,2|2,0:0|0:0,0:0:0:0:
256,177,49500,2,0,L|256:87,1,90,2|8,0:0|0:0,0:0:0:0:
301,9,50167,5,2,0:0:0:0:
385,42,50500,2,0,P|397:84|397:203,1,135,2|2,0:0|0:0,0:0:0:0:
330,231,51334,2,0,P|318:273|318:392,1,135,2|2,0:0|0:0,0:0:0:0:
178,362,52334,6,0,P|177:294|161:229,1,135,6|8,0:0|0:0,0:0:0:0:
90,174,53167,2,0,P|90:106|106:41,2,135,2|2|8,0:0|0:0|0:0,0:0:0:0:
161,230,54500,2,0,L|250:222,1,90,2|8,0:0|0:0,0:0:0:0:
340,221,55167,6,0,L|429:229,1,90,2|8,0:0|0:0,0:0:0:0:
501,174,55834,2,0,P|501:106|485:41,2,135,2|2|8,0:0|0:0|0:0,0:0:0:0:
430,229,57167,2,0,L|341:221,1,90,2|8,0:0|0:0,0:0:0:0:
250,222,57834,6,0,L|161:230,1,90,6|2,0:0|0:0,0:0:0:0:
90,174,58500,2,0,P|90:106|106:41,1,135,2|2,0:0|0:0,0:0:0:0:
192,67,59334,2,0,P|257:74|327:67,1,135,2|2,0:0|0:0,0:0:0:0:
348,201,60334,6,0,P|259:210|170:201,2,180,2|2|2,0:0|0:0|0:0,0:0:0:0:
426,245,62000,2,0,P|450:322|436:407,1,135,2|2,0:0|0:0,0:0:0:0:
270,336,63167,6,0,P|180:329|77:293,1,180,6|6,0:0|0:0,0:0:0:0:
33,235,64167,1,2,0:0:0:0:
95,170,64500,2,0,P|180:142|270:135,1,180,2|6,0:0|0:0,0:0:0:0:
351,176,65500,1,0,0:0:0:0:
306,254,65834,6,0,P|299:298|306:342,1,90,2|2,0:0|0:0,0:0:0:0:
396,343,66500,2,0,P|403:299|396:255,1,90,2|2,0:0|0:0,0:0:0:0:
351,176,67167,2,0,P|344:132|351:88,2,90,2|2|2,0:0|0:0|0:0,0:0:0:0:
176,218,68500,6,0,P|183:174|176:130,1,90,2|8,0:0|0:0,0:0:0:0:
145,45,69167,2,0,P|97:45|-2:73,2,135,2|2|8,0:0|0:0|0:0,0:0:0:0:
234,60,70500,1,2,0:0:0:0:
323,45,70834,1,8,0:0:0:0:
354,129,71167,6,0,P|361:173|354:217,1,90,2|8,0:0|0:0,0:0:0:0:
323,302,71834,2,0,P|275:301|176:274,2,135,2|2|8,0:0|0:0|0:0,0:0:0:0:
412,287,73167,1,2,0:0:0:0:
501,302,73500,1,8,0:0:0:0:
470,218,73834,6,0,P|463:174|470:130,1,90,6|8,0:0|0:0,0:0:0:0:
501,45,74500,2,0,P|457:33|412:31,1,90,2|8,0:0|0:0,0:0:0:0:
322,31,75167,2,0,P|277:32|233:44,1,90,2|8,0:0|0:0,0:0:0:0:
264,129,75834,2,0,P|271:173|264:217,1,90,2|8,0:0|0:0,0:0:0:0:
233,302,76500,5,2,0:0:0:0:
143,302,76834,1,8,0:0:0:0:
112,217,77167,2,0,P|105:173|112:129,1,90,2|8,0:0|0:0,0:0:0:0:
143,44,77834,2,0,P|234:57|329:41,1,180,2|2,0:0|0:0,0:0:0:0:
402,5,78834,1,8,0:0:0:0:
395,95,79167,6,0,L|408:184,1,90,6|8,0:0|0:0,0:0:0:0:
492,217,79834,2,0,P|501:288|480:383,2,135,2|2|8,0:0|0:0|0:0,0:0:0:0:
408,184,81167,1,2,0:0:0:0:
395,95,81500,1,8,0:0:0:0:
305,95,81834,6,0,L|292:184,1,90,6|8,0:0|0:0,0:0:0:0:
208,217,82500,2,0,P|199:288|220:383,2,135,6|6|14,0:0|0:0|0:0,0:0:0:0:
292,184,83834,1,6,0:0:0:0:
305,95,84167,1,12,0:0:0:0:
234,39,84500,6,0,P|190:29|145:28,1,90,6|8,0:0|0:0,0:0:0:0:
57,47,85167,2,0,L|46:136,1,90,2|8,0:0|0:0,0:0:0:0:
46,226,85834,2,0,L|56:315,1,90,2|12,0:0|0:0,0:0:0:0:
145,334,86500,2,0,P|189:332|233:322,1,90,12|8,0:0|0:0,0:0:0:0:
323,322,87167,6,0,P|367:332|412:333,1,90,6|8,0:0|0:0,0:0:0:0:
500,314,87834,2,0,L|486:166,1,135,2|8,0:0|0:0,0:0:0:0:
