osu file format v14

[General]
AudioFilename: audio.mp3
AudioLeadIn: 0
PreviewTime: 67750
Countdown: 0
SampleSet: Soft
StackLeniency: 0.7
Mode: 0
LetterboxInBreaks: 0
WidescreenStoryboard: 0

[Editor]
Bookmarks: 20501,25834,47167,68500,88334
DistanceSpacing: 1
BeatDivisor: 2
GridSize: 32
TimelineZoom: 1.1

[Metadata]
Title:Uso - 'Hagane no Renkinjutsushi FULLMETAL ALCHEMIST' ED Ver.-
TitleUnicode:嘘 -「鋼の錬金術師 FULLMETAL ALCHEMIST」 ED Ver.-
Artist:SID
ArtistUnicode:シド
Creator:Pata-Mon
Version:Normal
Source:鋼の錬金術師 FULLMETAL ALCHEMIST
Tags:Kencho Anime ED ending tv size
BeatmapID:1360729
BeatmapSetID:641285

[Difficulty]
HPDrainRate:4
CircleSize:3
OverallDifficulty:4
ApproachRate:5
SliderMultiplier:1.1
SliderTickRate:1

[Events]
//Background and Video events
0,0,"BG.jpg",0,0
Video,-1190,"video.flv"
//Break Periods
//Storyboard Layer 0 (Background)
//Storyboard Layer 1 (Fail)
//Storyboard Layer 2 (Pass)
//Storyboard Layer 3 (Foreground)
//Storyboard Sound Samples

[TimingPoints]
-300,346.820809248555,4,2,1,20,1,0
393,-125,4,2,1,20,0,0
1087,-125,4,2,1,25,0,0
12185,-125,4,2,1,30,0,0
20335,333.333333333333,4,2,1,30,1,0
20501,333.333333333333,4,2,1,50,1,0
68500,-100,4,2,1,60,0,1
88334,-100,4,2,1,60,0,0

[Colours]
Combo1 : 95,95,207
Combo2 : 223,207,31
Combo3 : 95,207,207
Combo4 : 207,31,31

[HitObjects]
145,35,393,6,0,P|189:29|266:48,1,88,2|2,0:0|0:0,0:0:0:0:
306,82,1087,2,0,P|350:88|427:69,1,88,2|0,0:0|0:0,0:0:0:0:
480,67,1780,2,0,P|479:110|469:153,1,88,2|0,0:0|0:0,0:0:0:0:
431,178,2301,2,0,P|432:221|442:264,1,88,2|2,0:0|0:0,0:0:0:0:
366,373,3168,6,0,P|322:379|245:360,1,88,2|2,0:0|0:0,0:0:0:0:
205,326,3861,2,0,P|161:320|84:339,1,88,2|2,0:0|0:0,0:0:0:0:
55,264,4555,2,0,P|65:221|66:177,1,88,2|0,0:0|0:0,0:0:0:0:
29,153,5075,2,0,P|19:110|18:66,1,88,2|0,0:0|0:0,0:0:0:0:
38,27,5595,1,2,0:0:0:0:
210,65,6289,6,0,P|254:71|331:52,1,88,2|2,0:0|0:0,0:0:0:0:
468,25,7330,2,0,P|478:68|479:112,1,88,2|2,0:0|0:0,0:0:0:0:
448,195,8023,2,0,L|350:204,1,88,2|2,0:0|0:0,0:0:0:0:
290,149,8717,2,0,P|246:143|169:162,1,88,2|2,0:0|0:0,0:0:0:0:
134,204,9410,2,0,L|36:195,1,88,2|2,0:0|0:0,0:0:0:0:
15,113,10104,2,0,P|16:70|26:27,2,88,2|2|2,0:0|0:0|0:0,0:0:0:0:
147,229,11491,6,0,P|146:272|136:315,1,88,2|2,0:0|0:0,0:0:0:0:
215,353,12185,2,0,P|259:359|336:340,1,88,2|2,0:0|0:0,0:0:0:0:
368,296,12879,2,0,P|412:290|489:309,1,88,2|0,0:0|0:0,0:0:0:0:
497,308,13399,2,0,P|496:265|486:222,1,88,2|2,0:0|0:0,0:0:0:0:
383,138,14266,6,0,P|384:95|394:52,1,88,2|2,0:0|0:0,0:0:0:0:
315,14,14960,2,0,P|271:8|194:27,1,88,2|2,0:0|0:0,0:0:0:0:
162,71,15653,2,0,P|118:77|41:58,1,88,2|0,0:0|0:0,0:0:0:0:
33,59,16173,2,0,P|34:102|44:145,1,88,2|0,0:0|0:0,0:0:0:0:
65,185,16694,1,2,0:0:0:0:
229,122,17387,5,2,0:0:0:0:
155,74,17734,2,0,P|277:48|317:122,1,176,2|2,0:0|0:0,0:0:0:0:
284,250,19121,2,0,P|283:293|273:336,1,88,2|2,0:0|0:0,0:0:0:0:
185,336,19815,2,0,P|175:293|174:249,1,88,2|2,0:0|0:0,0:0:0:0:
180,193,20335,1,2,0:0:0:0:
180,193,20501,6,0,L|34:182,1,110,6|8,0:0|0:0,0:0:0:0:
0,100,21167,2,0,P|1:66|20:19,1,55,2|8,0:0|0:0,0:0:0:0:
109,8,21667,2,0,L|255:19,1,110,2|0,0:0|0:0,0:0:0:0:
273,20,22167,1,8,0:0:0:0:
357,90,22500,2,0,L|430:85,2,55,2|2|8,0:0|0:0|0:0,0:0:0:0:
254,128,23167,6,0,P|243:165|245:283,1,110,2|8,0:0|0:0,0:0:0:0:
251,290,23667,2,0,L|397:301,1,110,2|8,0:0|0:0,0:0:0:0:
415,304,24167,1,2,0:0:0:0:
473,212,24500,2,0,P|484:175|482:57,1,110,2|8,0:0|0:0,0:0:0:0:
476,50,25000,2,0,L|330:39,1,110,2|0,0:0|0:0,0:0:0:0:
312,36,25500,1,8,0:0:0:0:
254,128,25834,6,0,P|243:165|245:283,1,110,6|8,0:0|0:0,0:0:0:0:
277,275,26334,1,2,0:0:0:0:
277,275,26500,2,0,L|367:278,2,55,2|0|8,0:0|0:0|0:0,0:0:0:0:
243,381,27167,2,0,L|423:387,1,110,2|8,0:0|0:0,0:0:0:0:
436,313,27834,2,0,L|526:316,2,55,2|0|8,0:0|0:0|0:0,0:0:0:0:
332,277,28500,6,0,P|322:223|331:130,1,110,2|8,0:0|0:0,0:0:0:0:
366,133,29000,2,0,L|361:43,1,55,2|0,0:0|0:0,0:0:0:0:
322,40,29334,2,0,P|271:34|212:40,1,110,2|8,0:0|0:0,0:0:0:0:
172,77,29834,2,0,P|121:83|62:77,2,110,2|8|2,0:0|0:0|0:0,0:0:0:0:
233,168,30834,1,8,0:0:0:0:
172,259,31167,6,0,P|121:253|62:259,1,110,2|8,0:0|0:0,0:0:0:0:
12,282,31667,1,2,0:0:0:0:
12,282,31834,2,0,L|19:366,2,55,2|0|8,0:0|0:0|0:0,0:0:0:0:
0,173,32500,2,0,P|51:158|115:154,1,110,2|8,0:0|0:0,0:0:0:0:
162,159,33000,1,2,0:0:0:0:
162,159,33167,2,0,L|216:159,2,55,2|0|8,0:0|0:0|0:0,0:0:0:0:
135,51,33834,6,0,L|263:51,1,110,2|8,0:0|0:0,0:0:0:0:
338,108,34500,2,0,L|466:108,1,110,2|8,0:0|0:0,0:0:0:0:
503,108,35000,1,2,0:0:0:0:
503,108,35167,2,0,P|512:172|512:238,1,110,2|8,0:0|0:0,0:0:0:0:
496,269,35667,2,0,L|442:269,1,55,2|0,0:0|0:0,0:0:0:0:
338,228,36167,2,0,L|284:228,1,55,2|8,0:0|0:0,0:0:0:0:
235,255,36500,6,0,P|184:261|125:255,1,110,6|8,0:0|0:0,0:0:0:0:
78,228,37000,1,2,0:0:0:0:
78,228,37167,2,0,L|24:228,2,55,2|0|8,0:0|0:0|0:0,0:0:0:0:
125,128,37834,2,0,P|176:122|235:128,1,110,2|8,0:0|0:0,0:0:0:0:
330,182,38500,2,0,L|384:182,2,55,2|0|8,0:0|0:0|0:0,0:0:0:0:
234,237,39167,6,0,P|225:286|226:366,1,110,2|8,0:0|0:0,0:0:0:0:
265,381,39667,2,0,L|324:378,1,55,2|0,0:0|0:0,0:0:0:0:
369,353,40000,2,0,L|487:359,1,110,2|8,0:0|0:0,0:0:0:0:
512,314,40500,2,0,P|511:259|501:204,1,110,2|8,0:0|0:0,0:0:0:0:
451,106,41167,2,0,L|456:31,2,55,2|0|8,0:0|0:0|0:0,0:0:0:0:
391,199,41834,6,0,P|340:205|281:199,1,110,6|8,0:0|0:0,0:0:0:0:
195,130,42500,2,0,P|144:124|85:130,1,110,2|8,0:0|0:0,0:0:0:0:
0,199,43167,1,6,0:0:0:0:
0,308,43500,1,8,0:0:0:0:
85,377,43834,2,0,P|136:383|195:377,1,110,2|8,0:0|0:0,0:0:0:0:
239,346,44334,1,2,0:0:0:0:
239,346,44500,6,0,P|290:340|349:346,1,110,6|8,0:0|0:0,0:0:0:0:
394,377,45000,2,0,P|408:332|408:266,1,110,2|0,0:0|0:0,0:0:0:0:
399,215,45500,1,2,0:0:0:0:
297,174,45834,2,0,P|283:129|283:63,1,110,2|8,0:0|0:0,0:0:0:0:
310,19,46334,1,2,0:0:0:0:
310,19,46500,2,0,L|402:25,1,55,8|8,0:0|0:0,0:0:0:0:
409,56,46834,2,0,L|501:50,1,55,8|0,0:0|0:0,0:0:0:0:
508,19,47167,5,6,0:0:0:0:
512,129,47500,2,0,P|511:183|502:238,1,110,2|2,0:0|0:0,0:0:0:0:
392,238,48167,1,2,0:0:0:0:
392,238,48334,2,0,P|384:183|382:128,2,110,2|2|2,0:0|0:0|0:0,0:0:0:0:
404,291,49167,2,0,P|362:299|251:300,1,110,2|2,0:0|0:0,0:0:0:0:
186,292,49834,5,10,0:0:0:0:
251,203,50167,2,0,P|250:149|241:94,1,110,2|2,0:0|0:0,0:0:0:0:
131,94,50834,1,2,0:0:0:0:
131,94,51000,2,0,P|123:148|121:203,2,110,2|2|2,0:0|0:0|0:0,0:0:0:0:
153,43,51834,2,0,L|303:55,1,110,2|2,0:0|0:0,0:0:0:0:
301,92,52334,6,0,L|451:80,1,110,6|0,0:0|0:0,0:0:0:0:
466,78,52834,1,8,0:0:0:0:
512,178,53167,2,0,L|505:245,2,55,2|0|8,0:0|0:0|0:0,0:0:0:0:
457,184,53667,2,0,L|307:196,1,110,2|0,0:0|0:0,0:0:0:0:
292,198,54167,1,8,0:0:0:0:
196,145,54500,2,0,P|162:141|108:143,1,55,2|0,0:0|0:0,0:0:0:0:
100,177,54834,2,0,P|66:180|12:179,1,55,8|0,0:0|0:0,0:0:0:0:
0,149,55167,6,0,P|1:225|8:273,1,110,2|8,0:0|0:0,0:0:0:0:
67,350,55834,2,0,P|95:349|122:346,1,55,2|8,0:0|0:0,0:0:0:0:
198,266,56334,2,0,P|274:267|322:274,1,110,2|0,0:0|0:0,0:0:0:0:
342,314,56834,1,8,0:0:0:0:
342,314,57000,2,0,P|418:313|466:306,1,110,2|0,0:0|0:0,0:0:0:0:
503,288,57500,1,8,0:0:0:0:
467,184,57834,5,6,0:0:0:0:
503,80,58167,2,0,P|449:74|394:74,1,110,2|2,0:0|0:0,0:0:0:0:
284,74,58834,1,2,0:0:0:0:
284,74,59000,2,0,P|208:75|160:82,2,110,2|2|2,0:0|0:0|0:0,0:0:0:0:
320,116,59834,1,2,0:0:0:0:
325,225,60167,1,2,0:0:0:0:
325,225,60334,6,0,P|271:231|216:231,1,110,2|0,0:0|0:0,0:0:0:0:
176,193,60834,1,2,0:0:0:0:
176,193,61000,2,0,P|122:187|67:187,1,110,2|0,0:0|0:0,0:0:0:0:
27,225,61500,1,2,0:0:0:0:
27,225,61667,2,0,L|36:363,2,110,2|2|0,0:0|0:0|0:0,0:0:0:0:
67,187,62500,2,0,L|63:118,2,55,2|0|8,0:0|0:0|0:0,0:0:0:0:
149,260,63167,5,6,0:0:0:0:
231,187,63500,2,0,L|235:118,1,55,2|0,0:0|0:0,0:0:0:0:
239,76,63834,2,0,P|286:66|358:64,1,110,6|0,0:0|0:0,0:0:0:0:
456,86,64500,1,2,0:0:0:0:
496,188,64834,2,0,L|492:257,1,55,2|0,0:0|0:0,0:0:0:0:
488,299,65167,2,0,P|441:309|369:311,1,110,6|0,0:0|0:0,0:0:0:0:
302,233,65834,5,2,0:0:0:0:
192,233,66167,1,2,0:0:0:0:
114,311,66500,2,0,P|80:311|12:305,1,55,2|2,0:0|0:0,0:0:0:0:
12,151,67167,6,0,L|12:55,1,55,8|0,0:0|0:0,0:0:0:0:
51,57,67500,2,0,L|147:57,1,55,8|0,0:0|0:0,0:0:0:0:
146,96,67834,2,0,L|146:192,1,55,8|8,0:0|0:0,0:0:0:0:
302,96,68500,6,0,L|302:224,1,110,6|8,0:0|0:0,0:0:0:0:
200,247,69167,2,0,P|130:243|52:221,1,110,2|8,0:0|0:0,0:0:0:0:
40,214,69667,2,0,L|40:86,1,110,2|0,0:0|0:0,0:0:0:0:
40,49,70167,1,8,0:0:0:0:
142,8,70500,2,0,P|212:12|290:34,1,110,2|8,0:0|0:0,0:0:0:0:
308,115,71167,6,0,P|362:125|417:127,1,110,2|8,0:0|0:0,0:0:0:0:
512,72,71834,2,0,L|512:182,1,110,2|8,0:0|0:0,0:0:0:0:
477,225,72334,2,0,L|477:289,1,55,2|0,0:0|0:0,0:0:0:0:
495,332,72667,1,2,0:0:0:0:
495,332,72834,2,0,P|443:349|389:351,1,110,8|2,0:0|0:0,0:0:0:0:
283,321,73500,1,8,0:0:0:0:
177,350,73834,6,0,P|123:349|70:332,1,110,6|8,0:0|0:0,0:0:0:0:
109,228,74500,2,0,L|164:228,2,55,2|0|8,0:0|0:0|0:0,0:0:0:0:
36,145,75167,1,2,0:0:0:0:
109,62,75500,1,8,0:0:0:0:
219,74,75834,2,0,P|265:73|352:58,1,110,2|8,0:0|0:0,0:0:0:0:
435,38,76500,6,0,L|435:93,1,55,2|0,0:0|0:0,0:0:0:0:
407,140,76834,2,0,L|407:195,1,55,8|0,0:0|0:0,0:0:0:0:
407,251,77167,2,0,P|353:259|298:260,1,110,2|8,0:0|0:0,0:0:0:0:
216,186,77834,2,0,P|170:187|83:202,1,110,2|8,0:0|0:0,0:0:0:0:
0,222,78500,2,0,L|0:167,1,55,2|0,0:0|0:0,0:0:0:0:
28,120,78834,2,0,L|28:65,1,55,8|0,0:0|0:0,0:0:0:0:
28,9,79167,6,0,P|82:1|137:0,1,110,6|8,0:0|0:0,0:0:0:0:
206,86,79834,2,0,P|260:94|315:95,1,110,2|8,0:0|0:0,0:0:0:0:
348,50,80334,2,0,P|402:42|457:41,1,110,2|0,0:0|0:0,0:0:0:0:
512,49,80834,1,8,0:0:0:0:
481,154,81167,2,0,P|427:162|372:163,1,110,2|8,0:0|0:0,0:0:0:0:
275,110,81834,6,0,P|268:201|307:252,1,110,6|8,0:0|0:0,0:0:0:0:
368,273,82500,2,0,P|375:364|336:415,1,110,6|8,0:0|0:0,0:0:0:0:
316,363,83000,2,0,P|257:351|173:352,1,110,6|0,0:0|0:0,0:0:0:0:
157,373,83500,2,0,L|102:373,1,55,8|0,0:0|0:0,0:0:0:0:
52,349,83834,1,6,0:0:0:0:
130,271,84167,1,12,0:0:0:0:
52,193,84500,6,0,P|38:138|37:56,1,110,6|8,0:0|0:0,0:0:0:0:
123,18,85167,2,0,P|180:24|233:18,1,110,2|8,0:0|0:0,0:0:0:0:
320,85,85834,2,0,P|318:136|299:189,1,55,2|0,0:0|0:0,0:0:0:0:
296,190,86167,1,12,0:0:0:0:
193,225,86500,2,0,P|197:279|211:332,1,110,12|8,0:0|0:0,0:0:0:0:
245,376,87000,1,2,0:0:0:0:
245,376,87167,6,0,P|300:367|355:365,1,110,6|8,0:0|0:0,0:0:0:0:
464,377,87834,2,0,L|464:322,1,55,2|0,0:0|0:0,0:0:0:0:
436,275,88167,2,0,L|436:220,1,55,8|0,0:0|0:0,0:0:0:0:
