osu file format v14

[General]
AudioFilename: audio.mp3
AudioLeadIn: 0
PreviewTime: 67750
Countdown: 0
SampleSet: Soft
StackLeniency: 0.5
Mode: 0
LetterboxInBreaks: 0
WidescreenStoryboard: 0

[Editor]
Bookmarks: 20501,25834,47167,68500,88334
DistanceSpacing: 1.3
BeatDivisor: 2
GridSize: 32
TimelineZoom: 1.1

[Metadata]
Title:Uso - 'Hagane no Renkinjutsushi FULLMETAL ALCHEMIST' ED Ver.-
TitleUnicode:嘘 -「鋼の錬金術師 FULLMETAL ALCHEMIST」 ED Ver.-
Artist:SID
ArtistUnicode:シド
Creator:Pata-Mon
Version:Hard
Source:鋼の錬金術師 FULLMETAL ALCHEMIST
Tags:Kencho Anime ED ending tv size
BeatmapID:1360728
BeatmapSetID:641285

[Difficulty]
HPDrainRate:5
CircleSize:3.5
OverallDifficulty:6
ApproachRate:7
SliderMultiplier:1.4
SliderTickRate:1

[Events]
//Background and Video events
0,0,"BG.jpg",0,0
Video,-1190,"video.flv"
//Break Periods
//Storyboard Layer 0 (Background)
//Storyboard Layer 1 (Fail)
//Storyboard Layer 2 (Pass)
//Storyboard Layer 3 (Foreground)
//Storyboard Sound Samples

[TimingPoints]
-300,346.820809248555,4,2,1,20,1,0
393,-133.333333333333,4,2,1,20,0,0
1087,-133.333333333333,4,2,1,25,0,0
12185,-117.647058823529,4,2,1,30,0,0
20335,333.333333333333,4,2,1,30,1,0
20501,333.333333333333,4,2,1,50,1,0
47167,-111.111111111111,4,2,1,50,0,0
62834,-111.111111111111,4,2,1,30,0,0
63167,-133.333333333333,4,2,1,50,0,0
67167,-100,4,2,1,40,0,0
68500,-90.9090909090909,4,2,1,60,0,1
88334,-100,4,2,1,60,0,0

[Colours]
Combo1 : 95,95,207
Combo2 : 223,207,31
Combo3 : 95,207,207
Combo4 : 207,31,31

[HitObjects]
334,319,393,6,0,P|347:265|345:184,1,105.000004005432,2|2,0:0|0:0,0:0:0:0:
229,112,1087,6,0,P|216:166|218:247,1,105.000004005432,2|0,0:0|0:0,0:0:0:0:
226,298,1607,1,0,0:0:0:0:
226,298,1780,2,0,P|178:305|94:309,1,105.000004005432,2|0,0:0|0:0,0:0:0:0:
43,293,2301,2,0,L|50:216,1,52.5000020027161,2|0,0:0|0:0,0:0:0:0:
110,193,2647,2,0,L|96:39,1,105.000004005432,2|0,0:0|0:0,0:0:0:0:
162,39,3168,2,0,P|210:29|301:29,1,105.000004005432,2|2,0:0|0:0,0:0:0:0:
413,81,3861,6,0,L|399:235,1,105.000004005432,2|2,0:0|0:0,0:0:0:0:
282,286,4555,2,0,L|268:132,1,105.000004005432,2|2,0:0|0:0,0:0:0:0:
197,157,5075,2,0,P|160:159|117:173,1,52.5000020027161,2|0,0:0|0:0,0:0:0:0:
70,190,5422,1,2,0:0:0:0:
70,190,5595,2,0,L|84:344,1,105.000004005432,2|0,0:0|0:0,0:0:0:0:
233,257,6289,2,0,L|226:180,1,52.5000020027161,2|0,0:0|0:0,0:0:0:0:
281,146,6636,6,0,P|329:131|409:132,1,105.000004005432,2|0,0:0|0:0,0:0:0:0:
464,150,7156,1,0,0:0:0:0:
464,150,7330,2,0,P|473:84|471:9,1,105.000004005432,2|2,0:0|0:0,0:0:0:0:
316,33,8023,2,0,P|307:99|309:174,1,105.000004005432,2|2,0:0|0:0,0:0:0:0:
374,279,8717,2,0,P|372:331|364:383,1,105.000004005432,2|2,0:0|0:0,0:0:0:0:
214,336,9410,6,0,P|152:330|63:355,1,105.000004005432,2|2,0:0|0:0,0:0:0:0:
32,198,10104,2,0,P|28:160|33:106,1,52.5000020027161,2|0,0:0|0:0,0:0:0:0:
106,133,10451,2,0,P|110:171|105:225,1,52.5000020027161,2|0,0:0|0:0,0:0:0:0:
183,213,10798,2,0,P|245:219|334:194,1,105.000004005432,2|0,0:0|0:0,0:0:0:0:
359,181,11318,1,0,0:0:0:0:
359,181,11491,2,0,P|364:244|365:327,1,105.000004005432,2|0,0:0|0:0,0:0:0:0:
360,365,12012,1,0,0:0:0:0:
445,292,12185,6,0,L|441:193,1,59.5000011348725,2|0,0:0|0:0,0:0:0:0:
490,164,12532,2,0,L|494:65,1,59.5000011348725,2|0,0:0|0:0,0:0:0:0:
438,40,12879,2,0,P|387:31|303:31,1,119.000002269745,2|2,0:0|0:0,0:0:0:0:
261,89,13399,2,0,P|232:93|201:89,1,59.5000011348725,2|0,0:0|0:0,0:0:0:0:
144,29,13746,2,0,P|84:29|25:39,1,119.000002269745,2|0,0:0|0:0,0:0:0:0:
0,119,14266,2,0,P|9:170|9:254,1,119.000002269745,2|2,0:0|0:0,0:0:0:0:
153,324,14960,6,0,P|153:264|163:205,1,119.000002269745,2|2,0:0|0:0,0:0:0:0:
210,46,15653,2,0,L|357:54,1,119.000002269745,2|2,0:0|0:0,0:0:0:0:
364,128,16173,2,0,P|402:136|462:129,1,59.5000011348725,2|0,0:0|0:0,0:0:0:0:
476,71,16520,1,2,0:0:0:0:
505,150,16694,2,0,P|506:200|500:270,1,119.000002269745,2|0,0:0|0:0,0:0:0:0:
355,350,17387,2,0,P|325:349|295:345,1,59.5000011348725,2|0,0:0|0:0,0:0:0:0:
173,355,17734,6,0,P|229:292|239:222,1,119.000002269745,2|0,0:0|0:0,0:0:0:0:
228,177,18254,1,0,0:0:0:0:
294,126,18428,2,0,P|351:111|446:108,1,119.000002269745,2|0,0:0|0:0,0:0:0:0:
488,138,18948,1,0,0:0:0:0:
422,189,19121,2,0,P|365:204|270:207,1,119.000002269745,2|0,0:0|0:0,0:0:0:0:
190,87,19815,2,0,P|133:72|38:69,1,119.000002269745,2|0,0:0|0:0,0:0:0:0:
8,132,20335,1,2,0:0:0:0:
8,132,20418,1,2,0:0:0:0:
8,132,20501,6,0,L|18:296,1,140,6|8,0:0|0:0,0:0:0:0:
74,342,21001,2,0,P|114:343|175:326,1,70,2|0,0:0|0:0,0:0:0:0:
209,274,21334,2,0,P|249:273|310:290,1,70,8|0,0:0|0:0,0:0:0:0:
363,312,21667,6,0,L|373:148,1,140,2|0,0:0|0:0,0:0:0:0:
379,81,22167,1,8,0:0:0:0:
299,36,22334,2,0,P|258:35|198:52,1,70,2|0,0:0|0:0,0:0:0:0:
164,104,22667,2,0,P|123:105|63:88,1,70,8|0,0:0|0:0,0:0:0:0:
8,68,23000,1,2,0:0:0:0:
8,68,23084,1,2,0:0:0:0:
8,68,23167,6,0,L|12:227,1,140,2|8,0:0|0:0,0:0:0:0:
91,253,23667,2,0,P|131:254|192:237,1,70,2|0,0:0|0:0,0:0:0:0:
244,211,24000,1,8,0:0:0:0:
327,248,24167,2,0,P|361:253|396:252,1,70,2|0,0:0|0:0,0:0:0:0:
476,207,24500,6,0,L|481:123,1,70,2|0,0:0|0:0,0:0:0:0:
401,89,24834,2,0,L|396:5,1,70,8|0,0:0|0:0,0:0:0:0:
306,7,25167,2,0,L|248:13,3,35,8|8|8|8,0:0|0:0|0:0|0:0,0:0:0:0:
234,38,25500,2,0,L|176:32,3,35,8|0|8|0,0:0|0:0|0:0|0:0,0:0:0:0:
162,7,25834,6,0,P|83:20|3:70,1,140,6|8,0:0|0:0,0:0:0:0:
11,136,26334,2,0,L|18:266,1,70,2|0,0:0|0:0,0:0:0:0:
22,296,26667,1,8,0:0:0:0:
101,341,26834,2,0,P|149:346|212:342,1,70,2|0,0:0|0:0,0:0:0:0:
246,295,27167,6,0,P|311:292|430:342,1,140,2|8,0:0|0:0,0:0:0:0:
467,345,27667,2,0,P|469:298|481:242,1,70,2|0,0:0|0:0,0:0:0:0:
500,188,28000,1,2,0:0:0:0:
472,101,28167,2,0,P|467:66|466:31,1,70,8|0,0:0|0:0,0:0:0:0:
382,64,28500,6,0,P|315:83|245:80,1,140,2|8,0:0|0:0,0:0:0:0:
170,29,29000,2,0,P|135:29|100:34,1,70,2|0,0:0|0:0,0:0:0:0:
20,79,29334,2,0,P|29:136|26:176,1,70,2|0,0:0|0:0,0:0:0:0:
13,237,29667,1,8,0:0:0:0:
97,270,29834,6,0,P|167:278|245:273,1,140,2|8,0:0|0:0,0:0:0:0:
280,354,30334,2,0,P|350:362|428:357,1,140,2|0,0:0|0:0,0:0:0:0:
504,324,30834,2,0,L|499:217,1,70,8|0,0:0|0:0,0:0:0:0:
465,170,31167,6,0,P|395:162|317:167,1,140,2|8,0:0|0:0,0:0:0:0:
261,230,31667,2,0,P|226:235|162:233,1,70,2|0,0:0|0:0,0:0:0:0:
101,221,32000,1,2,0:0:0:0:
115,130,32167,2,0,P|114:95|109:60,1,70,2|0,0:0|0:0,0:0:0:0:
196,32,32500,6,0,P|261:25|336:32,1,140,2|8,0:0|0:0,0:0:0:0:
422,60,33000,2,0,P|417:95|419:159,1,70,2|0,0:0|0:0,0:0:0:0:
431,220,33334,1,2,0:0:0:0:
445,311,33500,2,0,P|444:346|439:381,1,70,8|0,0:0|0:0,0:0:0:0:
351,352,33834,6,0,P|285:345|211:352,1,140,2|8,0:0|0:0,0:0:0:0:
150,180,34500,2,0,P|215:186|290:180,1,140,2|0,0:0|0:0,0:0:0:0:
374,146,35000,1,8,0:0:0:0:
438,210,35167,6,0,P|437:244|432:279,1,70,2|0,0:0|0:0,0:0:0:0:
386,357,35500,1,8,0:0:0:0:
298,332,35667,2,0,P|232:325|158:332,1,140,2|0,0:0|0:0,0:0:0:0:
71,357,36167,2,0,P|66:322|65:287,1,70,8|10,0:0|0:0,0:0:0:0:
92,250,36417,1,10,0:0:0:0:
92,250,36500,6,0,P|90:180|80:82,1,140,6|8,0:0|0:0,0:0:0:0:
49,24,37000,2,0,L|118:27,1,70,2|0,0:0|0:0,0:0:0:0:
210,32,37334,1,8,0:0:0:0:
281,88,37500,2,0,L|350:84,1,70,2|0,0:0|0:0,0:0:0:0:
436,51,37834,6,0,P|438:121|448:219,1,140,2|8,0:0|0:0,0:0:0:0:
479,276,38334,2,0,L|410:273,1,70,2|0,0:0|0:0,0:0:0:0:
318,269,38667,1,2,0:0:0:0:
247,213,38834,2,0,L|178:217,1,70,8|0,0:0|0:0,0:0:0:0:
121,289,39167,6,0,P|15:262|-4:191,1,140,2|8,0:0|0:0,0:0:0:0:
86,205,39667,2,0,P|92:163|86:96,1,70,2|0,0:0|0:0,0:0:0:0:
65,48,40000,2,0,L|134:45,1,70,2|0,0:0|0:0,0:0:0:0:
226,41,40334,1,8,0:0:0:0:
280,114,40500,6,0,P|360:120|462:105,1,140,2|8,0:0|0:0,0:0:0:0:
478,45,41000,2,0,P|472:125|487:227,1,140,2|0,0:0|0:0,0:0:0:0:
505,267,41500,2,0,P|504:338|467:380,1,70,8|0,0:0|0:0,0:0:0:0:
421,301,41834,6,0,P|351:301|283:320,1,140,6|8,0:0|0:0,0:0:0:0:
212,376,42334,1,2,0:0:0:0:
141,319,42500,2,0,P|73:300|3:300,1,140,2|8,0:0|0:0,0:0:0:0:
3,117,43167,6,0,P|45:115|129:119,1,70,6|0,0:0|0:0,0:0:0:0:
161,143,43500,2,0,P|161:178|165:213,1,70,8|0,0:0|0:0,0:0:0:0:
256,212,43834,2,0,P|259:177|260:142,1,70,2|0,0:0|0:0,0:0:0:0:
347,115,44167,2,0,P|381:115|416:116,1,70,8|0,0:0|0:0,0:0:0:0:
397,28,44500,6,0,P|327:22|257:20,1,140,6|8,0:0|0:0,0:0:0:0:
166,21,45000,2,0,P|96:23|26:28,1,140,2|0,0:0|0:0,0:0:0:0:
3,117,45500,2,0,P|45:115|129:119,1,70,8|0,0:0|0:0,0:0:0:0:
128,188,45834,6,0,P|139:224|144:258,1,70,2|0,0:0|0:0,0:0:0:0:
143,347,46167,1,8,0:0:0:0:
241,363,46334,1,2,0:0:0:0:
241,363,46417,1,2,0:0:0:0:
241,363,46500,2,0,P|291:354|335:331,1,70,2|0,0:0|0:0,0:0:0:0:
292,256,46834,2,0,P|297:221|307:188,1,70,2|0,0:0|0:0,0:0:0:0:
416,151,47167,6,0,P|414:119|407:88,1,62.9999980773926,2|0,0:0|0:0,0:0:0:0:
478,47,47500,2,0,P|491:108|494:171,2,125.999996154785,2|2|2,0:0|0:0|0:0,0:0:0:0:
407,89,48334,6,0,P|414:120|416:152,1,62.9999980773926,2|0,0:0|0:0,0:0:0:0:
355,205,48667,2,0,P|293:199|229:205,1,125.999996154785,2|2,0:0|0:0,0:0:0:0:
168,151,49167,2,0,P|170:119|177:88,1,62.9999980773926,2|0,0:0|0:0,0:0:0:0:
239,36,49500,1,2,0:0:0:0:
314,67,49667,1,2,0:0:0:0:
389,36,49834,6,0,P|419:29|500:36,1,62.9999980773926,2|0,0:0|0:0,0:0:0:0:
497,95,50167,2,0,P|510:156|513:219,2,125.999996154785,2|2|2,0:0|0:0|0:0,0:0:0:0:
451,27,51000,6,0,P|419:29|389:36,1,62.9999980773926,2|0,0:0|0:0,0:0:0:0:
324,87,51334,2,0,P|262:93|198:87,1,125.999996154785,2|2,0:0|0:0,0:0:0:0:
134,36,51834,2,0,P|104:29|23:36,1,62.9999980773926,2|0,0:0|0:0,0:0:0:0:
0,67,52167,1,8,0:0:0:0:
81,149,52334,6,0,P|79:218|51:297,1,125.999996154785,6|8,0:0|0:0,0:0:0:0:
17,341,52834,2,0,P|81:357|191:351,1,125.999996154785,2|0,0:0|0:0,0:0:0:0:
212,318,53334,1,8,0:0:0:0:
283,358,53500,1,2,0:0:0:0:
355,318,53667,6,0,P|417:320|478:335,1,125.999996154785,2|0,0:0|0:0,0:0:0:0:
506,258,54167,2,0,P|512:196|506:132,1,125.999996154785,8|0,0:0|0:0,0:0:0:0:
479,55,54667,2,0,L|383:61,1,62.9999980773926,8|0,0:0|0:0,0:0:0:0:
353,108,55000,1,2,0:0:0:0:
353,108,55084,1,2,0:0:0:0:
353,108,55167,6,0,L|161:96,1,125.999996154785,2|8,0:0|0:0,0:0:0:0:
92,6,55834,2,0,P|95:49|109:106,1,62.9999980773926,2|8,0:0|0:0,0:0:0:0:
151,131,56167,1,2,0:0:0:0:
98,194,56334,6,0,P|92:256|98:320,1,125.999996154785,2|0,0:0|0:0,0:0:0:0:
151,382,56834,1,8,0:0:0:0:
214,329,57000,2,0,P|276:323|340:329,1,125.999996154785,2|0,0:0|0:0,0:0:0:0:
402,382,57500,2,0,L|464:377,1,62.9999980773926,8|0,0:0|0:0,0:0:0:0:
420,236,57834,6,0,L|416:299,1,62.9999980773926,6|0,0:0|0:0,0:0:0:0:
498,301,58167,2,0,P|502:240|490:158,2,125.999996154785,2|2|2,0:0|0:0|0:0,0:0:0:0:
416,298,59000,6,0,L|420:235,1,62.9999980773926,2|0,0:0|0:0,0:0:0:0:
371,169,59334,2,0,L|367:106,1,62.9999980773926,2|0,0:0|0:0,0:0:0:0:
361,24,59667,1,2,0:0:0:0:
293,70,59834,1,2,0:0:0:0:
219,34,60000,2,0,P|185:29|115:36,1,62.9999980773926,10|0,0:0|0:0,0:0:0:0:
76,50,60334,6,0,P|81:104|83:215,1,125.999996154785,10|0,0:0|0:0,0:0:0:0:
70,257,60834,1,2,0:0:0:0:
151,270,61000,2,0,P|213:268|276:262,1,125.999996154785,2|0,0:0|0:0,0:0:0:0:
355,238,61500,1,2,0:0:0:0:
426,197,61667,6,0,P|458:194|489:197,1,62.9999980773926,2|0,0:0|0:0,0:0:0:0:
488,279,62000,2,0,P|456:282|425:279,1,62.9999980773926,2|0,0:0|0:0,0:0:0:0:
355,238,62334,1,2,0:0:0:0:
273,238,62500,1,8,0:0:0:0:
273,238,62667,1,8,0:0:0:0:
200,276,62834,1,8,0:0:0:0:
200,276,63000,1,8,0:0:0:0:
157,206,63167,6,0,P|154:153|173:105,1,105.000004005432,6|0,0:0|0:0,0:0:0:0:
256,64,63667,1,2,0:0:0:0:
340,105,63834,2,0,P|359:153|355:206,1,105.000004005432,6|0,0:0|0:0,0:0:0:0:
145,206,64500,6,0,P|142:153|161:105,1,105.000004005432,2|0,0:0|0:0,0:0:0:0:
352,105,65167,2,0,P|371:153|367:206,1,105.000004005432,6|0,0:0|0:0,0:0:0:0:
160,105,65834,5,2,0:0:0:0:
352,105,66167,1,2,0:0:0:0:
256,271,66500,1,2,0:0:0:0:
256,271,66667,1,2,0:0:0:0:
256,110,67167,6,0,L|256:180,1,70,8|8,0:0|0:0,0:0:0:0:
256,271,67500,2,0,L|256:306,2,35,8|8|8,0:0|0:0|0:0,0:0:0:0:
177,225,67834,1,8,0:0:0:0:
335,225,68000,1,8,0:0:0:0:
256,16,68500,6,0,P|174:17|77:29,1,154.000004699707,6|8,0:0|0:0,0:0:0:0:
0,178,69167,2,0,L|5:270,1,77.0000023498536,2|0,0:0|0:0,0:0:0:0:
9,347,69500,1,8,0:0:0:0:
87,297,69667,6,0,P|124:289|163:289,1,77.0000023498536,2|0,0:0|0:0,0:0:0:0:
253,310,70000,1,2,0:0:0:0:
343,289,70167,2,0,P|381:288|419:296,1,77.0000023498536,8|0,0:0|0:0,0:0:0:0:
501,339,70500,2,0,L|506:246,1,77.0000023498536,2|0,0:0|0:0,0:0:0:0:
432,205,70834,2,0,L|427:112,1,77.0000023498536,8|0,0:0|0:0,0:0:0:0:
426,35,71167,6,0,P|385:24|337:25,1,77.0000023498536,2|0,0:0|0:0,0:0:0:0:
280,83,71500,2,0,P|239:94|191:93,1,77.0000023498536,8|0,0:0|0:0,0:0:0:0:
131,38,71834,2,0,P|169:99|151:202,1,154.000004699707,2|8,0:0|0:0,0:0:0:0:
94,239,72334,6,0,L|101:332,1,77.0000023498536,2|0,0:0|0:0,0:0:0:0:
172,373,72667,1,2,0:0:0:0:
257,338,72834,2,0,P|303:333|364:336,1,77.0000023498536,8|0,0:0|0:0,0:0:0:0:
372,359,73084,1,8,0:0:0:0:
372,359,73167,2,0,P|410:358|448:354,1,77.0000023498536,8|0,0:0|0:0,0:0:0:0:
493,272,73500,2,0,P|484:244|484:158,1,77.0000023498536,8|0,0:0|0:0,0:0:0:0:
484,56,73834,6,0,P|434:116|340:113,1,154.000004699707,6|8,0:0|0:0,0:0:0:0:
193,48,74500,2,0,P|150:46|80:47,1,77.0000023498536,2|0,0:0|0:0,0:0:0:0:
120,138,74834,2,0,P|162:139|233:139,1,77.0000023498536,8|0,0:0|0:0,0:0:0:0:
294,19,75167,6,0,P|281:56|277:94,1,77.0000023498536,2|0,0:0|0:0,0:0:0:0:
277,185,75500,2,0,P|281:223|294:259,1,77.0000023498536,8|0,0:0|0:0,0:0:0:0:
325,346,75834,2,0,L|217:340,1,77.0000023498536,2|0,0:0|0:0,0:0:0:0:
166,297,76167,2,0,L|58:291,1,77.0000023498536,8|0,0:0|0:0,0:0:0:0:
7,195,76500,5,2,0:0:0:0:
7,195,76667,1,2,0:0:0:0:
96,200,76834,2,0,L|204:206,1,77.0000023498536,8|0,0:0|0:0,0:0:0:0:
255,302,77167,1,2,0:0:0:0:
255,302,77334,1,2,0:0:0:0:
166,297,77500,2,0,L|58:291,1,77.0000023498536,8|0,0:0|0:0,0:0:0:0:
7,195,77834,5,2,0:0:0:0:
7,195,78000,1,2,0:0:0:0:
96,200,78167,2,0,L|204:206,1,77.0000023498536,8|0,0:0|0:0,0:0:0:0:
265,251,78500,2,0,L|261:159,1,77.0000023498536,8|0,0:0|0:0,0:0:0:0:
235,136,78750,1,8,0:0:0:0:
235,136,78834,2,0,L|239:44,1,77.0000023498536,2|0,0:0|0:0,0:0:0:0:
274,30,79084,1,8,0:0:0:0:
274,30,79167,6,0,P|345:20|454:25,1,154.000004699707,6|8,0:0|0:0,0:0:0:0:
512,186,79834,2,0,L|507:278,1,77.0000023498536,2|0,0:0|0:0,0:0:0:0:
503,355,80167,1,8,0:0:0:0:
425,305,80334,6,0,P|388:297|349:297,1,77.0000023498536,2|0,0:0|0:0,0:0:0:0:
259,318,80667,1,2,0:0:0:0:
169,297,80834,2,0,P|131:296|93:304,1,77.0000023498536,8|0,0:0|0:0,0:0:0:0:
8,341,81167,2,0,P|4:278|54:220,1,77.0000023498536,2|0,0:0|0:0,0:0:0:0:
83,211,81500,2,0,P|87:148|37:90,1,77.0000023498536,8|0,0:0|0:0,0:0:0:0:
0,37,81834,6,0,L|106:43,1,77.0000023498536,6|0,0:0|0:0,0:0:0:0:
169,47,82167,2,0,L|275:53,1,77.0000023498536,8|0,0:0|0:0,0:0:0:0:
82,136,82500,2,0,L|188:142,1,77.0000023498536,6|0,0:0|0:0,0:0:0:0:
251,146,82834,1,8,0:0:0:0:
104,229,83000,6,0,L|210:235,1,77.0000023498536,6|0,0:0|0:0,0:0:0:0:
273,239,83334,1,2,0:0:0:0:
416,170,83500,2,0,L|310:176,1,77.0000023498536,8|0,0:0|0:0,0:0:0:0:
343,309,83834,2,0,L|449:303,1,77.0000023498536,6|0,0:0|0:0,0:0:0:0:
273,239,84167,2,0,L|167:233,1,77.0000023498536,12|0,0:0|0:0,0:0:0:0:
339,175,84500,6,0,P|350:99|344:0,1,154.000004699707,6|8,0:0|0:0,0:0:0:0:
146,22,85167,2,0,P|145:61|150:99,1,77.0000023498536,2|0,0:0|0:0,0:0:0:0:
162,198,85500,1,8,0:0:0:0:
345,343,85834,6,0,P|338:256|294:220,1,77.0000023498536,2|0,0:0|0:0,0:0:0:0:
183,306,86167,2,0,L|260:306,1,77.0000023498536,12|0,0:0|0:0,0:0:0:0:
367,176,86500,2,0,L|290:176,1,77.0000023498536,12|0,0:0|0:0,0:0:0:0:
209,130,86834,1,2,0:0:0:0:
128,176,87000,1,2,0:0:0:0:
290,176,87167,6,0,P|289:84|174:44,1,154.000004699707,6|8,0:0|0:0,0:0:0:0:
128,268,87834,2,0,L|128:345,1,77.0000023498536,2|0,0:0|0:0,0:0:0:0:
212,307,88167,1,8,0:0:0:0:
44,307,88334,1,8,0:0:0:0:
