osu file format v14

[General]
AudioFilename: SID - Uso (TV Size).mp3
AudioLeadIn: 0
PreviewTime: 67487
Countdown: 0
SampleSet: Soft
StackLeniency: 0.7
Mode: 0
LetterboxInBreaks: 0
WidescreenStoryboard: 1

[Editor]
DistanceSpacing: 1.3
BeatDivisor: 4
GridSize: 4
TimelineZoom: 1.3

[Metadata]
Title:Uso (TV Size)
TitleUnicode:Uso (TV Size)
Artist:SID
ArtistUnicode:SID
Creator:luxoDeh
Version:Hard
Source:Fullmetal Alchemist: Brotherhood
Tags:opening 鋼の錬金術師 KittyAdventure Ferna52 MrSergio Nofool CLSW
BeatmapID:759330
BeatmapSetID:343673

[Difficulty]
HPDrainRate:4
CircleSize:3.8
OverallDifficulty:6
ApproachRate:7
SliderMultiplier:1.2
SliderTickRate:1

[Events]
//Background and Video events
0,0,"full-metal-alchemist-brotherhood-elric-brothers-fullmetal_133460.jpg",0,0
Video,0,"SID - Uso.avi"
//Break Periods
//Storyboard Layer 0 (Background)
//Storyboard Layer 1 (Fail)
//Storyboard Layer 2 (Pass)
//Storyboard Layer 3 (Foreground)
//Storyboard Sound Samples

[TimingPoints]
39,346.820809248555,4,2,1,50,1,0
732,346.820809248555,4,2,1,50,1,0
732,-133.333333333333,4,2,1,50,0,0
20154,333.333333333333,4,2,1,50,1,0
20154,-100,4,2,1,50,0,0
62820,-133.333333333333,4,2,1,50,0,0
66820,-100,4,2,1,50,0,0
67820,-133.333333333333,4,2,1,50,0,0
68153,-90.9090909090909,4,2,1,50,0,1
82153,-83.3333333333333,4,2,1,50,0,1
82820,-90.9090909090909,4,2,1,50,0,1
88153,-100,4,2,1,50,0,0

[Colours]
Combo1 : 255,192,0
Combo2 : 128,255,128
Combo3 : 128,128,255
Combo4 : 242,24,57

[HitObjects]
256,312,39,5,0,0:0:0:0:
256,312,385,1,0,0:0:0:0:
256,312,732,6,0,B|256:296|264:264|264:264|256:236|256:216,1,90.0000034332277,2|0,0:0|0:0,0:0:0:0:
263,142,1252,1,0,0:0:0:0:
316,81,1425,2,0,P|338:111|332:176,1,90.0000034332277,2|0,0:0|0:0,0:0:0:0:
263,142,1945,6,0,P|228:135|156:151,1,90.0000034332277,2|0,0:0|0:0,0:0:0:0:
102,181,2466,2,0,P|126:208|144:218,1,45.0000017166138
207,244,2812,1,2,0:0:0:0:
207,244,3159,1,0,0:0:0:0:
207,244,3506,6,0,P|177:282|121:297,1,90.0000034332277,2|0,0:0|0:0,0:0:0:0:
21,184,4200,2,0,B|27:123|27:123|41:97,1,90.0000034332277,2|0,0:0|0:0,0:0:0:0:
109,55,4720,6,0,B|143:66|143:66|206:61,1,90.0000034332277,2|0,0:0|0:0,0:0:0:0:
276,44,5240,1,0,0:0:0:0:
423,110,5587,1,0,0:0:0:0:
382,266,5934,2,0,B|361:275|361:275|310:274|310:274|290:284,1,90.0000034332277,0|2,0:0|0:0,0:0:0:0:
232,332,6454,5,0,0:0:0:0:
232,332,6627,2,0,P|198:325|179:311,1,45.0000017166138,2|0,0:0|0:0,0:0:0:0:
146,250,6974,2,0,P|135:218|137:197,1,45.0000017166138,2|0,0:0|0:0,0:0:0:0:
151,127,7321,1,0,0:0:0:0:
151,127,7668,6,0,P|123:131|57:127,1,90.0000034332277,2|0,0:0|0:0,0:0:0:0:
201,45,8362,2,0,P|236:38|300:49,1,90.0000034332277,2|0,0:0|0:0,0:0:0:0:
418,143,9055,5,2,0:0:0:0:
418,143,9402,1,0,0:0:0:0:
312,266,9749,1,2,0:0:0:0:
312,266,10096,1,0,0:0:0:0:
445,356,10442,6,0,L|457:307,1,45.0000017166138,2|0,0:0|0:0,0:0:0:0:
395,257,10789,2,0,L|380:207,1,45.0000017166138
318,163,11136,1,2,0:0:0:0:
318,163,11483,1,0,0:0:0:0:
318,163,11830,6,0,B|293:161|272:169|272:169|252:162|225:164,1,90.0000034332277,2|0,0:0|0:0,0:0:0:0:
154,196,12350,1,0,0:0:0:0:
105,260,12523,2,0,P|139:275|205:258,1,90.0000034332277,2|0,0:0|0:0,0:0:0:0:
154,196,13044,6,0,B|114:152|114:152|104:117,1,90.0000034332277,2|0,0:0|0:0,0:0:0:0:
101,41,13564,1,0,0:0:0:0:
259,74,13911,2,0,B|276:97|320:92|345:122,1,90.0000034332277,2|0,0:0|0:0,0:0:0:0:
371,273,14604,6,0,P|357:315|306:341,1,90.0000034332277,2|0,0:0|0:0,0:0:0:0:
292,262,15125,1,0,0:0:0:0:
341,198,15298,2,0,P|384:193|432:217,1,90.0000034332277,2|0,0:0|0:0,0:0:0:0:
479,272,15818,6,0,B|499:234|499:234|505:181,1,90.0000034332277,2|0,0:0|0:0,0:0:0:0:
485,108,16338,1,0,0:0:0:0:
336,43,16685,1,0,0:0:0:0:
189,113,17032,1,0,0:0:0:0:
120,259,17379,6,0,P|164:277|250:258,1,135.000005149841,2|0,0:0|0:0,0:0:0:0:
306,203,18073,2,0,P|337:201|403:205,1,90.0000034332277,2|0,0:0|0:0,0:0:0:0:
487,337,18766,5,2,0:0:0:0:
487,337,19113,1,0,0:0:0:0:
328,302,19460,2,0,B|298:300|275:289|275:289|257:304|225:302,1,90.0000034332277,2|0,0:0|0:0,0:0:0:0:
163,283,19980,1,0,0:0:0:0:
163,283,20067,1,0,0:0:0:0:
163,283,20154,6,0,P|132:260|112:168,1,120,4|8,0:0|0:0,0:0:0:0:
130,103,20654,1,2,0:0:0:0:
208,133,20820,2,0,P|250:137|285:126,2,60,0|0|8,0:0|0:0|0:0,0:0:0:0:
130,103,21320,6,0,P|86:94|3:111,1,120,2|0,0:0|0:0,0:0:0:0:
32,188,21820,2,0,L|14:247,1,60,8|2,0:0|0:0,0:0:0:0:
75,303,22153,2,0,P|89:337|115:358,1,60
162,287,22487,1,8,0:0:0:0:
162,287,22653,1,2,0:0:0:0:
241,313,22820,6,0,P|281:319|366:311,1,120,0|8,0:0|0:0,0:0:0:0:
430,266,23320,2,0,B|421:233|421:233|432:184|432:184|423:139,1,120,2|0,0:0|0:0,0:0:0:0:
452,69,23820,2,0,P|410:66|381:82,1,60,8|2,0:0|0:0,0:0:0:0:
321,115,24153,5,0,0:0:0:0:
321,115,24320,1,0,0:0:0:0:
241,86,24487,2,0,P|205:101|188:117,1,60,8|2,0:0|0:0,0:0:0:0:
117,158,24820,2,0,P|120:197|132:224,1,60
142,242,25070,1,0,0:0:0:0:
161,265,25153,2,0,L|126:322,1,60,8|2,0:0|0:0,0:0:0:0:
243,246,25487,6,0,B|278:238|278:238|375:249,1,120,4|8,0:0|0:0,0:0:0:0:
417,310,25987,2,0,P|437:278|426:195,1,120,2|0,0:0|0:0,0:0:0:0:
379,131,26487,2,0,P|376:93|385:58,1,60,8|2,0:0|0:0,0:0:0:0:
428,199,26820,6,0,P|383:215|308:179,1,120,0|8,0:0|0:0,0:0:0:0:
252,137,27320,2,0,B|170:124|170:124|124:139,1,120,2|0,0:0|0:0,0:0:0:0:
59,172,27820,2,0,P|81:202|112:216,1,60,8|2,0:0|0:0,0:0:0:0:
181,237,28153,6,0,B|185:269|185:269|154:302|159:358,1,120,4|8,0:0|0:0,0:0:0:0:
241,336,28653,2,0,B|270:341|298:358|298:358|326:343|358:336,1,120,2|0,0:0|0:0,0:0:0:0:
427,299,29153,2,0,P|436:337|429:367,1,60,8|2,0:0|0:0,0:0:0:0:
368,246,29487,6,0,P|393:227|483:242,1,120,0|8,0:0|0:0,0:0:0:0:
368,246,29987,2,0,B|375:145|375:145|388:119,1,120,2|0,0:0|0:0,0:0:0:0:
439,65,30487,1,8,0:0:0:0:
439,65,30653,1,2,0:0:0:0:
328,35,30820,6,0,P|268:26|200:36,1,120,4|8,0:0|0:0,0:0:0:0:
132,66,31320,2,0,B|120:98|120:98|128:160|128:160|119:197,1,120,2|0,0:0|0:0,0:0:0:0:
84,257,31820,2,0,P|56:232|39:199,1,60,8|2,0:0|0:0,0:0:0:0:
166,258,32153,6,0,P|155:303|80:339,1,120,0|8,0:0|0:0,0:0:0:0:
122,182,32653,2,0,P|161:171|236:205,1,120,2|0,0:0|0:0,0:0:0:0:
282,267,33153,2,0,P|322:271|354:261,1,60,8|2,0:0|0:0,0:0:0:0:
411,220,33487,5,4,0:0:0:0:
411,220,33653,1,0,0:0:0:0:
470,160,33820,2,0,P|428:139|344:166,1,120,8|0,0:0|0:0,0:0:0:0:
411,220,34320,1,0,0:0:0:0:
449,295,34487,2,0,B|455:325|455:325|446:364,1,60,8|2,0:0|0:0,0:0:0:0:
365,339,34820,6,0,B|296:358|296:358|245:346,1,120,0|8,0:0|0:0,0:0:0:0:
213,270,35320,2,0,B|165:258|165:258|96:277,1,120,2|0,0:0|0:0,0:0:0:0:
20,314,35820,2,0,P|43:344|71:357,1,60,8|2,0:0|0:0,0:0:0:0:
91,243,36153,6,0,P|86:198|95:119,1,120,4|8,0:0|0:0,0:0:0:0:
141,54,36653,2,0,B|226:67|226:67|270:52,1,120,2|0,0:0|0:0,0:0:0:0:
336,25,37153,2,0,P|341:56|326:97,1,60,8|2,0:0|0:0,0:0:0:0:
291,156,37487,6,0,B|282:191|282:191|289:228|289:228|286:284,1,120,0|8,0:0|0:0,0:0:0:0:
264,355,37987,2,0,P|308:354|365:304,1,120,2|0,0:0|0:0,0:0:0:0:
383,224,38487,2,0,L|376:156,1,60,8|2,0:0|0:0,0:0:0:0:
383,224,38820,6,0,P|426:236|503:221,1,120,2|8,0:0|0:0,0:0:0:0:
497,138,39320,2,0,P|454:126|377:141,1,120,2|0,0:0|0:0,0:0:0:0:
305,175,39820,2,0,P|271:180|230:169,1,60,8|2,0:0|0:0,0:0:0:0:
199,105,40153,6,0,P|169:143|170:215,1,120,2|8,0:0|0:0,0:0:0:0:
210,285,40653,1,2,0:0:0:0:
210,285,40820,2,0,P|172:297|143:291,1,60
37,232,41153,2,0,P|75:220|104:226,1,60,8|2,0:0|0:0,0:0:0:0:
15,259,41487,6,0,L|34:135,1,120,4|8,0:0|0:0,0:0:0:0:
85,74,41987,1,2,0:0:0:0:
165,98,42153,2,0,B|245:120|245:120|287:108,1,120,0|8,0:0|0:0,0:0:0:0:
359,80,42653,1,2,0:0:0:0:
429,125,42820,6,0,P|449:151|462:190,1,60,4|0,0:0|0:0,0:0:0:0:
404,265,43153,2,0,P|384:239|371:200,1,60,8|2,0:0|0:0,0:0:0:0:
429,125,43487,2,0,B|488:108|488:108|477:51,1,120,0|8,0:0|0:0,0:0:0:0:
392,46,43987,1,2,0:0:0:0:
315,78,44153,6,0,B|274:84|256:100|256:100|235:84|195:78,1,120,2|8,0:0|0:0,0:0:0:0:
205,163,44653,2,0,B|224:183|256:196|256:196|288:184|308:164,1,120,2|0,0:0|0:0,0:0:0:0:
382,130,45153,2,0,P|389:168|378:199,1,60,8|0,0:0|0:0,0:0:0:0:
311,286,45487,6,0,B|256:312|256:312|197:283,1,120,4|8,0:0|0:0,0:0:0:0:
132,239,45987,2,0,B|96:235|96:235|5:266,1,120,2|0,0:0|0:0,0:0:0:0:
25,214,46487,1,8,0:0:0:0:
31,166,46653,1,8,0:0:0:0:
41,119,46820,6,0,B|50:33|50:33|84:57,1,120,4|8,0:0|0:0,0:0:0:0:
151,91,47320,1,0,0:0:0:0:
229,121,47487,2,0,P|268:128|296:125,2,60,0|0|8,0:0|0:0|0:0,0:0:0:0:
151,91,47987,1,0,0:0:0:0:
214,37,48153,6,0,P|243:36|273:42,1,60
352,72,48487,2,0,P|390:69|426:56,1,60,8|0,0:0|0:0,0:0:0:0:
483,20,48820,1,0,0:0:0:0:
483,20,48987,2,0,B|486:114|486:114|470:161,1,120,2|0,0:0|0:0,0:0:0:0:
439,213,49487,6,0,B|429:242|429:242|432:279,1,60,4|0,0:0|0:0,0:0:0:0:
457,351,49820,1,8,0:0:0:0:
457,351,49987,1,0,0:0:0:0:
375,333,50153,2,0,P|333:331|296:335,2,60,0|0|8,0:0|0:0|0:0,0:0:0:0:
457,351,50653,1,0,0:0:0:0:
446,267,50820,6,0,L|437:201,1,60
373,152,51153,2,0,L|383:77,1,60,8|0,0:0|0:0,0:0:0:0:
449,43,51487,1,0,0:0:0:0:
449,43,51653,1,0,0:0:0:0:
449,43,51820,1,8,0:0:0:0:
355,97,51987,6,0,P|322:101|231:97,1,120,4|0,0:0|0:0,0:0:0:0:
165,51,52487,2,0,P|153:80|154:114,1,60,8|0,0:0|0:0,0:0:0:0:
190,183,52820,2,0,P|147:191|78:147,1,120,0|8,0:0|0:0,0:0:0:0:
57,74,53320,6,0,P|18:101|3:184,1,120,2|0,0:0|0:0,0:0:0:0:
45,238,53820,2,0,L|52:303,1,60,8|0,0:0|0:0,0:0:0:0:
119,347,54153,2,0,L|128:284,2,60,0|0|8,0:0|0:0|0:0,0:0:0:0:
45,238,54653,6,0,P|90:197|151:193,1,120,2|0,0:0|0:0,0:0:0:0:
225,222,55153,2,0,P|267:226|296:214,1,60,10|0,0:0|0:0,0:0:0:0:
350,169,55487,1,2,0:0:0:0:
393,240,55653,2,0,P|406:275|408:313,1,60,2|8,0:0|0:0,0:0:0:0:
393,240,55987,6,0,P|372:191|393:113,1,120,2|0,0:0|0:0,0:0:0:0:
443,68,56487,2,0,L|377:44,1,60,8|0,0:0|0:0,0:0:0:0:
309,82,56820,2,0,L|246:93,1,60
176,51,57153,2,0,P|134:67|100:116,1,90,8|0,0:0|0:0,0:0:0:0:
82,136,57487,6,0,L|14:104,1,60,4|0,0:0|0:0,0:0:0:0:
80,219,57820,1,8,0:0:0:0:
80,219,57987,1,0,0:0:0:0:
159,245,58153,2,0,P|194:249|232:238,2,60,0|0|8,0:0|0:0|0:0,0:0:0:0:
80,219,58653,1,0,0:0:0:0:
12,269,58820,6,0,B|3:304|3:304|13:341,1,60
91,344,59153,2,0,B|125:364|125:364|158:358,1,60,8|0,0:0|0:0,0:0:0:0:
227,338,59487,2,0,P|272:336|303:344,2,60,0|2|8,0:0|0:0|0:0,0:0:0:0:
166,279,59987,6,0,P|161:231|176:162,1,120,4|0,0:0|0:0,0:0:0:0:
219,89,60487,1,8,0:0:0:0:
294,125,60653,2,0,B|329:134|329:134|357:128|357:128|392:140|425:126,1,120
489,98,61153,1,8,0:0:0:0:
489,98,61320,2,0,P|497:149|490:176,1,60
451,228,61653,5,0,0:0:0:0:
451,228,61820,2,0,P|444:273|447:302,1,60,8|0,0:0|0:0,0:0:0:0:
464,369,62153,1,8,0:0:0:0:
403,369,62320,1,8,0:0:0:0:
347,344,62487,1,8,0:0:0:0:
315,293,62653,1,8,0:0:0:0:
312,238,62820,6,0,P|309:194|274:146,1,90.0000034332277,4|8,0:0|0:0,0:0:0:0:
216,113,63320,1,0,0:0:0:0:
151,162,63487,2,0,B|130:181|119:215|119:215|74:201,1,90.0000034332277,8|8,0:0|0:0,0:0:0:0:
15,182,63987,1,0,0:0:0:0:
15,182,64153,6,0,P|14:140|15:122,1,45.0000017166138
82,53,64487,2,0,L|80:100,1,45.0000017166138,8|0,0:0|0:0,0:0:0:0:
125,164,64820,1,12,0:0:0:0:
223,292,65153,1,12,0:0:0:0:
62,315,65487,5,2,0:0:0:0:
132,258,65820,1,2,0:0:0:0:
206,206,66153,1,2,0:0:0:0:
206,206,66320,1,2,0:0:0:0:
206,206,66487,1,2,0:0:0:0:
325,218,66820,6,0,L|388:230,1,60,12|0,0:0|0:0,0:0:0:0:
478,154,67153,2,0,L|406:160,1,60,12|0,0:0|0:0,0:0:0:0:
346,98,67487,1,8,0:0:0:0:
346,98,67653,1,8,0:0:0:0:
346,98,67820,6,0,B|310:102|310:102|272:97,1,67.5000025749207
248,86,68153,6,0,P|207:81|134:127,1,132.00000402832,4|8,0:0|0:0,0:0:0:0:
111,210,68653,1,2,0:0:0:0:
139,291,68820,2,0,P|179:258|189:176,1,132.00000402832,0|8,0:0|0:0,0:0:0:0:
111,210,69320,1,2,0:0:0:0:
56,276,69487,6,0,P|58:316|75:345,1,66.0000020141602
139,291,69820,1,8,0:0:0:0:
139,291,69987,1,2,0:0:0:0:
111,210,70153,2,0,P|68:192|36:194,1,66.0000020141602
139,291,70487,2,0,P|180:294|217:289,1,66.0000020141602,8|2,0:0|0:0,0:0:0:0:
280,251,70820,6,0,B|312:263|337:291|337:291|365:252|396:244,1,132.00000402832,0|8,0:0|0:0,0:0:0:0:
465,229,71320,1,2,0:0:0:0:
431,149,71487,2,0,B|421:110|440:53|440:53|376:63,1,132.00000402832,0|8,0:0|0:0,0:0:0:0:
323,82,71987,1,2,0:0:0:0:
237,88,72153,6,0,P|246:43|269:17,1,66.0000020141602
323,82,72487,2,0,P|312:131|290:159,1,66.0000020141602,8|2,0:0|0:0,0:0:0:0:
282,164,72737,1,0,0:0:0:0:
253,173,72820,1,0,0:0:0:0:
173,140,72987,1,0,0:0:0:0:
109,82,73153,2,0,P|89:117|94:177,1,99.0000030212403,8|0,0:0|0:0,0:0:0:0:
102,202,73487,6,0,L|17:168,1,66.0000020141602,4|0,0:0|0:0,0:0:0:0:
111,286,73820,2,0,P|146:277|177:245,1,66.0000020141602,8|2,0:0|0:0,0:0:0:0:
224,192,74153,2,0,B|219:151|219:151|228:113,1,66.0000020141602
271,54,74487,2,0,B|306:58|306:58|340:50,1,66.0000020141602,8|2,0:0|0:0,0:0:0:0:
421,62,74820,6,0,P|461:83|484:111,1,66.0000020141602
404,147,75153,1,8,0:0:0:0:
404,147,75320,1,2,0:0:0:0:
421,62,75487,2,0,L|490:57,1,66.0000020141602
404,147,75820,2,0,L|335:142,1,66.0000020141602,8|2,0:0|0:0,0:0:0:0:
468,207,76153,6,0,P|467:249|396:309,1,132.00000402832,0|8,0:0|0:0,0:0:0:0:
320,290,76653,1,2,0:0:0:0:
251,237,76820,2,0,P|278:213|315:203,1,66.0000020141602
320,290,77153,2,0,P|293:314|256:324,1,66.0000020141602,8|2,0:0|0:0,0:0:0:0:
184,293,77487,5,0,0:0:0:0:
184,293,77653,1,0,0:0:0:0:
121,234,77820,2,0,B|119:198|119:198|126:154,1,66.0000020141602,8|2,0:0|0:0,0:0:0:0:
233,51,78153,2,0,B|235:87|235:87|228:131,1,66.0000020141602
222,145,78403,1,0,0:0:0:0:
210,172,78487,2,0,L|325:149,1,99.0000030212403,8|0,0:0|0:0,0:0:0:0:
336,145,78820,6,0,P|323:192|375:264,1,132.00000402832,4|8,0:0|0:0,0:0:0:0:
410,186,79320,1,2,0:0:0:0:
408,100,79487,2,0,P|379:71|339:62,1,66.0000020141602
336,145,79820,1,8,0:0:0:0:
410,186,79987,2,0,P|449:177|475:157,1,66.0000020141602,2|0,0:0|0:0,0:0:0:0:
492,79,80320,5,0,0:0:0:0:
411,48,80487,2,0,B|375:42|375:42|333:50,1,66.0000020141602,8|2,0:0|0:0,0:0:0:0:
269,87,80820,2,0,B|228:84|228:84|188:92,1,66.0000020141602
128,130,81153,1,8,0:0:0:0:
128,130,81320,1,2,0:0:0:0:
56,42,81487,6,0,P|25:78|15:161,1,132.00000402832,4|8,0:0|0:0,0:0:0:0:
85,207,81987,1,2,0:0:0:0:
203,160,82153,6,0,B|245:157|265:131|265:131|285:156|330:158,1,143.999995605469,4|8,0:0|0:0,0:0:0:0:
424,153,82653,1,2,0:0:0:0:
502,187,82820,6,0,P|476:222|437:235,1,66.0000020141602,4|0,0:0|0:0,0:0:0:0:
370,231,83153,2,0,P|365:279|372:315,1,66.0000020141602,8|2,0:0|0:0,0:0:0:0:
380,323,83403,1,0,0:0:0:0:
392,350,83487,2,0,B|286:331|286:331|251:342,1,132.00000402832,0|8,0:0|0:0,0:0:0:0:
182,369,83987,1,2,0:0:0:0:
108,325,84153,6,0,P|74:291|65:209,1,132.00000402832,4|8,0:0|0:0,0:0:0:0:
103,133,84653,1,2,0:0:0:0:
153,63,84820,2,0,P|184:113|163:191,1,132.00000402832,0|8,0:0|0:0,0:0:0:0:
103,133,85320,1,2,0:0:0:0:
153,63,85487,6,0,L|221:75,1,66.0000020141602
299,48,85820,2,0,L|374:36,1,66.0000020141602,8|2,0:0|0:0,0:0:0:0:
438,81,86153,2,0,P|470:147|457:220,1,132.00000402832,0|8,0:0|0:0,0:0:0:0:
399,260,86653,1,2,0:0:0:0:
399,260,86737,1,0,0:0:0:0:
399,260,86820,1,4,0:0:0:0:
256,192,86903,12,2,88153,0:0:0:0:
