osu file format v14

[General]
AudioFilename: audio.mp3
AudioLeadIn: 0
PreviewTime: 67750
Countdown: 0
SampleSet: Soft
StackLeniency: 0.7
Mode: 0
LetterboxInBreaks: 0
WidescreenStoryboard: 1

[Editor]
DistanceSpacing: 1.4
BeatDivisor: 4
GridSize: 32
TimelineZoom: 1

[Metadata]
Title:Uso (TV Size)
TitleUnicode:嘘 (TV Size)
Artist:SID
ArtistUnicode:シド
Creator:Sajinn
Version:Hard
Source:鋼の錬金術師 FULLMETAL ALCHEMIST
Tags:ed version ending 1 anime shounen japanese rock jrock j-rock pop jpop j-pop
BeatmapID:3600565
BeatmapSetID:1244002

[Difficulty]
HPDrainRate:4
CircleSize:3.5
OverallDifficulty:6.5
ApproachRate:7.5
SliderMultiplier:1.42
SliderTickRate:1

[Events]
//Background and Video events
0,0,"maxresdefault (3).jpg",0,0
//Break Periods
//Storyboard Layer 0 (Background)
//Storyboard Layer 1 (Fail)
//Storyboard Layer 2 (Pass)
//Storyboard Layer 3 (Foreground)
//Storyboard Layer 4 (Overlay)
//Storyboard Sound Samples

[TimingPoints]
1087,346.820809248555,4,2,1,42,1,0
1087,-138.888888888889,4,2,1,42,0,0
20335,333.333333333333,4,2,1,62,1,0
20501,333.333333333333,4,2,1,62,1,0
20501,-108.695652173913,4,2,1,62,0,0
25834,-121.951219512195,4,2,1,52,0,0
47167,-108.695652173913,4,2,1,52,0,0
47667,-108.695652173913,4,2,1,22,0,0
48167,-108.695652173913,4,2,1,52,0,0
48334,-108.695652173913,4,2,1,22,0,0
48834,-108.695652173913,4,2,1,52,0,0
49000,-108.695652173913,4,2,1,22,0,0
49334,-108.695652173913,4,2,1,52,0,0
49667,-108.695652173913,4,2,1,22,0,0
49834,-108.695652173913,4,2,1,52,0,0
50334,-108.695652173913,4,2,1,22,0,0
50834,-108.695652173913,4,2,1,52,0,0
51000,-108.695652173913,4,2,1,22,0,0
51500,-108.695652173913,4,2,1,52,0,0
51666,-108.695652173913,4,2,1,22,0,0
52167,-108.695652173913,4,2,1,52,0,0
58334,-108.695652173913,4,2,1,22,0,0
58834,-108.695652173913,4,2,1,52,0,0
59001,-108.695652173913,4,2,1,22,0,0
59501,-108.695652173913,4,2,1,52,0,0
59667,-108.695652173913,4,2,1,22,0,0
60001,-108.695652173913,4,2,1,52,0,0
60334,-108.695652173913,4,2,1,22,0,0
60834,-108.695652173913,4,2,1,52,0,0
61001,-108.695652173913,4,2,1,22,0,0
61501,-108.695652173913,4,2,1,52,0,0
61667,-108.695652173913,4,2,1,22,0,0
62167,-108.695652173913,4,2,1,52,0,0
63167,-138.888888888889,4,2,1,52,0,0
65834,-98.0392156862744,4,2,1,52,0,0
68000,-238.095238095238,4,2,1,52,0,0
68500,-89.2857142857143,4,2,1,72,0,0
69000,-98.0392156862745,4,2,1,72,0,0
79167,-89.2857142857143,4,2,1,72,0,0
79834,-98.0392156862745,4,2,1,72,0,0

[Colours]
Combo1 : 128,255,128
Combo2 : 248,193,7
Combo3 : 255,0,0
Combo4 : 128,255,255

[HitObjects]
96,133,1087,6,0,P|145:95|237:109,1,153.360003744141,2|0,0:2|0:0,0:0:0:0:
279,171,1780,2,0,P|331:159|394:146,1,102.240002496094,2|2,0:2|0:2,0:0:0:0:
446,194,2300,2,0,P|434:227|428:257,1,51.1200012480469,2|0,0:2|0:0,0:0:0:0:
362,289,2647,1,2,0:2:0:0:
129,368,3167,6,0,P|118:321|112:301,1,51.1200012480469,2|0,0:2|0:0,0:0:0:0:
49,273,3514,2,0,P|55:248|60:223,1,51.1200012480469,2|0,0:2|0:0,0:0:0:0:
134,186,3861,2,0,P|107:151|39:147,2,102.240002496094,2|2|2,0:2|0:2|0:2,0:0:0:0:
237,58,4902,5,2,0:2:0:0:
237,58,5075,2,0,L|350:34,1,102.240002496094,2|2,0:2|0:2,0:0:0:0:
408,76,5595,1,2,0:2:0:0:
349,340,6289,6,0,P|339:299|330:276,1,51.1200012480469,2|0,0:2|0:0,0:0:0:0:
388,227,6636,2,0,P|390:184|412:60,1,153.360003744141,2|0,0:2|0:0,0:0:0:0:
476,31,7329,6,0,P|441:2|367:4,1,102.240002496094,2|2,0:2|0:2,0:0:0:0:
285,126,8023,2,0,P|250:155|176:153,1,102.240002496094,2|2,0:2|0:2,0:0:0:0:
126,115,8543,1,0,0:0:0:0:
126,115,8717,2,0,P|118:71|111:51,1,51.1200012480469,2|0,0:2|0:0,0:0:0:0:
174,7,9063,1,2,0:2:0:0:
33,90,9410,6,0,P|46:147|52:209,1,102.240002496094,2|2,0:2|0:2,0:0:0:0:
204,249,10104,2,0,P|191:306|185:368,1,102.240002496094,2|2,0:2|0:2,0:0:0:0:
110,380,10624,1,0,0:0:0:0:
110,380,10797,1,2,0:2:0:0:
436,364,11491,6,0,L|382:352,1,51.1200012480469,2|0,0:2|0:0,0:0:0:0:
386,270,11838,2,0,L|336:281,1,51.1200012480469,2|0,0:2|0:0,0:0:0:0:
279,340,12185,2,0,P|306:297|249:209,1,153.360003744141,2|0,0:2|0:0,0:0:0:0:
181,208,12878,1,2,0:2:0:0:
307,104,13225,5,2,0:2:0:0:
307,104,13399,2,0,L|361:89,1,51.1200012480469,2|0,0:2|0:0,0:0:0:0:
376,11,13745,2,0,L|484:34,1,102.240002496094,2|0,0:2|0:0,0:0:0:0:
508,108,14266,1,2,0:2:0:0:
406,236,14613,1,2,0:2:0:0:
503,367,14959,6,0,L|445:352,1,51.1200012480469,2|0,0:2|0:0,0:0:0:0:
379,317,15306,2,0,L|269:343,2,102.240002496094,2|2|2,0:2|0:2|0:2,0:0:0:0:
406,236,16173,1,2,0:2:0:0:
297,113,16520,1,2,0:2:0:0:
297,113,16693,1,2,0:2:0:0:
65,344,17387,6,0,P|61:307|56:278,1,51.1200012480469,2|0,0:2|0:0,0:0:0:0:
89,216,17734,2,0,B|173:215|141:266|230:289,1,153.360003744141,2|0,0:2|0:0,0:0:0:0:
277,228,18428,1,2,0:2:0:0:
115,69,19121,6,0,L|3:45,2,102.240002496094,2|2|2,0:2|0:2|0:2,0:0:0:0:
271,20,20162,1,2,0:2:0:0:
360,66,20335,5,2,3:2:0:0:
360,66,20418,1,2,3:2:0:0:
360,66,20501,2,0,P|397:88|408:178,1,130.639995614502,6|8,3:2|0:2,0:0:0:0:
342,228,21001,2,0,P|288:216|267:212,1,65.319997807251,2|0,0:2|3:2,0:0:0:0:
206,156,21334,2,0,P|152:169|104:175,1,97.9799967108766,10|0,0:2|0:0,0:0:0:0:
65,163,21667,6,0,P|27:193|25:273,1,130.639995614502,2|0,3:2|3:2,0:0:0:0:
83,340,22167,1,8,0:2:0:0:
175,314,22334,1,2,3:2:0:0:
175,314,22417,1,0,3:2:0:0:
175,314,22500,2,0,P|204:274|209:245,2,65.319997807251,0|8|0,3:2|0:2|3:2,0:0:0:0:
251,378,23000,5,0,3:2:0:0:
251,378,23084,1,0,3:2:0:0:
251,378,23167,2,0,B|332:362|299:329|375:321,1,130.639995614502,2|8,3:2|0:2,0:0:0:0:
453,349,23667,2,0,P|474:307|473:276,1,65.319997807251,2|0,0:2|3:2,0:0:0:0:
408,226,24000,2,0,L|395:149,1,65.319997807251,8|2,0:2|0:2,0:0:0:0:
436,78,24334,6,0,P|368:59|299:40,1,130.639995614502,2|0,3:2|3:2,0:0:0:0:
237,98,24834,1,8,0:2:0:0:
163,43,25000,1,10,0:2:0:0:
163,43,25084,1,8,0:2:0:0:
163,43,25167,2,0,L|174:0,2,32.6599989036255,8|8|8,3:2|0:2|0:2,0:0:0:0:
96,105,25500,1,4,3:0:0:0:
96,105,25667,1,4,3:0:0:0:
154,185,25834,6,0,P|185:152|260:159,1,116.440001776733,6|8,3:2|0:2,0:0:0:0:
301,219,26334,1,2,0:2:0:0:
301,219,26500,2,0,P|348:228|377:235,1,58.2200008883667,0|8,3:2|0:2,0:0:0:0:
415,300,26834,2,0,P|386:305|358:312,1,58.2200008883667,2|0,0:2|3:2,0:0:0:0:
299,368,27167,6,0,P|244:357|167:340,1,116.440001776733,2|8,3:2|0:2,0:0:0:0:
130,283,27667,1,2,0:0:0:0:
130,283,27834,2,0,P|119:234|113:214,1,58.2200008883667,0|0,3:2|3:2,0:0:0:0:
47,183,28167,1,10,0:2:0:0:
147,54,28500,6,0,P|185:28|268:37,1,116.440001776733,4|10,3:2|0:0,0:0:0:0:
288,102,29000,2,0,P|322:108|352:113,1,58.2200008883667,2|0,0:0|3:0,0:0:0:0:
398,49,29334,2,0,P|439:40|466:35,1,58.2200008883667,2|0,3:2|0:0,0:0:0:0:
511,95,29667,1,10,0:0:0:0:
447,146,29834,6,0,P|412:173|407:243,1,116.440001776733,2|8,0:0|0:0,0:0:0:0:
473,287,30334,2,0,P|428:265|351:293,1,116.440001776733,2|0,0:0|3:0,0:0:0:0:
325,350,30834,1,10,0:0:0:0:
212,232,31167,6,0,L|228:111,1,116.440001776733,4|8,3:2|0:0,0:0:0:0:
193,41,31667,2,0,P|146:14|70:40,1,116.440001776733,2|8,0:0|0:0,0:0:0:0:
30,84,32167,2,0,P|46:131|51:155,1,58.2200008883667,2|0,0:0|0:2,0:0:0:0:
4,208,32500,6,0,P|51:181|127:207,1,116.440001776733,2|8,0:0|0:0,0:0:0:0:
126,272,33000,2,0,P|168:281|240:297,1,116.440001776733,2|0,0:0|3:0,0:0:0:0:
287,363,33500,1,10,0:0:0:0:
425,276,33834,6,0,B|358:251|393:222|312:203,1,116.440001776733,2|8,3:2|0:0,0:0:0:0:
288,140,34334,1,0,3:2:0:0:
288,140,34500,2,0,P|283:88|341:47,1,116.440001776733,2|0,3:2|0:0,0:0:0:0:
400,10,35000,1,8,0:0:0:0:
456,68,35167,6,0,L|435:190,1,116.440001776733,2|8,0:0|0:0,0:0:0:0:
495,239,35667,1,2,0:0:0:0:
495,239,35834,2,0,L|507:300,1,58.2200008883667,0|0,3:2|3:2,0:0:0:0:
457,361,36167,1,10,0:0:0:0:
391,312,36334,5,8,0:0:0:0:
391,312,36417,1,8,0:0:0:0:
391,312,36500,2,0,P|328:297|273:288,1,116.440001776733,6|8,3:2|0:2,0:0:0:0:
206,329,37000,1,2,0:2:0:0:
206,329,37167,2,0,P|151:338|126:341,1,58.2200008883667,0|8,3:2|0:2,0:0:0:0:
84,287,37500,2,0,P|70:248|81:207,1,58.2200008883667,2|0,0:2|3:2,0:0:0:0:
132,177,37834,6,0,P|166:148|155:75,1,116.440001776733,2|8,3:2|0:2,0:0:0:0:
105,20,38334,1,2,0:0:0:0:
105,20,38500,2,0,P|61:32|29:42,1,58.2200008883667,0|0,3:2|3:2,0:0:0:0:
0,103,38834,1,10,0:2:0:0:
132,177,39167,6,0,P|185:162|269:145,1,116.440001776733,4|10,3:2|0:0,0:0:0:0:
286,78,39667,2,0,P|323:87|346:89,1,58.2200008883667,2|0,0:0|3:0,0:0:0:0:
364,167,40000,2,0,P|413:153|436:147,1,58.2200008883667,2|0,3:2|0:0,0:0:0:0:
491,190,40334,1,10,0:0:0:0:
443,255,40500,6,0,P|407:277|407:356,1,116.440001776733,2|8,0:0|0:0,0:0:0:0:
473,383,41000,2,0,P|395:368|349:360,1,116.440001776733,2|0,0:0|3:0,0:0:0:0:
278,379,41500,1,10,0:0:0:0:
249,218,41834,6,0,P|287:184|275:105,1,116.440001776733,4|8,3:2|0:0,0:0:0:0:
215,82,42334,1,0,0:0:0:0:
215,82,42500,2,0,L|137:101,1,58.2200008883667,2|0,0:0|3:0,0:0:0:0:
122,169,42834,2,0,P|89:159|52:152,1,58.2200008883667,8|0,0:0|0:0,0:0:0:0:
2,205,43167,6,0,P|20:258|24:282,1,58.2200008883667,6|0,3:2|0:0,0:0:0:0:
40,341,43500,2,0,P|77:357|101:353,1,58.2200008883667,10|0,0:0|0:0,0:0:0:0:
127,277,43834,2,0,P|164:261|188:265,1,58.2200008883667,2|0,0:0|3:2,0:0:0:0:
239,320,44167,1,10,0:0:0:0:
239,320,44334,1,2,0:2:0:0:
298,264,44500,6,0,P|283:181|279:143,1,116.440001776733,6|8,3:2|0:0,0:0:0:0:
197,145,45000,2,0,P|212:62|216:24,1,116.440001776733,2|0,0:0|3:0,0:0:0:0:
294,10,45500,1,10,0:0:0:0:
425,106,45834,5,2,3:2:0:0:
425,106,46000,1,0,3:0:0:0:
370,166,46167,2,0,L|306:176,1,58.2200008883667,8|8,0:0|0:0,0:0:0:0:
273,186,46417,1,8,0:0:0:0:
273,186,46500,1,8,0:0:0:0:
201,146,46667,1,8,3:0:0:0:
201,146,46834,2,0,L|143:137,1,58.2200008883667,8|4,3:0|3:0,0:0:0:0:
67,187,47167,6,0,P|80:227|88:263,1,65.319997807251,4|0,3:2|3:2,0:0:0:0:
41,330,47500,2,0,P|65:294|152:295,1,130.639995614502,10|10,0:0|0:0,0:0:0:0:
209,356,48000,1,8,0:0:0:0:
209,356,48167,1,10,0:0:0:0:
278,296,48334,6,0,P|315:283|345:278,1,65.319997807251,10|8,0:0|0:0,0:0:0:0:
410,337,48667,2,0,P|442:311|445:270,1,65.319997807251,10|8,0:0|0:0,0:0:0:0:
408,206,49000,1,10,0:0:0:0:
408,206,49167,1,10,0:0:0:0:
459,130,49334,6,0,P|500:73|475:0,1,130.639995614502,0|8,3:2|0:0,0:0:0:0:
399,33,49834,2,0,P|361:50|327:57,1,65.319997807251,0|0,3:2|3:2,0:0:0:0:
307,141,50167,6,0,L|233:129,1,65.319997807251,10|8,0:0|0:0,0:0:0:0:
206,46,50500,2,0,B|131:53|164:93|76:117,1,130.639995614502,10|10,0:0|0:0,0:0:0:0:
21,56,51000,2,0,P|-1:96|1:130,1,65.319997807251,10|8,0:0|0:0,0:0:0:0:
52,189,51334,2,0,P|74:229|72:263,1,65.319997807251,10|8,0:0|0:0,0:0:0:0:
13,316,51667,1,10,0:0:0:0:
89,366,51834,2,0,L|161:379,1,65.319997807251,10|8,0:0|0:0,0:0:0:0:
217,312,52167,1,10,0:0:0:0:
295,358,52334,6,0,P|249:316|257:238,1,130.639995614502,6|2,3:2|3:2,0:0:0:0:
340,259,52834,2,0,P|386:217|378:139,1,130.639995614502,10|0,0:0|3:2,0:0:0:0:
303,111,53334,1,8,0:0:0:0:
303,111,53500,1,2,0:0:0:0:
353,34,53667,6,0,P|403:-2|475:23,1,130.639995614502,2|0,3:2|3:2,0:0:0:0:
501,98,54167,1,8,0:0:0:0:
438,164,54334,2,0,L|392:155,2,32.6599989036255,8|8|0,0:0|0:0|3:2,0:0:0:0:
485,242,54667,2,0,L|494:315,1,65.319997807251,8|0,0:0|3:2,0:0:0:0:
416,356,55000,5,0,3:2:0:0:
416,356,55084,1,0,3:2:0:0:
416,356,55167,2,0,B|343:338|369:307|278:291,1,130.639995614502,2|10,3:2|0:0,0:0:0:0:
130,362,55834,1,2,3:2:0:0:
130,362,56000,2,0,L|112:284,1,65.319997807251,10|0,0:0|0:0,0:0:0:0:
37,248,56334,6,0,P|60:193|69:113,1,130.639995614502,2|0,3:2|3:2,0:0:0:0:
19,45,56834,1,8,0:0:0:0:
19,45,57000,2,0,L|156:12,1,130.639995614502,2|0,0:0|3:2,0:0:0:0:
221,66,57500,2,0,P|264:76|291:85,1,65.319997807251,10|0,0:0|0:0,0:0:0:0:
358,28,57834,1,4,3:2:0:0:
449,185,58167,6,0,P|397:154|329:193,1,130.639995614502,10|10,0:0|0:0,0:0:0:0:
281,252,58667,1,8,0:0:0:0:
281,252,58834,1,10,0:0:0:0:
195,218,59000,6,0,P|144:208|112:200,1,65.319997807251,10|8,0:0|0:0,0:0:0:0:
47,243,59334,2,0,P|17:275|14:308,1,65.319997807251,10|8,0:0|0:0,0:0:0:0:
82,354,59667,1,10,0:0:0:0:
82,354,59834,2,0,P|127:335|156:331,1,65.319997807251,10|0,0:0|3:0,0:0:0:0:
223,375,60167,1,10,0:0:0:0:
298,322,60334,6,0,P|316:287|420:287,1,130.639995614502,2|8,3:2|0:0,0:0:0:0:
468,331,60834,1,10,0:0:0:0:
468,331,61000,2,0,P|440:272|435:181,1,130.639995614502,10|8,0:0|0:0,0:0:0:0:
464,121,61500,1,10,0:0:0:0:
464,121,61667,2,0,P|411:109|385:101,1,65.319997807251,10|8,0:0|0:0,0:0:0:0:
335,170,62000,2,0,P|282:182|256:190,1,65.319997807251,10|8,0:0|0:0,0:0:0:0:
204,121,62334,5,10,0:0:0:0:
204,121,62417,1,8,0:0:0:0:
204,121,62500,1,10,0:0:0:0:
121,82,62667,1,8,0:0:0:0:
121,82,62834,2,0,P|100:37|96:11,1,65.319997807251,8|0,0:0|3:0,0:0:0:0:
52,141,63167,5,4,3:2:0:0:
57,283,63500,2,0,L|145:259,1,76.6800018720704,2|0,0:0|0:0,0:0:0:0:
159,285,63834,2,0,L|261:304,1,102.240002496094,10|2,0:0|0:0,0:0:0:0:
320,364,64334,1,0,0:0:0:0:
320,364,64500,1,0,3:2:0:0:
412,254,64834,2,0,L|514:231,2,102.240002496094,2|10|2,0:0|0:0|0:0,0:0:0:0:
283,78,65834,5,2,3:0:0:0:
475,142,66167,1,2,3:0:0:0:
422,337,66500,1,2,3:0:0:0:
422,337,66667,1,2,3:0:0:0:
151,197,67167,5,8,0:0:0:0:
246,230,67334,1,0,3:0:0:0:
216,326,67500,2,0,L|225:360,2,36.2100002210083,8|8|8,0:0|0:0|0:0,0:0:0:0:
118,294,67834,1,8,0:0:0:0:
118,294,68000,1,4,3:2:0:0:
348,51,68500,6,0,P|282:26|218:81,1,159.040001941406,6|8,3:2|0:0,0:0:0:0:
137,137,69000,1,0,0:0:0:0:
197,218,69167,2,0,P|238:207|272:194,1,72.4200004420166,2|0,3:2|3:2,0:0:0:0:
348,136,69500,1,10,0:0:0:0:
422,205,69667,2,0,P|450:238|440:283,1,72.4200004420166,2|0,0:0|3:2,0:0:0:0:
406,357,70000,6,0,B|322:335|367:299|271:283,1,144.840000884033,2|0,3:2|0:0,0:0:0:0:
210,355,70500,2,0,P|162:364|117:378,1,72.4200004420166,2|2,3:2|3:2,0:0:0:0:
53,314,70834,2,0,P|30:273|46:231,1,72.4200004420166,10|0,0:0|0:0,0:0:0:0:
117,192,71167,1,2,3:2:0:0:
13,18,71500,6,0,P|57:10|87:2,1,72.4200004420166,10|0,0:0|0:0,0:0:0:0:
135,91,71834,2,0,P|179:99|287:128,1,144.840000884033,2|10,3:2|0:0,0:0:0:0:
360,67,72334,2,0,P|386:28|371:-13,1,72.4200004420166,2|0,0:0|3:2,0:0:0:0:
279,23,72667,1,2,0:0:0:0:
275,124,72834,2,0,L|295:212,1,72.4200004420166,10|0,0:0|3:0,0:0:0:0:
313,210,73084,1,8,0:0:0:0:
313,210,73167,2,0,L|293:298,1,72.4200004420166,0|0,3:0|3:0,0:0:0:0:
357,362,73500,2,0,P|282:378|239:390,1,108.630000663025,10|0,0:0|0:0,0:0:0:0:
215,382,73834,6,0,P|171:356|179:255,1,144.840000884033,6|10,3:2|0:0,0:0:0:0:
275,124,74500,2,0,L|198:103,1,72.4200004420166,2|0,3:2|3:2,0:0:0:0:
167,10,74834,2,0,L|97:29,1,72.4200004420166,10|0,0:0|0:0,0:0:0:0:
21,96,75167,6,0,P|1:132|12:182,1,72.4200004420166,2|0,3:2|3:2,0:0:0:0:
94,205,75500,2,0,P|109:253|116:288,1,72.4200004420166,10|0,0:0|0:0,0:0:0:0:
96,375,75834,1,2,3:2:0:0:
96,375,76000,1,0,3:2:0:0:
197,375,76167,2,0,P|243:356|278:351,1,72.4200004420166,10|0,0:0|0:0,0:0:0:0:
365,366,76500,6,0,P|400:333|400:290,1,72.4200004420166,2|0,3:2|3:2,0:0:0:0:
316,257,76834,2,0,P|305:207|295:107,1,144.840000884033,10|2,0:0|3:2,0:0:0:0:
246,24,77334,1,0,3:2:0:0:
166,86,77500,2,0,P|118:72|89:69,1,72.4200004420166,10|0,0:0|0:0,0:0:0:0:
15,6,77834,1,0,3:2:0:0:
78,198,78167,6,0,P|99:241|104:279,1,72.4200004420166,12|0,0:0|0:0,0:0:0:0:
57,355,78500,1,2,3:2:0:0:
57,355,78584,1,2,3:2:0:0:
57,355,78667,2,0,L|7:337,4,36.2100002210083,2|8|10|8|8,3:2|0:0|0:0|0:0|0:0,0:0:0:0:
167,373,79167,6,0,B|258:343|218:300|306:287,1,159.040001941406,6|8,3:2|0:0,0:0:0:0:
391,347,79667,1,0,0:0:0:0:
461,273,79834,2,0,P|484:231|470:180,1,72.4200004420166,2|0,3:2|0:0,0:0:0:0:
402,145,80167,1,10,0:0:0:0:
312,193,80334,2,0,L|241:211,1,72.4200004420166,2|0,0:0|3:2,0:0:0:0:
151,256,80667,6,0,P|95:221|98:134,1,144.840000884033,2|0,3:2|0:0,0:0:0:0:
78,46,81167,2,0,P|136:63|166:65,1,72.4200004420166,2|0,3:2|3:2,0:0:0:0:
236,14,81500,2,0,P|286:2|315:0,1,72.4200004420166,8|0,0:0|0:0,0:0:0:0:
398,45,81834,5,6,3:2:0:0:
252,185,82167,1,14,0:0:0:0:
390,332,82500,2,0,L|410:217,1,108.630000663025,6|0,3:2|0:0,0:0:0:0:
412,196,82834,1,10,0:0:0:0:
327,245,83000,5,0,3:2:0:0:
327,245,83084,1,0,3:2:0:0:
327,245,83167,2,0,P|262:224|227:222,1,72.4200004420166,4|2,3:2|0:0,0:0:0:0:
174,281,83500,2,0,L|96:298,1,72.4200004420166,2|0,0:0|3:2,0:0:0:0:
85,304,83750,1,0,3:2:0:0:
85,304,83834,1,4,3:2:0:0:
5,241,84000,1,0,3:2:0:0:
50,150,84167,1,10,0:2:0:0:
201,15,84500,6,0,P|251:9|318:84,1,144.840000884033,6|8,3:2|0:2,0:0:0:0:
259,154,85000,1,0,0:0:0:0:
333,223,85167,2,0,P|385:209|431:207,1,72.4200004420166,2|0,3:2|3:2,0:0:0:0:
478,275,85500,2,0,P|501:306|501:353,1,72.4200004420166,8|0,0:2|0:0,0:0:0:0:
406,369,85834,6,0,L|273:337,1,108.630000663025,2|0,3:2|0:0,0:0:0:0:
278,325,86167,2,0,P|233:342|206:350,1,72.4200004420166,14|0,0:2|3:2,0:0:0:0:
173,254,86500,2,0,P|139:240|104:230,1,72.4200004420166,14|0,0:2|0:0,0:0:0:0:
15,279,86834,1,14,0:2:0:0:
15,279,87000,1,2,0:0:0:0:
87,207,87167,6,0,P|136:165|121:82,1,144.840000884033,4|8,3:2|0:2,0:0:0:0:
289,214,87834,1,0,3:2:0:0:
289,214,88000,1,0,3:2:0:0:
360,142,88167,1,8,0:2:0:0:
444,198,88334,1,2,0:0:0:0:
