osu file format v14

[General]
AudioFilename: d.mp3
AudioLeadIn: 0
PreviewTime: 67750
Countdown: 0
SampleSet: Soft
StackLeniency: 0.3
Mode: 0
LetterboxInBreaks: 0
WidescreenStoryboard: 1

[Editor]
Bookmarks: 1087,11491,20501,23667,25834,47167,52334,57834,68500,75500
DistanceSpacing: 1
BeatDivisor: 4
GridSize: 32
TimelineZoom: 2.4

[Metadata]
Title:Uso (TV Size)
TitleUnicode:嘘 (TV Size)
Artist:SID
ArtistUnicode:シド
Creator:Nevo
Version:pkhg's Insane
Source:鋼の錬金術師 FULLMETAL ALCHEMIST
Tags:ed version ending 1 anime shounen japanese pkhg enkrypton brotherhood Stixy
BeatmapID:2195593
BeatmapSetID:544412

[Difficulty]
HPDrainRate:6
CircleSize:3.6
OverallDifficulty:7
ApproachRate:8.5
SliderMultiplier:0.999999999999999
SliderTickRate:1

[Events]
//Background and Video events
Video,-1190,"video.flv"
0,0,"maxresdefault (3).jpg",0,0
//Break Periods
//Storyboard Layer 0 (Background)
//Storyboard Layer 1 (Fail)
//Storyboard Layer 2 (Pass)
//Storyboard Layer 3 (Foreground)
//Storyboard Layer 4 (Overlay)
//Storyboard Sound Samples

[TimingPoints]
-300,346.820809248555,4,2,0,30,1,0
393,-200,4,2,0,30,0,0
20335,333.333333333333,4,2,0,30,1,0
20501,333.333333333333,4,2,0,50,1,0
20501,-62.5,4,2,0,50,0,0
25834,-71.4285714285714,4,2,0,50,0,0
64167,-100,4,2,0,50,0,0
68500,-62.5,4,2,0,60,0,1
88334,-62.5,4,2,0,60,0,0

[Colours]
Combo1 : 95,95,207
Combo2 : 223,207,31
Combo3 : 95,207,207
Combo4 : 207,31,31

[HitObjects]
104,241,393,5,2,0:0:0:0:
190,256,740,1,0,0:0:0:0:
96,247,1087,6,0,L|194:264,1,99.9999999999999,2|2,0:0|0:0,0:0:0:0:
139,169,2127,5,0,0:0:0:0:
139,169,2301,2,0,L|187:177,1,50,2|2,0:0|0:0,0:0:0:0:
373,169,3168,6,0,L|324:177,1,50,2|0,0:0|0:0,0:0:0:0:
383,154,3861,2,0,L|334:162,1,50,2|0,0:0|0:0,0:0:0:0:
393,139,4555,2,0,L|344:147,1,50,2|0,0:0|0:0,0:0:0:0:
343,147,5075,1,2,0:0:0:0:
370,59,5422,1,2,0:0:0:0:
345,63,5595,1,0,0:0:0:0:
192,193,6289,5,2,0:0:0:0:
320,193,6636,1,2,0:0:0:0:
186,182,7330,6,0,L|136:173,1,50,2|0,0:0|0:0,0:0:0:0:
192,193,8023,2,0,L|142:184,1,50,2|0,0:0|0:0,0:0:0:0:
198,204,8717,2,0,L|148:195,1,50,2|0,0:0|0:0,0:0:0:0:
326,182,9410,6,0,L|375:173,1,50,2|0,0:0|0:0,0:0:0:0:
320,193,10104,2,0,L|369:184,1,50,2|0,0:0|0:0,0:0:0:0:
369,184,10798,5,2,0:0:0:0:
104,241,11491,5,2,0:0:0:0:
190,256,11838,1,0,0:0:0:0:
96,247,12185,6,0,L|194:264,1,99.9999999999999,2|2,0:0|0:0,0:0:0:0:
139,169,13225,5,0,0:0:0:0:
139,169,13399,2,0,L|187:177,1,50,2|2,0:0|0:0,0:0:0:0:
373,169,14266,6,0,L|324:177,1,50,2|0,0:0|0:0,0:0:0:0:
383,154,14959,2,0,L|334:162,1,50,2|0,0:0|0:0,0:0:0:0:
393,139,15653,2,0,L|344:147,1,50,2|0,0:0|0:0,0:0:0:0:
343,147,16173,1,2,0:0:0:0:
370,59,16520,1,2,0:0:0:0:
345,63,16693,1,0,0:0:0:0:
205,179,17387,5,2,0:0:0:0:
205,179,17734,2,0,P|255:176|305:179,1,99.9999999999999,0|2,0:0|0:0,0:0:0:0:
305,179,19121,5,2,0:0:0:0:
256,97,19468,1,0,0:0:0:0:
207,179,19815,1,2,0:0:0:0:
256,257,20162,1,0,0:0:0:0:
313,187,20335,5,0,0:0:0:0:
313,187,20418,1,0,0:0:0:0:
313,187,20501,2,0,P|389:174|449:223,1,160,4|0,0:0|1:0,0:0:0:0:
449,223,21001,1,2,0:0:0:0:
383,339,21167,2,0,P|372:301|366:262,2,79.9999999999999,0|0|0,0:0|1:0|0:0,0:0:0:0:
279,319,21667,6,0,P|203:294|123:298,1,160,2|0,0:0|0:0,0:0:0:0:
25,171,22167,2,0,P|35:209|42:248,1,79.9999999999999,0|0,1:0|0:0,0:0:0:0:
37,265,22417,1,0,1:0:0:0:
33,281,22500,2,0,P|40:320|51:359,2,79.9999999999999,0|0|0,0:0|1:0|0:0,0:0:0:0:
138,189,23000,5,2,0:0:0:0:
138,189,23084,1,0,0:0:0:0:
138,189,23167,2,0,L|300:177,1,160,2|0,0:0|1:0,0:0:0:0:
297,177,23667,1,2,0:0:0:0:
358,107,23834,1,0,0:0:0:0:
461,214,24000,2,0,P|421:220|383:231,1,79.9999999999999,0|2,1:0|0:0,0:0:0:0:
279,319,24334,6,0,P|203:294|123:298,1,160
0,234,24834,2,0,P|39:227|77:216,1,79.9999999999999,0|0,1:0|0:0,0:0:0:0:
168,143,25167,1,0,0:0:0:0:
204,128,25250,1,0,1:0:0:0:
244,130,25333,1,0,1:0:0:0:
279,148,25416,1,0,1:0:0:0:
304,179,25500,1,0,0:0:0:0:
218,222,25667,1,0,0:0:0:0:
347,264,25834,6,0,P|415:252|485:251,1,139.999995727539,4|0,0:0|1:0,0:0:0:0:
492,342,26334,2,0,P|423:355|354:356,1,139.999995727539,2|0,0:0|1:0,0:0:0:0:
271,320,26834,1,0,0:0:0:0:
271,320,27167,6,0,P|202:307|132:306,1,139.999995727539,2|0,0:0|1:0,0:0:0:0:
52,254,27667,2,0,P|39:185|38:115,1,139.999995727539,2|0,0:0|1:0,0:0:0:0:
161,25,28167,2,0,P|126:27|93:36,1,69.9999978637695,0|0,1:0|0:0,0:0:0:0:
255,61,28500,6,0,P|320:36|389:37,1,139.999995727539,2|0,0:0|1:0,0:0:0:0:
467,92,29000,2,0,P|477:126|479:161,1,69.9999978637695,2|0,0:0|0:0,0:0:0:0:
394,218,29334,2,0,P|384:184|382:149,1,69.9999978637695,2|0,0:0|0:0,0:0:0:0:
455,289,29667,6,0,P|388:267|319:272,1,139.999995727539,0|0,1:0|0:0,0:0:0:0:
235,366,30167,1,0,1:0:0:0:
159,310,30334,2,0,P|124:311|90:321,2,69.9999978637695,0|0|0,0:0|0:0|0:0,0:0:0:0:
319,272,30834,2,0,P|284:270|250:260,1,69.9999978637695,0|0,1:0|0:0,0:0:0:0:
83,183,31167,6,0,L|222:167,1,139.999995727539,4|0,0:0|1:0,0:0:0:0:
116,93,31667,2,0,L|255:77,1,139.999995727539,2|0,0:0|1:0,0:0:0:0:
337,31,32167,1,2,0:0:0:0:
427,64,32334,1,0,0:0:0:0:
337,31,32500,6,0,L|352:170,1,139.999995727539,2|0,0:0|1:0,0:0:0:0:
427,64,33000,2,0,L|442:203,1,139.999995727539,2|0,0:0|1:0,0:0:0:0:
407,324,33500,1,0,1:0:0:0:
407,324,33834,6,0,P|340:302|271:307,1,139.999995727539,4|0,0:0|1:0,0:0:0:0:
271,306,34500,1,2,0:0:0:0:
232,168,34667,2,0,P|222:201|220:236,1,69.9999978637695,0|0,1:0|0:0,0:0:0:0:
234,384,35000,6,0,L|89:365,1,139.999995727539,0|0,1:0|0:0,0:0:0:0:
9,255,35500,2,0,L|154:236,1,139.999995727539,0|0,1:0|0:0,0:0:0:0:
210,165,36000,1,0,0:0:0:0:
284,267,36167,1,0,1:0:0:0:
348,194,36334,5,0,0:0:0:0:
348,194,36417,1,0,0:0:0:0:
348,194,36500,2,0,P|415:172|484:177,1,139.999995727539,4|0,0:0|1:0,0:0:0:0:
497,272,37000,2,0,P|430:294|361:289,1,139.999995727539,0|0,0:0|1:0,0:0:0:0:
287,349,37500,1,0,0:0:0:0:
287,349,37834,6,0,P|220:327|151:332,1,139.999995727539,2|0,0:0|1:0,0:0:0:0:
102,251,38334,2,0,P|124:184|119:115,1,139.999995727539,2|0,0:0|0:0,0:0:0:0:
69,35,38834,2,0,L|0:24,1,69.9999978637695,0|0,1:0|0:0,0:0:0:0:
119,115,39167,6,0,L|257:93,1,139.999995727539,4|0,0:0|1:0,0:0:0:0:
416,115,39667,2,0,L|347:126,1,69.9999978637695,2|0,0:0|0:0,0:0:0:0:
215,208,40000,2,0,L|284:197,1,69.9999978637695,0|0,0:0|0:0,0:0:0:0:
512,208,40333,2,0,L|374:230,1,139.999995727539,0|0,1:2|0:0,0:0:0:0:
267,351,40834,1,0,1:0:0:0:
346,313,41000,2,0,L|208:291,1,139.999995727539,2|2,0:0|0:0,0:0:0:0:
51,329,41500,1,0,1:0:0:0:
128,197,41667,5,2,0:0:0:0:
128,197,41750,1,0,0:0:0:0:
128,196,41834,2,0,P|186:162|251:181,1,139.999995727539,4|0,0:0|1:0,0:0:0:0:
252,181,42334,1,0,0:0:0:0:
415,83,42500,2,0,P|357:117|292:98,1,139.999995727539,4|0,0:0|1:0,0:0:0:0:
291,98,43000,1,0,0:0:0:0:
426,200,43167,6,0,L|495:189,1,69.9999978637695,4|0,0:0|0:0,0:0:0:0:
308,297,43500,2,0,L|239:308,1,69.9999978637695,0|0,1:0|0:0,0:0:0:0:
420,211,43834,2,0,L|489:200,1,69.9999978637695,2|0,0:0|0:0,0:0:0:0:
314,286,44167,2,0,L|245:297,1,69.9999978637695,0|0,1:0|0:0,0:0:0:0:
230,307,44417,1,0,0:0:0:0:
216,318,44500,6,0,L|71:299,1,139.999995727539,4|0,0:0|1:0,0:0:0:0:
230,307,45000,2,0,L|85:288,1,139.999995727539,2|2,0:0|0:0,0:0:0:0:
309,342,45500,2,0,L|378:331,1,69.9999978637695,0|0,1:0|0:0,0:0:0:0:
165,244,45834,5,2,0:0:0:0:
230,152,46000,1,0,0:0:0:0:
61,199,46167,1,0,1:0:0:0:
141,79,46334,5,0,1:0:0:0:
121,85,46417,1,0,1:0:0:0:
101,90,46500,1,0,1:0:0:0:
228,55,46667,1,0,1:0:0:0:
145,166,46834,1,8,0:3:0:0:
15,112,47000,1,4,0:3:0:0:
228,55,47167,1,4,0:0:0:0:
114,331,47500,6,0,L|45:320,1,69.9999978637695,0|0,1:0|0:0,0:0:0:0:
196,284,47834,2,0,L|341:265,1,139.999995727539,2|0,0:0|1:0,0:0:0:0:
478,216,48334,2,0,L|409:205,1,69.9999978637695,0|0,1:0|0:0,0:0:0:0:
321,161,48667,1,2,0:0:0:0:
474,114,48834,2,0,L|405:103,1,69.9999978637695,0|2,1:0|0:0,0:0:0:0:
272,24,49167,2,0,L|341:35,2,69.9999978637695,0|0|0,1:0|0:0|1:0,0:0:0:0:
272,24,49667,1,0,0:0:0:0:
321,161,49834,5,2,0:0:0:0:
321,161,50167,2,0,L|182:142,2,139.999995727539,0|0|0,1:0|1:0|1:0,0:0:0:0:
237,52,51000,2,0,L|98:70,1,139.999995727539,2|0,0:0|1:0,0:0:0:0:
132,217,51500,2,0,L|201:228,1,69.9999978637695,0|2,1:0|0:0,0:0:0:0:
182,142,51834,1,0,1:0:0:0:
182,142,52000,1,0,0:0:0:0:
42,194,52167,1,0,1:0:0:0:
153,309,52334,6,0,P|220:287|289:292,1,139.999995727539,4|0,0:0|1:0,0:0:0:0:
433,252,52834,2,0,P|398:250|364:240,1,69.9999978637695,0|2,1:0|0:0,0:0:0:0:
304,163,53167,1,0,0:0:0:0:
424,255,53334,2,0,P|389:253|355:243,1,69.9999978637695,0|0,1:0|0:0,0:0:0:0:
210,170,53667,6,0,P|140:165|74:187,1,139.999995727539,2|0,0:0|0:0,0:0:0:0:
112,326,54167,1,0,1:0:0:0:
35,274,54334,2,0,L|0:271,2,34.9999989318848,0|0|0,0:0|1:0|0:0,0:0:0:0:
181,314,54667,2,0,L|112:325,1,69.9999978637695,0|0,1:0|0:0,0:0:0:0:
329,269,55000,5,2,0:0:0:0:
329,269,55084,1,0,0:0:0:0:
329,269,55167,2,0,L|260:258,1,69.9999978637695,0|0,0:0|0:0,0:0:0:0:
415,217,55500,2,0,L|484:206,1,69.9999978637695,0|0,1:0|0:0,0:0:0:0:
484,205,55834,1,0,0:0:0:0:
422,60,56000,2,0,L|433:129,1,69.9999978637695,0|0,1:0|0:0,0:0:0:0:
329,269,56334,6,0,P|257:256|190:251,1,139.999995727539,2|0,0:0|0:0,0:0:0:0:
85,384,56834,1,0,1:0:0:0:
8,345,57000,2,0,P|74:335|147:327,1,139.999995727539,2|0,0:0|0:0,0:0:0:0:
329,269,57500,2,0,P|294:265|259:257,1,69.9999978637695,0|0,1:0|0:0,0:0:0:0:
107,176,57834,1,4,0:0:0:0:
107,176,58167,6,0,L|176:165,1,69.9999978637695,0|0,1:0|0:0,0:0:0:0:
296,103,58500,2,0,L|227:92,2,69.9999978637695,0|0|0,1:0|0:0|1:0,0:0:0:0:
442,39,59000,2,0,L|373:50,1,69.9999978637695,0|2,1:0|0:0,0:0:0:0:
345,176,59334,2,0,L|414:165,2,69.9999978637695,2|0|0,0:0|1:0|0:0,0:0:0:0:
486,264,59834,1,0,1:0:0:0:
315,291,60000,2,0,L|384:280,1,69.9999978637695,2|0,0:0|1:0,0:0:0:0:
216,346,60334,6,0,L|77:328,1,139.999995727539,4|0,0:0|0:0,0:0:0:0:
216,229,60834,1,0,1:0:0:0:
125,250,61000,2,0,L|55:241,2,69.9999978637695,0|0|0,0:0|1:0|0:0,0:0:0:0:
285,237,61500,2,0,L|216:229,1,69.9999978637695,0|0,1:0|0:0,0:0:0:0:
417,97,61834,5,0,1:0:0:0:
330,148,62000,1,0,0:0:0:0:
474,179,62167,1,0,1:0:0:0:
374,288,62334,5,0,1:0:0:0:
379,264,62417,1,0,1:0:0:0:
385,240,62500,1,0,1:0:0:0:
417,97,62667,1,0,1:0:0:0:
330,148,62834,1,8,3:0:0:0:
474,179,63000,1,4,0:3:0:0:
363,336,63167,1,4,0:0:0:0:
149,336,63500,5,2,0:0:0:0:
237,298,63834,1,0,1:0:0:0:
159,238,64167,1,2,0:0:0:0:
363,336,64834,5,2,0:0:0:0:
275,298,65167,1,0,1:0:0:0:
352,238,65500,1,2,0:0:0:0:
256,25,65834,5,2,0:0:0:0:
256,121,66167,1,2,0:0:0:0:
256,225,66500,5,2,0:0:0:0:
256,273,66667,1,2,0:0:0:0:
256,273,67167,5,0,1:0:0:0:
132,181,67334,1,0,0:0:0:0:
278,121,67500,1,0,1:0:0:0:
278,121,67584,1,0,1:0:0:0:
278,121,67667,1,0,0:0:0:0:
149,285,67834,1,0,1:0:0:0:
302,364,68000,6,0,L|406:346,1,99.9999999999999,4|0,0:0|0:0,0:0:0:0:
415,338,68417,1,0,0:0:0:0:
427,325,68500,6,0,P|447:248|440:169,1,160,4|2,0:0|1:2,0:0:0:0:
370,70,69000,1,0,0:0:0:0:
259,177,69167,2,0,P|297:167|336:160,2,79.9999999999999,2|0|2,0:0|0:0|1:2,0:0:0:0:
49,72,69667,6,0,P|108:121|185:108,1,160,2|2,0:0|0:0,0:0:0:0:
279,0,70167,1,2,1:2:0:0:
136,41,70334,1,0,0:0:0:0:
136,41,70417,1,2,1:2:0:0:
136,41,70500,1,0,0:0:0:0:
270,89,70667,1,0,0:0:0:0:
145,190,70834,2,0,P|106:179|66:172,1,79.9999999999999,2|0,1:2|0:0,0:0:0:0:
235,276,71167,6,0,P|312:254|391:243,1,160,4|2,0:0|1:2,0:0:0:0:
479,281,71667,1,0,0:0:0:0:
370,153,71834,2,0,P|292:131|213:120,1,160,2|2,0:0|1:2,0:0:0:0:
459,190,72334,6,0,P|379:201|302:222,1,160,2|2,0:0|0:0,0:0:0:0:
210,344,72834,1,2,1:2:0:0:
135,288,73000,1,0,0:0:0:0:
135,288,73084,1,2,1:2:0:0:
135,288,73167,1,0,0:0:0:0:
221,251,73334,1,0,0:0:0:0:
168,113,73500,2,0,P|157:152|150:192,1,79.9999999999999,2|0,1:2|0:0,0:0:0:0:
300,311,73834,6,0,P|377:289|456:278,1,160,4|2,0:0|1:2,0:0:0:0:
456,278,74500,2,0,P|416:282|377:290,1,79.9999999999999,2|0,0:0|0:0,0:0:0:0:
241,203,74834,2,0,P|280:211|319:215,1,79.9999999999999,2|0,1:2|0:0,0:0:0:0:
409,67,75167,6,0,P|404:106|396:145,1,79.9999999999999,4|0,0:0|0:0,0:0:0:0:
282,0,75500,2,0,P|287:39|295:78,1,79.9999999999999,2|0,1:2|0:0,0:0:0:0:
472,138,75834,2,0,P|433:143|394:151,1,79.9999999999999,2|0,0:0|0:0,0:0:0:0:
242,214,76167,2,0,P|281:219|320:227,1,79.9999999999999,2|0,1:2|0:0,0:0:0:0:
177,134,76500,6,0,P|182:95|190:56,1,79.9999999999999,4|0,0:0|0:0,0:0:0:0:
80,210,76834,2,0,P|75:171|67:132,1,79.9999999999999,2|0,1:2|0:0,0:0:0:0:
184,126,77167,2,0,P|189:87|197:48,1,79.9999999999999,2|0,0:2|0:0,0:0:0:0:
73,202,77500,2,0,P|68:163|60:124,1,79.9999999999999,2|0,1:2|0:0,0:0:0:0:
254,228,77834,2,0,P|232:305|221:384,1,160,4|2,0:0|1:2,0:0:0:0:
395,145,78500,5,4,0:3:0:0:
499,190,78667,1,0,0:0:0:0:
481,225,78750,1,0,0:0:0:0:
450,250,78833,1,0,1:0:0:0:
413,263,78916,1,0,1:0:0:0:
373,260,79000,1,2,1:2:0:0:
337,243,79083,1,2,1:2:0:0:
306,217,79167,6,0,P|229:203|169:252,1,160,4|2,0:0|1:2,0:0:0:0:
137,345,79667,1,0,0:0:0:0:
89,195,79834,2,0,P|79:233|72:272,1,79.9999999999999,2|0,0:0|0:0,0:0:0:0:
137,345,80167,1,2,1:2:0:0:
310,317,80334,6,0,P|271:306|232:300,1,79.9999999999999,2|0,0:0|0:0,0:0:0:0:
392,258,80667,2,0,P|430:247|470:240,1,79.9999999999999,2|2,0:0|1:2,0:0:0:0:
295,203,81000,1,0,0:0:0:0:
295,203,81084,1,2,1:2:0:0:
295,203,81167,1,0,0:0:0:0:
387,146,81334,1,0,0:0:0:0:
239,106,81500,1,2,1:2:0:0:
333,50,81667,5,0,0:0:0:0:
333,50,81750,1,0,0:0:0:0:
333,50,81834,2,0,P|253:47|174:33,1,160,4|2,0:0|1:2,0:0:0:0:
174,33,82334,1,0,0:0:0:0:
37,176,82501,2,0,P|116:162|196:160,1,160,4|2,0:0|1:2,0:0:0:0:
375,271,83000,5,4,0:3:0:0:
375,271,83083,1,0,0:0:0:0:
375,271,83167,2,0,P|296:257|217:255,1,160,4|2,0:0|1:2,0:0:0:0:
114,180,83667,1,0,0:0:0:0:
114,180,83750,1,2,1:2:0:0:
114,180,83834,1,0,0:0:0:0:
184,110,84000,1,0,0:0:0:0:
23,73,84167,2,0,P|61:62|101:55,1,79.9999999999999,2|0,1:2|0:0,0:0:0:0:
281,120,84500,6,0,P|361:117|440:103,1,160,4|2,0:0|1:2,0:0:0:0:
439,103,85000,1,0,0:0:0:0:
348,253,85167,2,0,P|269:239|189:236,1,160,2|2,0:0|1:2,0:0:0:0:
189,236,85834,6,0,P|183:197|171:159,1,79.9999999999999,4|0,0:0|0:0,0:0:0:0:
286,320,86167,2,0,P|292:280|304:242,1,79.9999999999999,2|0,1:2|0:0,0:0:0:0:
162,148,86500,2,0,P|174:186|180:225,1,79.9999999999999,4|0,0:0|0:0,0:0:0:0:
126,334,86834,1,2,1:2:0:0:
279,259,87000,5,2,0:0:0:0:
279,259,87084,1,0,0:0:0:0:
279,259,87167,2,0,P|356:245|416:294,1,160,4|2,0:0|1:2,0:0:0:0:
415,293,87667,1,0,0:0:0:0:
331,339,87834,1,0,0:0:0:0:
448,196,88000,5,2,0:0:0:0:
279,259,88167,1,2,1:2:0:0:
423,92,88334,1,4,0:0:0:0:
