osu file format v14

[General]
AudioFilename: d.mp3
AudioLeadIn: 0
PreviewTime: 67750
Countdown: 0
SampleSet: Soft
StackLeniency: 0.4
Mode: 0
LetterboxInBreaks: 0
WidescreenStoryboard: 1

[Editor]
Bookmarks: 10624,20501,25834,47167,68500,77500,88334
DistanceSpacing: 1.9
BeatDivisor: 4
GridSize: 32
TimelineZoom: 1.3

[Metadata]
Title:Uso (TV Size)
TitleUnicode:嘘 (TV Size)
Artist:SID
ArtistUnicode:シド
Creator:Nevo
Version:Hard
Source:鋼の錬金術師 FULLMETAL ALCHEMIST
Tags:ed version ending 1 anime shounen japanese pkhg enkrypton brotherhood Stixy
BeatmapID:2188133
BeatmapSetID:544412

[Difficulty]
HPDrainRate:5
CircleSize:4
OverallDifficulty:6
ApproachRate:8
SliderMultiplier:1.2
SliderTickRate:1

[Events]
//Background and Video events
Video,-1190,"video.flv"
0,0,"maxresdefault (3).jpg",0,0
//Break Periods
//Storyboard Layer 0 (Background)
//Storyboard Layer 1 (Fail)
//Storyboard Layer 2 (Pass)
//Storyboard Layer 3 (Foreground)
//Storyboard Layer 4 (Overlay)
//Storyboard Sound Samples

[TimingPoints]
-300,346.820809248555,4,2,1,40,1,0
393,-100,4,2,1,40,0,0
1087,-100,4,2,1,40,0,0
20335,333.333333333333,4,2,1,40,1,0
20501,333.333333333333,4,2,1,60,1,0
23167,-100,4,2,1,60,0,0
25834,-100,4,2,1,60,0,0
31167,-100,4,2,1,60,0,0
63167,-100,4,2,1,70,0,0
68500,-100,4,2,1,90,0,1
88500,-100,4,2,1,90,0,0

[Colours]
Combo1 : 95,95,207
Combo2 : 223,207,31
Combo3 : 95,207,207
Combo4 : 207,31,31

[HitObjects]
121,95,393,6,0,L|126:160,1,60,2|0,0:0|0:0,0:0:0:0:
194,195,740,2,0,L|189:260,1,60,2|0,0:0|0:0,0:0:0:0:
130,325,1087,6,0,P|170:297|297:331,1,180,2|0,0:0|0:0,0:0:0:0:
389,327,1780,2,0,B|374:287|374:287|390:206,1,120,2|0,0:0|0:0,0:0:0:0:
409,118,2301,6,0,L|346:130,1,60,2|0,0:0|0:0,0:0:0:0:
289,196,2647,2,0,L|226:184,1,60,2|0,0:0|0:0,0:0:0:0:
29,89,3168,2,0,L|110:77,1,60,2|0,0:0|0:0,0:0:0:0:
151,20,3515,2,0,L|232:32,1,60,2|0,0:0|0:0,0:0:0:0:
306,104,3861,6,0,L|439:95,2,120,2|2|2,0:0|0:0|0:0,0:0:0:0:
117,217,4902,1,0,0:0:0:0:
117,217,5075,6,0,P|112:256|170:314,1,120,2|0,0:0|0:0,0:0:0:0:
251,264,5595,2,0,P|289:255|379:284,1,120,2|0,0:0|0:0,0:0:0:0:
487,108,6289,2,0,L|413:113,1,60,2|0,0:0|0:0,0:0:0:0:
351,174,6636,6,0,L|158:151,1,180,2|0,0:0|0:0,0:0:0:0:
90,94,7330,2,0,P|85:64|88:34,1,60,2|0,0:0|0:0,0:0:0:0:
217,13,7676,2,0,P|221:42|218:72,1,60,2|0,0:0|0:0,0:0:0:0:
172,152,8023,6,0,L|183:227,1,60,2|0,0:0|0:0,0:0:0:0:
264,267,8370,2,0,L|272:207,1,60,2|0,0:0|0:0,0:0:0:0:
356,152,8717,2,0,L|364:211,1,60,2|0,0:0|0:0,0:0:0:0:
448,267,9064,2,0,L|456:207,1,60,2|0,0:0|0:0,0:0:0:0:
477,84,9410,6,0,P|432:78|409:83,1,60,2|0,0:0|0:0,0:0:0:0:
356,152,9757,2,0,P|311:158|288:153,1,60,2|0,0:0|0:0,0:0:0:0:
245,80,10104,2,0,P|200:74|177:79,1,60,2|0,0:0|0:0,0:0:0:0:
124,148,10451,2,0,P|79:154|56:149,1,60,2|0,0:0|0:0,0:0:0:0:
6,82,10798,6,0,L|22:227,1,120,2|0,0:0|0:0,0:0:0:0:
129,337,11491,2,0,L|137:257,1,60,2|0,0:0|0:0,0:0:0:0:
216,240,11838,2,0,L|208:160,1,60,2|0,0:0|0:0,0:0:0:0:
118,68,12185,6,0,P|154:119|277:91,1,180,2|0,0:0|0:0,0:0:0:0:
341,31,12879,2,0,L|407:43,1,60,2|0,0:0|0:0,0:0:0:0:
466,95,13226,1,0,0:0:0:0:
392,167,13399,6,0,P|390:205|394:234,1,60,2|0,0:0|0:0,0:0:0:0:
467,293,13746,2,0,P|411:280|329:277,1,120,2|0,0:0|0:0,0:0:0:0:
285,342,14266,2,0,P|235:344|205:342,1,60,2|0,0:0|0:0,0:0:0:0:
165,279,14613,2,0,P|115:277|85:279,1,60,2|0,0:0|0:0,0:0:0:0:
21,219,14960,6,0,L|34:144,1,60,2|0,0:0|0:0,0:0:0:0:
105,134,15306,2,0,L|92:59,1,60,2|0,0:0|0:0,0:0:0:0:
178,84,15653,2,0,P|226:108|305:89,1,120,2|0,0:0|0:0,0:0:0:0:
370,57,16173,6,0,P|418:33|497:52,1,120,2|0,0:0|0:0,0:0:0:0:
512,124,16694,2,0,L|504:254,1,120,2|0,0:0|0:0,0:0:0:0:
275,291,17387,2,0,L|265:221,1,60,2|0,0:0|0:0,0:0:0:0:
188,156,17734,6,0,P|136:151|65:189,1,120,2|0,0:0|0:0,0:0:0:0:
60,349,18428,2,0,P|113:375|172:371,1,120,2|0,0:0|0:0,0:0:0:0:
294,273,19121,6,0,L|287:201,1,60,2|0,0:0|0:0,0:0:0:0:
208,178,19468,2,0,L|215:106,1,60,2|0,0:0|0:0,0:0:0:0:
156,48,19815,2,0,P|111:41|81:52,1,60,2|0,0:0|0:0,0:0:0:0:
32,113,20162,2,0,L|36:172,1,60,2|0,0:0|3:0,0:0:0:0:
77,298,20501,6,0,P|115:311|194:286,1,120,4|8,3:2|0:0,0:0:0:0:
244,210,21001,2,0,L|238:133,1,60,0|0,0:0|3:0,0:0:0:0:
157,91,21334,2,0,L|163:14,1,60,8|2,0:0|0:1,0:0:0:0:
254,72,21667,6,0,P|308:82|382:38,1,120,0|0,3:0|3:0,0:0:0:0:
431,3,22167,1,8,0:0:0:0:
512,27,22334,1,0,0:0:0:0:
509,110,22500,2,0,P|511:159|505:194,1,60,0|8,3:0|0:0,0:0:0:0:
417,211,22834,2,0,P|415:260|421:295,1,60,0|2,3:0|3:1,0:0:0:0:
512,373,23167,6,0,P|463:352|385:367,1,120,2|8,3:0|0:0,0:0:0:0:
304,324,23667,2,0,P|255:345|177:330,1,120,0|8,0:0|0:0,0:0:0:0:
129,267,24167,2,0,L|142:201,1,60,2|0,0:1|3:0,0:0:0:0:
31,89,24500,6,0,L|47:212,1,120,2|8,0:1|0:0,0:0:0:0:
127,129,25000,1,2,3:1:0:0:
207,159,25167,1,2,0:1:0:0:
278,95,25334,1,8,0:0:0:0:
278,95,25417,1,8,0:0:0:0:
278,95,25500,2,0,L|278:50,2,30,2|2|2,3:0|3:0|3:0,0:0:0:0:
331,199,25834,6,0,P|384:173|454:177,1,120,4|8,3:2|0:0,0:0:0:0:
366,272,26334,2,0,P|313:246|243:250,1,120,0|8,0:0|0:0,0:0:0:0:
171,303,26834,2,0,P|131:312|103:306,1,60,2|0,0:1|0:0,0:0:0:0:
29,253,27167,6,0,B|23:189|23:189|40:129,1,120,2|8,0:1|0:0,0:0:0:0:
172,119,27667,2,0,B|187:65|187:65|181:1,1,120,0|0,0:0|3:0,0:0:0:0:
34,76,28167,2,0,P|30:103|42:143,1,60,8|0,0:0|0:0,0:0:0:0:
159,221,28500,6,0,P|197:221|237:204,1,60,4|0,3:2|0:0,0:0:0:0:
286,140,28834,1,8,0:0:0:0:
364,203,29000,2,0,L|355:277,1,60,0|0,3:0|3:0,0:0:0:0:
443,373,29334,2,0,L|435:313,1,60,0|2,3:0|0:1,0:0:0:0:
476,202,29667,6,0,P|435:219|343:182,1,120,8|0,0:0|3:0,0:0:0:0:
402,71,30167,2,0,L|416:137,1,60,8|0,0:0|0:0,0:0:0:0:
341,226,30500,1,2,0:1:0:0:
271,159,30667,1,0,3:0:0:0:
187,206,30834,2,0,L|190:287,1,60,8|0,0:0|0:0,0:0:0:0:
23,330,31167,6,0,P|47:279|110:243,1,120,4|8,3:2|0:0,0:0:0:0:
240,350,31667,2,0,L|109:340,1,120,0|8,0:0|0:0,0:0:0:0:
27,240,32167,2,0,P|22:201|30:170,1,60,2|0,0:1|0:0,0:0:0:0:
128,95,32500,6,0,L|112:224,1,120,2|8,0:1|0:0,0:0:0:0:
225,230,33000,2,0,L|241:359,1,120,0|0,0:0|3:0,0:0:0:0:
325,383,33500,2,0,P|368:383|390:367,1,60,8|0,0:0|0:0,0:0:0:0:
472,302,33834,6,0,L|342:282,1,120,4|8,3:2|0:0,0:0:0:0:
315,205,34334,1,0,3:0:0:0:
388,151,34500,2,0,P|397:110|367:29,1,120,0|2,3:0|0:1,0:0:0:0:
284,8,35000,1,8,0:0:0:0:
205,90,35167,6,0,B|178:105|144:90|144:90|111:77|79:91,1,120,2|8,0:1|0:0,0:0:0:0:
3,326,35834,2,0,P|30:318|70:301,1,60,2|0,0:1|3:0,0:0:0:0:
129,225,36167,2,0,L|206:237,1,60,8|2,0:0|3:0,0:0:0:0:
211,254,36417,1,2,3:0:0:0:
211,254,36500,6,0,L|340:245,1,120,4|8,3:2|0:0,0:0:0:0:
381,165,37000,2,0,L|500:173,1,120,0|8,0:0|0:0,0:0:0:0:
397,76,37500,2,0,L|318:81,1,60,2|0,0:1|0:0,0:0:0:0:
257,147,37834,6,0,P|222:132|121:134,1,120,2|8,0:1|0:0,0:0:0:0:
61,247,38334,2,0,P|96:232|197:234,1,120,0|0,0:0|3:0,0:0:0:0:
248,305,38834,2,0,P|294:308|323:302,1,60,8|0,0:0|0:0,0:0:0:0:
442,260,39167,6,0,P|447:212|445:174,1,60,4|0,3:2|0:0,0:0:0:0:
354,149,39500,1,8,0:0:0:0:
439,94,39667,2,0,L|515:102,1,60,0|0,3:0|3:0,0:0:0:0:
385,27,40000,2,0,L|309:35,1,60,0|2,3:0|0:1,0:0:0:0:
211,137,40334,6,0,P|159:138|108:80,1,120,8|0,0:0|3:0,0:0:0:0:
16,28,40834,2,0,L|25:104,1,60,8|0,0:0|0:0,0:0:0:0:
0,199,41167,1,2,0:1:0:0:
75,243,41334,1,0,3:0:0:0:
153,197,41500,2,0,P|182:200|211:209,1,60,8|0,0:0|0:0,0:0:0:0:
319,313,41834,6,0,P|378:316|434:295,1,120,6|8,3:2|0:0,0:0:0:0:
484,220,42334,1,0,0:0:0:0:
393,150,42500,2,0,L|403:22,1,120,2|12,0:0|0:0,0:0:0:0:
166,167,43167,6,0,L|173:231,1,60,6|0,3:2|0:0,0:0:0:0:
250,269,43500,2,0,L|243:333,1,60,8|2,0:0|0:0,0:0:0:0:
171,384,43834,2,0,P|136:383|103:368,1,60,2|0,0:1|3:0,0:0:0:0:
33,319,44167,1,8,0:0:0:0:
92,260,44334,1,2,3:0:0:0:
28,177,44500,6,0,L|36:55,1,120,6|8,3:2|0:0,0:0:0:0:
128,119,45000,2,0,P|172:138|241:116,1,120,0|0,0:0|3:0,0:0:0:0:
305,63,45500,2,0,L|381:70,1,60,8|2,0:0|3:0,0:0:0:0:
461,115,45834,6,0,P|467:153|465:188,1,60,6|0,3:2|3:0,0:0:0:0:
391,237,46167,1,8,0:0:0:0:
462,317,46334,1,2,3:0:0:0:
462,317,46417,1,8,0:0:0:0:
462,317,46500,1,0,3:0:0:0:
357,356,46667,2,0,L|281:364,2,60,2|0|0,3:0|3:0|3:0,0:0:0:0:
243,284,47167,6,0,L|116:277,1,120,6|8,3:2|0:0,0:0:0:0:
32,251,47667,1,0,0:0:0:0:
111,197,47834,2,0,P|123:155|119:131,1,60,0|0,3:0|3:0,0:0:0:0:
42,85,48167,1,8,0:0:0:0:
117,33,48334,6,0,L|199:41,1,60
231,105,48667,2,0,L|316:92,1,60,0|8,3:0|0:0,0:0:0:0:
369,35,49000,1,0,3:0:0:0:
450,112,49167,2,0,L|434:256,1,120,8|8,0:0|0:0,0:0:0:0:
365,298,49667,1,0,3:0:0:0:
285,221,49834,6,0,P|227:215|149:225,1,120,2|8,3:2|0:0,0:0:0:0:
77,259,50334,1,0,3:0:0:0:
131,355,50500,2,0,L|211:348,1,60,8|0,0:0|3:0,0:0:0:0:
267,304,50834,1,8,0:0:0:0:
347,360,51000,6,0,P|379:366|427:349,1,60,0|10,3:0|0:2,0:0:0:0:
456,283,51334,2,0,L|447:211,1,60,0|8,0:0|0:0,0:0:0:0:
480,137,51667,1,0,3:0:0:0:
417,68,51834,2,0,P|376:59|346:65,1,60,0|0,3:0|3:0,0:0:0:0:
281,117,52167,1,8,0:0:0:0:
187,39,52334,6,0,L|59:48,1,120,6|0,3:2|3:0,0:0:0:0:
8,145,52834,2,0,L|136:154,1,120,10|0,2:1|3:0,0:0:0:0:
265,184,53334,1,8,0:0:0:0:
212,117,53500,1,2,2:1:0:0:
173,236,53667,6,0,P|181:283|208:352,1,120,0|0,3:0|3:0,0:0:0:0:
304,350,54167,2,0,P|327:294|339:236,1,120,10|2,0:1|3:1,0:0:0:0:
301,131,54667,1,8,0:0:0:0:
364,77,54834,1,2,3:1:0:0:
433,179,55000,1,2,0:1:0:0:
433,179,55084,1,2,0:1:0:0:
433,179,55167,6,0,L|512:169,1,60,0|2,3:0|0:1,0:0:0:0:
449,272,55500,2,0,L|378:268,1,60,10|2,0:1|0:1,0:0:0:0:
307,222,55834,1,2,3:1:0:0:
248,322,56000,2,0,P|204:319|179:313,1,60,8|2,0:0|0:1,0:0:0:0:
103,231,56334,6,0,L|98:148,1,60,0|2,3:0|0:1,0:0:0:0:
53,77,56667,1,0,3:0:0:0:
137,97,56834,1,8,0:0:0:0:
213,47,57000,2,0,P|266:54|338:29,1,120,2|0,0:1|3:0,0:0:0:0:
446,106,57500,2,0,P|412:98|380:93,1,60,8|0,0:0|0:0,0:0:0:0:
293,171,57834,6,0,L|305:251,1,60,6|0,3:2|0:0,0:0:0:0:
372,304,58167,2,0,P|410:314|453:299,1,60,8|0,0:0|3:0,0:0:0:0:
474,222,58500,2,0,L|409:228,1,60,2|0,3:0|3:0,0:0:0:0:
284,322,58834,1,8,0:0:0:0:
284,322,59000,2,0,L|219:316,1,60,2|2,3:0|3:0,0:0:0:0:
174,246,59334,2,0,L|114:251,1,60,2|8,3:0|0:0,0:0:0:0:
48,308,59667,1,2,3:0:0:0:
8,213,59834,2,0,P|2:170|16:129,1,60,2|0,3:0|3:0,0:0:0:0:
52,82,60167,1,8,0:0:0:0:
146,146,60334,6,0,P|184:152|279:127,1,120,6|0,3:2|0:0,0:0:0:0:
315,62,60834,1,8,0:0:0:0:
352,152,61000,2,0,P|411:146|468:162,1,120,2|2,3:0|3:0,0:0:0:0:
512,247,61500,1,8,0:0:0:0:
422,280,61667,6,0,P|392:270|344:272,1,60,2|2,3:0|3:0,0:0:0:0:
290,326,62000,2,0,L|307:406,2,60,2|8|2,0:0|0:0|3:0,0:0:0:0:
224,243,62500,1,8,0:0:0:0:
157,334,62667,1,8,0:0:0:0:
99,235,62834,2,0,L|100:158,1,60,8|0,3:0|3:0,0:0:0:0:
32,66,63167,6,0,P|69:50|101:48,1,60,6|0,3:2|0:0,0:0:0:0:
151,106,63500,2,0,L|212:96,1,60,2|0,0:1|3:0,0:0:0:0:
250,167,63834,2,0,L|311:157,1,60,2|0,0:1|0:0,0:0:0:0:
381,95,64167,2,0,L|440:104,1,60,2|0,0:1|3:0,0:0:0:0:
512,187,64500,5,2,0:1:0:0:
412,309,64834,2,0,P|371:310|346:300,1,60,2|0,0:0|3:0,0:0:0:0:
291,233,65167,2,0,P|250:232|225:242,1,60,10|0,0:1|0:0,0:0:0:0:
168,304,65500,1,2,0:1:0:0:
84,156,65834,5,2,3:0:0:0:
232,238,66167,1,2,3:0:0:0:
288,74,66500,2,0,P|334:61|361:62,1,60,2|2,3:0|3:0,0:0:0:0:
143,162,67167,6,0,L|63:153,1,60,10|2,3:2|0:1,0:0:0:0:
34,229,67417,1,0,0:0:0:0:
34,229,67500,2,0,L|93:235,1,60,8|8,0:0|0:0,0:0:0:0:
209,333,67834,6,0,L|285:323,1,60,10|2,0:0|0:1,0:0:0:0:
326,251,68167,2,0,L|402:261,1,60,2|0,0:0|3:0,0:0:0:0:
457,326,68500,6,0,P|436:284|448:204,1,120,6|8,3:2|0:0,0:0:0:0:
497,139,69000,1,0,3:0:0:0:
409,89,69167,2,0,L|325:98,1,60,0|0,3:0|3:0,0:0:0:0:
301,175,69500,1,8,0:0:0:0:
210,123,69667,2,0,L|130:115,1,60,2|2,0:0|3:2,0:0:0:0:
45,233,70000,6,0,L|173:215,1,120,0|0,3:0|3:0,0:0:0:0:
248,274,70500,2,0,P|259:321|255:349,1,60,2|0,3:2|3:0,0:0:0:0:
171,384,70834,2,0,P|160:337|164:309,1,60,8|0,0:0|3:0,0:0:0:0:
169,194,71167,6,0,L|181:119,1,60,2|0,3:2|3:0,0:0:0:0:
276,73,71500,2,0,L|285:132,1,60,8|0,0:0|0:0,0:0:0:0:
402,222,71834,2,0,P|456:222|523:180,1,120,2|8,3:2|0:0,0:0:0:0:
474,53,72334,6,0,P|420:53|353:95,1,120,2|0,3:2|3:0,0:0:0:0:
300,176,72834,2,0,L|230:165,1,60,8|0,0:0|3:0,0:0:0:0:
209,149,73084,1,8,0:0:0:0:
209,149,73167,2,0,L|139:160,1,60,2|0,3:2|3:0,0:0:0:0:
70,193,73500,2,0,P|73:238|83:256,1,60,8|0,0:0|3:0,0:0:0:0:
159,322,73834,6,0,L|236:309,1,60,6|0,3:2|0:0,0:0:0:0:
291,254,74167,1,8,0:0:0:0:
361,333,74334,1,0,3:0:0:0:
404,258,74500,2,0,L|474:250,1,60,2|0,3:2|3:0,0:0:0:0:
512,165,74834,2,0,L|442:157,1,60,8|0,0:0|0:0,0:0:0:0:
322,89,75167,6,0,B|270:81|229:96|229:96|193:134,2,120,2|8|0,3:2|0:0|3:0,0:0:0:0:
395,134,76000,1,0,3:0:0:0:
432,224,76167,2,0,P|437:258|421:303,1,60,8|0,0:0|0:0,0:0:0:0:
334,352,76500,6,0,L|321:264,1,60,2|0,3:2|3:0,0:0:0:0:
243,236,76834,2,0,L|230:324,1,60,10|0,0:0|3:0,0:0:0:0:
152,352,77167,2,0,L|139:264,1,60,2|8,3:2|3:0,0:0:0:0:
61,236,77500,2,0,L|48:324,1,60,10|0,0:1|0:0,0:0:0:0:
147,205,77834,6,0,L|138:63,1,120,2|8,3:2|0:0,0:0:0:0:
195,13,78334,1,0,0:0:0:0:
289,88,78500,1,2,3:0:0:0:
289,88,78584,1,2,3:0:0:0:
289,88,78667,2,0,L|283:128,4,30,2|2|8|8|8,3:0|3:0|0:0|0:0|0:0,0:0:0:0:
365,35,79167,6,0,P|407:14|487:26,1,120,6|8,3:2|0:0,0:0:0:0:
512,127,79667,1,0,3:0:0:0:
438,185,79834,2,0,L|354:194,1,60,0|0,3:0|3:0,0:0:0:0:
304,156,80167,1,8,0:0:0:0:
268,271,80334,2,0,L|188:263,1,60,2|2,0:0|3:2,0:0:0:0:
42,211,80667,6,0,L|170:193,1,120,0|0,3:0|3:0,0:0:0:0:
230,113,81167,2,0,P|229:83|219:54,1,60,2|0,3:2|3:0,0:0:0:0:
94,25,81501,2,0,P|94:54|104:83,1,60,8|0,0:0|3:0,0:0:0:0:
160,194,81834,6,0,L|150:253,1,60,6|0,3:2|3:0,0:0:0:0:
63,288,82167,2,0,L|72:347,1,60,8|0,0:0|0:0,0:0:0:0:
197,379,82501,2,0,P|251:379|318:337,1,120,6|8,3:2|0:0,0:0:0:0:
386,268,83000,1,0,3:2:0:0:
386,268,83084,1,0,3:0:0:0:
386,268,83167,6,0,L|387:202,1,60,6|0,3:2|3:0,0:0:0:0:
431,138,83500,1,8,0:0:0:0:
331,96,83667,1,0,3:0:0:0:
331,96,83751,1,8,3:0:0:0:
331,96,83834,2,0,L|265:102,1,60,6|0,3:2|3:0,0:0:0:0:
206,165,84167,2,0,L|140:159,1,60,12|0,0:0|3:0,0:0:0:0:
15,76,84501,6,0,L|151:58,1,120,6|8,3:2|0:0,0:0:0:0:
298,148,85167,2,0,P|311:185|306:218,1,60,2|0,3:2|3:0,0:0:0:0:
230,253,85501,2,0,L|160:245,1,60,8|0,0:0|0:0,0:0:0:0:
91,281,85834,6,0,P|84:319|86:342,1,60,2|0,3:2|3:0,0:0:0:0:
162,384,86167,2,0,L|232:376,1,60,12|0,0:0|3:0,0:0:0:0:
285,319,86500,1,8,0:0:0:0:
360,355,86667,1,0,3:0:0:0:
430,303,86834,2,0,P|435:273|430:244,1,60,12|2,0:0|0:0,0:0:0:0:
359,196,87167,6,0,L|346:108,1,60,6|0,3:2|3:0,0:0:0:0:
275,79,87501,2,0,L|262:167,1,60,10|0,0:0|3:0,0:0:0:0:
192,201,87834,2,0,L|179:113,1,60,0|0,3:2|3:0,0:0:0:0:
111,90,88167,2,0,L|98:178,2,60,10|0|2,0:1|3:0|3:2,0:0:0:0:
