osu file format v14

[General]
AudioFilename: d.mp3
AudioLeadIn: 0
PreviewTime: 67750
Countdown: 0
SampleSet: Soft
StackLeniency: 0.4
Mode: 0
LetterboxInBreaks: 0
WidescreenStoryboard: 1

[Editor]
Bookmarks: 36500,52500,63167
DistanceSpacing: 1
BeatDivisor: 2
GridSize: 8
TimelineZoom: 1.3

[Metadata]
Title:Uso (TV Size)
TitleUnicode:嘘 (TV Size)
Artist:SID
ArtistUnicode:シド
Creator:Nevo
Version:Enkrypton's Normal
Source:鋼の錬金術師 FULLMETAL ALCHEMIST
Tags:ed version ending 1 anime shounen japanese pkhg enkrypton brotherhood Stixy
BeatmapID:2189533
BeatmapSetID:544412

[Difficulty]
HPDrainRate:4
CircleSize:3.2
OverallDifficulty:3.5
ApproachRate:5
SliderMultiplier:0.999999999999999
SliderTickRate:1

[Events]
//Background and Video events
0,0,"maxresdefault (3).jpg",0,0
Video,-1190,"video.flv"
//Break Periods
//Storyboard Layer 0 (Background)
//Storyboard Layer 1 (Fail)
//Storyboard Layer 2 (Pass)
//Storyboard Layer 3 (Foreground)
//Storyboard Layer 4 (Overlay)
//Storyboard Sound Samples

[TimingPoints]
-300,346.820809248555,4,2,1,40,1,0
393,-100,4,2,1,40,0,0
20335,333.333333333333,4,2,1,40,1,0
20501,333.333333333333,4,2,1,60,1,0
63167,-100,4,2,1,70,0,0
68500,-100,4,2,1,90,0,1
88500,-100,4,2,1,90,0,0

[Colours]
Combo1 : 95,95,207
Combo2 : 223,207,31
Combo3 : 95,207,207
Combo4 : 207,31,31

[HitObjects]
43,160,393,6,0,P|94:145|142:159,1,99.9999999999999,2|2,0:0|0:0,0:0:0:0:
222,210,1087,2,0,P|269:225|320:209,1,99.9999999999999,2|0,0:0|0:0,0:0:0:0:
407,170,1780,2,0,L|397:281,1,99.9999999999999,2|0,0:0|0:0,0:0:0:0:
393,319,2301,1,2,0:0:0:0:
294,301,2647,1,2,0:0:0:0:
153,353,3168,6,0,P|140:302|149:243,1,99.9999999999999,2|2,0:0|0:0,0:0:0:0:
176,160,3861,1,2,0:0:0:0:
258,102,4208,1,2,0:0:0:0:
356,121,4555,2,0,L|475:131,1,99.9999999999999,2|0,0:0|0:0,0:0:0:0:
477,175,5075,2,0,P|484:233|469:286,1,99.9999999999999,2|0,0:0|0:0,0:0:0:0:
456,319,5595,1,2,0:0:0:0:
259,354,6289,6,0,P|245:308|254:254,2,99.9999999999999,2|2|0,0:0|0:0|0:0,0:0:0:0:
344,301,7330,1,2,0:0:0:0:
432,346,7676,1,2,0:0:0:0:
500,272,8023,2,0,P|504:209|493:160,1,99.9999999999999,2|2,0:0|0:0,0:0:0:0:
477,74,8717,2,0,P|410:72|374:78,1,99.9999999999999,2|2,0:0|0:0,0:0:0:0:
331,166,9410,6,0,P|278:178|228:162,1,99.9999999999999,2|2,0:0|0:0,0:0:0:0:
151,111,10104,1,2,0:0:0:0:
57,147,10451,1,2,0:0:0:0:
55,247,10798,2,0,L|45:350,1,99.9999999999999,2|0,0:0|0:0,0:0:0:0:
138,307,11491,5,2,0:0:0:0:
224,357,11838,1,2,0:0:0:0:
304,297,12185,2,0,B|391:268|371:326|456:299,1,150,2|0,0:0|0:0,0:0:0:0:
496,284,12879,2,0,L|485:164,1,99.9999999999999,2|0,0:0|0:0,0:0:0:0:
476,84,13572,1,0,0:0:0:0:
476,84,13746,1,2,0:0:0:0:
332,128,14266,5,2,0:0:0:0:
243,80,14613,1,2,0:0:0:0:
158,133,14960,2,0,P|111:146|50:122,1,99.9999999999999,2|2,0:0|0:0,0:0:0:0:
37,228,15653,2,0,L|46:331,1,99.9999999999999,2|0,0:0|0:0,0:0:0:0:
88,301,16173,6,0,P|135:288|196:312,1,99.9999999999999,2|0,0:0|0:0,0:0:0:0:
228,324,16694,2,0,P|275:338|322:325,1,99.9999999999999,2|0,0:0|0:0,0:0:0:0:
409,273,17387,5,2,0:0:0:0:
387,175,17734,2,0,P|286:157|178:175,1,200,2|2,0:0|0:0,0:0:0:0:
93,346,19121,1,2,0:0:0:0:
34,264,19468,1,2,0:0:0:0:
64,168,19815,2,0,P|71:105|61:63,1,99.9999999999999,2|2,0:0|0:0,0:0:0:0:
164,80,20501,6,0,L|267:70,1,99.9999999999999,4|8,3:2|0:0,0:0:0:0:
363,64,21167,1,0,3:0:0:0:
363,64,21334,2,0,P|364:93|359:121,1,50,8|2,0:0|0:1,0:0:0:0:
348,162,21667,2,0,P|342:201|358:274,1,99.9999999999999,0|0,3:0|3:0,0:0:0:0:
373,305,22167,1,8,0:0:0:0:
373,305,22334,2,0,B|322:318|322:318|256:305,1,99.9999999999999,0|8,0:0|0:0,0:0:0:0:
180,339,23000,1,2,3:1:0:0:
180,339,23167,6,0,L|170:235,1,99.9999999999999,2|8,3:0|0:0,0:0:0:0:
132,207,23667,2,0,L|141:103,1,99.9999999999999,0|8,0:0|0:0,0:0:0:0:
149,58,24167,1,2,0:1:0:0:
247,77,24500,2,0,P|299:82|354:76,1,99.9999999999999,2|8,0:1|0:0,0:0:0:0:
444,57,25167,2,0,L|438:120,1,50,2|8,0:1|0:0,0:0:0:0:
411,148,25500,2,0,L|416:211,1,50,2|2,3:0|3:0,0:0:0:0:
421,247,25834,6,0,P|371:258|309:239,1,99.9999999999999,4|8,3:2|0:0,0:0:0:0:
277,230,26334,2,0,L|281:285,1,50,0|0,0:0|3:0,0:0:0:0:
287,329,26667,2,0,P|238:318|190:329,1,99.9999999999999,8|0,0:0|0:0,0:0:0:0:
147,355,27167,1,2,0:1:0:0:
51,325,27500,2,0,L|60:213,1,99.9999999999999,8|0,0:0|3:0,0:0:0:0:
69,125,28167,5,8,0:0:0:0:
150,67,28500,2,0,B|217:52|217:52|255:70,1,99.9999999999999,4|8,3:2|0:0,0:0:0:0:
287,92,29000,1,0,3:0:0:0:
381,59,29334,1,0,3:0:0:0:
454,126,29667,1,8,0:0:0:0:
454,126,29834,2,0,L|446:239,1,99.9999999999999,2|8,0:1|0:0,0:0:0:0:
444,275,30334,1,0,0:0:0:0:
366,338,30667,5,0,3:0:0:0:
366,338,30834,2,0,P|319:348|261:333,1,99.9999999999999,8|4,0:0|3:2,0:0:0:0:
199,265,31500,1,8,0:0:0:0:
199,265,31667,2,0,L|209:145,1,99.9999999999999,0|8,0:0|0:0,0:0:0:0:
217,116,32167,1,2,0:1:0:0:
157,35,32500,6,0,P|109:22|40:42,1,99.9999999999999,2|8,0:1|0:0,0:0:0:0:
21,62,33000,2,0,L|30:173,1,99.9999999999999,0|0,0:0|3:0,0:0:0:0:
35,211,33500,1,8,0:0:0:0:
61,307,33834,6,0,P|116:290|170:307,1,99.9999999999999,4|8,3:2|0:0,0:0:0:0:
247,341,34500,2,0,B|343:379|344:295|441:340,1,200,0|2,3:0|0:1,0:0:0:0:
433,239,35500,1,8,0:0:0:0:
433,239,35668,2,0,L|428:189,1,50,0|2,0:0|0:1,0:0:0:0:
418,89,36167,5,8,0:0:0:0:
324,124,36500,2,0,P|276:133|223:124,1,99.9999999999999,4|8,3:2|0:0,0:0:0:0:
187,92,37000,2,0,P|137:84|88:93,1,99.9999999999999,0|8,0:0|0:0,0:0:0:0:
57,132,37500,1,2,0:1:0:0:
96,224,37834,1,2,0:1:0:0:
45,310,38167,1,8,0:0:0:0:
45,310,38334,2,0,L|49:365,1,50,0|0,0:0|3:0,0:0:0:0:
146,335,38834,5,8,0:0:0:0:
243,358,39167,2,0,B|306:370|306:370|343:355,1,99.9999999999999,4|8,3:2|0:0,0:0:0:0:
380,328,39667,1,0,3:0:0:0:
350,232,40000,1,0,3:0:0:0:
430,171,40334,2,0,P|440:122|418:53,1,99.9999999999999,8|0,0:0|3:0,0:0:0:0:
406,29,40834,2,0,B|358:39|358:39|289:28,1,99.9999999999999,8|2,0:0|0:1,0:0:0:0:
208,16,41500,5,8,0:0:0:0:
126,73,41834,2,0,P|106:171|131:280,1,200,6|2,3:2|0:0,0:0:0:0:
181,350,42834,1,12,0:0:0:0:
263,293,43167,5,6,3:2:0:0:
354,333,43500,1,8,0:0:0:0:
438,279,43834,2,0,P|444:227|447:175,2,99.9999999999999,2|8|6,0:1|0:0|3:2,0:0:0:0:
346,239,44834,1,8,0:0:0:0:
346,239,45000,2,0,L|282:233,1,50,0|2,0:0|0:1,0:0:0:0:
225,305,45500,5,8,0:0:0:0:
128,279,45834,2,0,P|117:216|130:166,1,99.9999999999999,6|8,3:2|0:0,0:0:0:0:
137,133,46334,2,0,L|81:128,2,50,2|0|2,3:0|3:0|3:0,0:0:0:0:
176,102,46834,2,0,L|231:97,1,50,0|0,3:0|3:0,0:0:0:0:
266,126,47167,1,6,3:2:0:0:
331,50,47500,6,0,P|383:38|433:57,1,99.9999999999999,8|0,0:0|3:0,0:0:0:0:
466,81,48000,1,0,3:0:0:0:
466,81,48167,2,0,L|456:184,1,99.9999999999999,8|0,0:0|0:0,0:0:0:0:
456,230,48667,1,0,3:0:0:0:
456,230,48834,2,0,P|422:232|397:230,1,50,8|0,0:0|3:0,0:0:0:0:
356,234,49167,2,0,B|367:288|367:288|354:337,1,99.9999999999999,8|8,0:0|0:0,0:0:0:0:
266,284,49834,1,2,3:2:0:0:
180,335,50167,6,0,P|132:347|70:326,1,99.9999999999999,8|8,0:0|0:0,0:0:0:0:
36,318,50667,1,0,3:0:0:0:
36,318,50834,2,0,L|45:214,1,99.9999999999999,8|10,0:0|0:2,0:0:0:0:
57,170,51334,1,0,0:0:0:0:
57,170,51500,2,0,P|85:173|108:172,1,50,8|0,0:0|3:0,0:0:0:0:
135,130,51834,2,0,P|183:116|234:138,1,99.9999999999999,0|8,3:0|0:0,0:0:0:0:
266,145,52334,6,0,B|279:98|279:98|264:45,1,99.9999999999999,6|0,3:2|3:0,0:0:0:0:
313,60,52834,2,0,P|359:76|406:62,1,99.9999999999999,10|0,2:1|3:0,0:0:0:0:
497,22,53500,1,2,2:1:0:0:
497,22,53667,2,0,L|487:133,1,99.9999999999999,0|0,3:0|3:0,0:0:0:0:
483,171,54167,1,10,0:1:0:0:
480,270,54500,6,0,P|451:274|416:267,1,50,2|8,3:1|0:0,0:0:0:0:
380,263,54834,2,0,B|386:211|386:211|371:163,1,99.9999999999999,2|0,3:1|3:0,0:0:0:0:
347,68,55500,6,0,B|180:108|229:17|33:70,1,300,10|2,0:1|0:1,0:0:0:0:
78,161,56834,1,8,0:0:0:0:
78,161,57000,2,0,P|91:233|89:312,1,150,2|8,0:1|0:0,0:0:0:0:
183,275,57834,1,6,3:2:0:0:
278,304,58167,6,0,P|327:312|380:298,1,99.9999999999999,8|2,0:0|3:0,0:0:0:0:
420,280,58667,1,0,3:0:0:0:
420,280,58834,2,0,L|409:160,1,99.9999999999999,8|2,0:0|3:0,0:0:0:0:
406,130,59334,2,0,L|350:125,1,50,2|8,3:0|0:0,0:0:0:0:
309,144,59667,2,0,L|259:148,1,50,2|2,3:0|3:0,0:0:0:0:
213,168,60000,5,0,3:0:0:0:
213,168,60167,2,0,B|225:217|225:217|220:278,1,99.9999999999999,8|2,0:0|3:0,0:0:0:0:
185,360,60834,2,0,B|161:348|161:348|74:354,1,99.9999999999999,8|2,0:0|3:0,0:0:0:0:
100,253,61500,5,8,0:0:0:0:
100,253,61667,2,0,L|109:149,1,99.9999999999999,2|2,3:0|0:0,0:0:0:0:
116,103,62167,1,8,0:0:0:0:
116,103,62334,2,0,L|171:107,1,50,2|8,3:0|0:0,0:0:0:0:
212,126,62667,2,0,L|261:121,1,50,8|8,0:0|3:0,0:0:0:0:
359,101,63167,5,6,3:2:0:0:
434,166,63500,2,0,P|434:222|423:285,2,99.9999999999999,2|2|2,0:1|0:1|0:1,0:0:0:0:
341,204,64500,1,2,0:1:0:0:
252,157,64834,2,0,P|202:150|152:151,2,99.9999999999999,2|10|2,0:0|0:1|0:1,0:0:0:0:
252,257,65834,5,2,3:0:0:0:
156,286,66167,1,2,3:0:0:0:
79,221,66500,1,2,3:0:0:0:
79,221,66667,2,0,L|74:165,1,50,2|0,3:0|3:0,0:0:0:0:
111,77,67167,6,0,L|166:72,1,50,10|2,3:2|0:1,0:0:0:0:
201,102,67500,2,0,L|256:106,1,50,8|8,0:0|0:0,0:0:0:0:
291,77,67834,2,0,P|331:68|412:94,1,99.9999999999999,10|2,0:0|0:0,0:0:0:0:
372,177,68500,6,0,P|373:227|381:280,1,99.9999999999999,6|8,3:2|0:0,0:0:0:0:
410,371,69167,2,0,B|347:363|287:366,1,99.9999999999999,0|8,3:0|0:0,0:0:0:0:
260,370,69667,2,0,P|271:302|258:261,1,99.9999999999999,2|0,0:0|3:0,0:0:0:0:
244,226,70167,1,8,0:0:0:0:
151,262,70500,5,2,3:2:0:0:
64,212,70834,1,8,0:0:0:0:
76,112,71167,2,0,L|195:101,1,99.9999999999999,2|8,3:2|0:0,0:0:0:0:
272,78,71834,2,0,P|269:108|278:157,1,50,2|0,3:2|3:0,0:0:0:0:
290,174,72167,1,8,0:0:0:0:
290,174,72334,2,0,P|336:162|398:175,1,99.9999999999999,2|0,3:2|3:0,0:0:0:0:
430,194,72834,2,0,L|423:273,1,50,8|0,0:0|3:0,0:0:0:0:
396,284,73167,2,0,L|402:363,1,50,2|0,3:2|3:0,0:0:0:0:
350,326,73500,6,0,B|297:318|297:318|247:328,1,99.9999999999999,8|6,0:0|3:2,0:0:0:0:
156,358,74167,1,8,0:0:0:0:
65,314,74500,2,0,L|74:202,1,99.9999999999999,2|8,3:2|0:0,0:0:0:0:
172,233,75167,2,0,P|221:238|270:228,2,99.9999999999999,2|8|0,3:2|0:0|3:0,0:0:0:0:
131,141,76167,1,8,0:0:0:0:
44,91,76500,6,0,P|32:139|66:222,1,99.9999999999999,2|10,3:2|0:0,0:0:0:0:
88,276,77167,2,0,P|97:324|85:372,1,99.9999999999999,2|10,3:2|0:1,0:0:0:0:
180,338,77834,1,2,3:2:0:0:
272,376,78167,1,8,0:0:0:0:
355,321,78500,6,0,L|350:265,1,50,2|2,3:0|3:0,0:0:0:0:
313,237,78834,2,0,L|317:181,1,50,8|8,0:0|0:0,0:0:0:0:
322,137,79167,2,0,P|270:147|215:127,1,99.9999999999999,6|8,3:2|0:0,0:0:0:0:
138,84,79834,1,0,3:0:0:0:
48,127,80167,1,8,0:0:0:0:
48,127,80334,2,0,B|36:183|36:183|66:246,1,99.9999999999999,2|0,0:0|3:0,0:0:0:0:
78,265,80834,1,8,0:0:0:0:
169,225,81167,6,0,P|223:216|279:232,1,99.9999999999999,2|8,3:2|0:0,0:0:0:0:
355,272,81834,1,6,3:2:0:0:
446,232,82167,1,8,0:0:0:0:
429,133,82500,2,0,L|424:77,1,50,6|0,3:2|3:0,0:0:0:0:
392,44,82834,1,8,0:0:0:0:
392,44,83000,2,0,P|343:30|269:58,1,99.9999999999999,0|0,3:2|3:0,0:0:0:0:
256,71,83500,1,8,0:0:0:0:
159,43,83834,6,0,L|163:98,1,50,6|0,3:2|3:0,0:0:0:0:
124,124,84167,2,0,L|119:179,1,50,12|0,0:0|3:0,0:0:0:0:
115,223,84500,2,0,P|164:237|229:221,1,99.9999999999999,6|8,3:2|0:0,0:0:0:0:
308,202,85167,2,0,L|303:257,1,50,2|0,3:2|3:0,0:0:0:0:
297,301,85500,1,8,0:0:0:0:
385,347,85834,5,2,3:2:0:0:
471,297,86167,1,12,0:0:0:0:
454,198,86500,2,0,L|463:94,1,99.9999999999999,8|12,0:0|0:0,0:0:0:0:
432,58,87000,1,2,0:0:0:0:
432,58,87167,2,0,P|381:72|320:48,1,99.9999999999999,6|10,3:2|0:0,0:0:0:0:
261,125,87834,6,0,L|265:180,1,50,0|0,3:2|3:0,0:0:0:0:
299,211,88167,2,0,L|294:266,1,50,10|0,0:1|3:0,0:0:0:0:
290,310,88500,1,2,3:2:0:0:
