osu file format v14

[General]
AudioFilename: audio.mp3
AudioLeadIn: 0
PreviewTime: 43845
Countdown: 0
SampleSet: Soft
StackLeniency: 0.7
Mode: 3
LetterboxInBreaks: 0
SpecialStyle: 0
WidescreenStoryboard: 1

[Editor]
Bookmarks: 11362,21356,31351,43845,53840,58837,63834,73829,78826
DistanceSpacing: 1.2
BeatDivisor: 4
GridSize: 32
TimelineZoom: 2

[Metadata]
Title:Ranbu no Melody (TV Size)
TitleUnicode:乱舞のメロディ (TV Size)
Artist:SID
ArtistUnicode:シド
Creator:keksikosu
Version:Mirsaaa's Easy
Source:BLEACH
Tags:ブリーチ anime opening theme op 13 japanese rock jrock j-rock male vocal Mirsaaa Yuiazu- Onii_ue Kibitz
BeatmapID:3976511
BeatmapSetID:1925812

[Difficulty]
HPDrainRate:6.5
CircleSize:4
OverallDifficulty:6.5
ApproachRate:5
SliderMultiplier:1.4
SliderTickRate:1

[Events]
//Background and Video events
0,0,"bleach.jpg",0,0
Video,-692,"Bleach-OP13.mp4"
//Break Periods
//Storyboard Layer 0 (Background)
//Storyboard Layer 1 (Fail)
//Storyboard Layer 2 (Pass)
//Storyboard Layer 3 (Foreground)
//Storyboard Layer 4 (Overlay)
//Storyboard Sound Samples
Sample,10737,0,"Hat open.wav",40
Sample,11049,0,"Hat open.wav",40
Sample,11674,0,"Hat open.wav",40
Sample,11986,0,"Hat open.wav",40
Sample,12299,0,"Hat open.wav",40
Sample,12611,0,"Hat open.wav",40
Sample,12923,0,"Hat open.wav",40
Sample,13236,0,"Hat open.wav",40
Sample,13548,0,"Hat open.wav",40
Sample,13860,0,"Hat open.wav",40
Sample,14173,0,"Hat open.wav",40
Sample,14485,0,"Hat open.wav",40
Sample,14797,0,"Hat open.wav",40
Sample,15110,0,"Hat open.wav",40
Sample,15422,0,"Hat open.wav",40
Sample,15734,0,"Hat open.wav",40
Sample,16047,0,"Hat open.wav",40
Sample,16671,0,"Hat open.wav",40
Sample,16984,0,"Hat open.wav",40
Sample,17296,0,"Hat open.wav",40
Sample,17608,0,"Hat open.wav",40
Sample,17921,0,"Hat open.wav",40
Sample,18233,0,"Hat open.wav",40
Sample,18545,0,"Hat open.wav",40
Sample,19170,0,"Hat open.wav",40
Sample,19482,0,"Hat open.wav",40
Sample,19795,0,"Hat open.wav",40
Sample,20107,0,"Hat open.wav",40
Sample,26354,0,"Hat open.wav",40
Sample,28853,0,"Hat open.wav",40
Sample,30727,0,"Hat open.wav",40
Sample,31039,0,"Tom2.wav",40
Sample,33850,0,"Hat open.wav",40
Sample,36036,0,"Hat open.wav",40
Sample,39160,0,"Hat open.wav",40
Sample,39784,0,"Hat open.wav",40
Sample,40097,0,"Hat open.wav",40
Sample,40409,0,"Hat open.wav",40
Sample,40721,0,"Hat open.wav",40
Sample,41034,0,"Hat open.wav",40
Sample,44157,0,"Hat open.wav",40
Sample,44469,0,"Hat open.wav",40
Sample,44782,0,"Hat open.wav",40
Sample,45094,0,"Hat open.wav",40
Sample,45406,0,"Hat open.wav",40
Sample,45719,0,"Hat open.wav",40
Sample,46031,0,"Hat open.wav",40
Sample,46343,0,"Hat open.wav",40
Sample,46656,0,"Hat open.wav",40
Sample,46968,0,"Hat open.wav",40
Sample,47280,0,"Hat open.wav",40
Sample,48530,0,"Hat open.wav",40
Sample,49154,0,"Hat open.wav",40
Sample,49467,0,"Hat open.wav",40
Sample,49779,0,"Hat open.wav",40
Sample,50091,0,"Hat open.wav",40
Sample,50404,0,"Hat open.wav",40
Sample,50716,0,"Hat open.wav",40
Sample,51028,0,"Hat open.wav",40
Sample,51653,0,"Hat open.wav",40
Sample,51965,0,"Hat open.wav",40
Sample,52278,0,"Hat open.wav",40
Sample,52590,0,"Hat open.wav",40
Sample,53215,0,"Hat open.wav",40
Sample,54152,0,"Hat open.wav",40
Sample,54777,0,"Hat open.wav",40
Sample,55089,0,"Hat open.wav",40
Sample,55401,0,"Hat open.wav",40
Sample,56026,0,"Hat open.wav",40
Sample,56338,0,"Hat open.wav",40
Sample,56651,0,"Hat open.wav",40
Sample,57275,0,"Hat open.wav",40
Sample,57588,0,"Hat open.wav",40
Sample,57900,0,"Hat open.wav",40
Sample,59149,0,"Hat open.wav",40
Sample,59774,0,"Hat open.wav",40
Sample,60399,0,"Hat open.wav",40
Sample,61023,0,"Hat open.wav",40
Sample,61648,0,"Hat open.wav",40
Sample,62273,0,"Hat open.wav",40
Sample,63210,0,"Hat open.wav",40
Sample,64147,0,"Hat open.wav",40
Sample,64459,0,"Hat open.wav",40
Sample,64771,0,"Hat open.wav",40
Sample,65396,0,"Hat open.wav",40
Sample,65708,0,"Hat open.wav",40
Sample,66021,0,"Hat open.wav",40
Sample,66645,0,"Hat open.wav",40
Sample,66958,0,"Hat open.wav",40
Sample,67270,0,"Hat open.wav",40
Sample,68519,0,"soft-hitfinish.wav",30
Sample,69139,0,"Hat open.wav",40
Sample,69451,0,"Hat open.wav",40
Sample,70076,0,"Hat open.wav",40
Sample,70388,0,"Hat open.wav",40
Sample,71325,0,"Hat open.wav",40
Sample,71950,0,"Hat open.wav",40
Sample,72570,0,"Hat open.wav",40
Sample,73194,0,"Hat open.wav",40
Sample,74141,0,"Hat open.wav",40
Sample,74453,0,"Hat open.wav",40
Sample,74766,0,"Hat open.wav",40
Sample,75390,0,"Hat open.wav",40
Sample,75703,0,"Hat open.wav",40
Sample,76015,0,"Hat open.wav",40
Sample,76640,0,"Hat open.wav",40
Sample,76952,0,"Hat open.wav",40
Sample,77264,0,"Hat open.wav",40
Sample,79138,0,"Hat open.wav",40
Sample,79451,0,"Hat open.wav",40
Sample,79763,0,"Hat open.wav",40
Sample,80388,0,"Hat open.wav",40
Sample,81012,0,"Hat open.wav",40

[TimingPoints]
118,312.337324310255,4,2,1,40,1,0
11362,-100,4,2,1,40,0,1
21356,-100,4,2,1,40,0,0
43845,-100,4,2,1,40,0,1
53840,-100,4,2,1,40,0,0
63834,-100,4,2,1,40,0,1
68827,312.337324310255,4,2,1,40,1,1
72570,312.337324310255,4,2,1,40,1,1
73340,312.337324310255,4,2,1,40,1,1
73501,312.337324310255,4,2,1,40,1,1
73829,312.337324310255,4,2,1,40,1,1
78826,-100,4,2,1,40,0,0

[HitObjects]
320,192,274,5,0,0:0:0:0:
192,192,430,1,0,0:0:0:0:
64,192,742,128,0,1055:0:0:0:0:
448,192,1055,1,0,0:0:0:0:
192,192,1523,1,0,0:0:0:0:
320,192,1679,1,0,0:0:0:0:
448,192,1992,128,0,2304:0:0:0:0:
64,192,2304,1,0,0:0:0:0:
320,192,2772,1,0,0:0:0:0:
192,192,2929,128,0,3241:0:0:0:0:
448,192,3241,128,0,3553:0:0:0:0:
64,192,3553,1,0,0:0:0:0:
320,192,3709,128,0,4022:0:0:0:0:
192,192,4022,128,0,4334:0:0:0:0:
64,192,4334,128,0,4646:0:0:0:0:
448,192,4646,128,0,4959:0:0:0:0:
192,192,5271,1,0,0:0:0:0:
320,192,5427,1,0,0:0:0:0:
64,192,5740,128,0,6052:0:0:0:0:
448,192,6052,1,0,0:0:0:0:
320,192,6520,1,0,0:0:0:0:
192,192,6677,1,0,0:0:0:0:
448,192,6989,128,0,7301:0:0:0:0:
64,192,7301,1,0,0:0:0:0:
320,192,7614,128,0,8238:0:0:0:0:
192,192,8238,128,0,8551:0:0:0:0:
448,192,8551,128,0,8863:0:0:0:0:
64,192,8863,128,0,9331:0:0:0:0:
320,192,9331,128,0,10425:0:0:0:0:
192,192,10425,1,0,0:0:0:40:Tom2.wav
64,192,10737,1,8,0:0:0:0:
192,192,10893,1,8,0:0:0:0:
320,192,11049,1,8,0:0:0:0:
448,192,11205,1,8,0:0:0:0:
64,192,11362,128,2,11674:0:0:0:0:
320,192,11674,1,8,0:0:0:0:
448,192,11986,1,2,0:0:0:0:
192,192,12142,1,2,0:0:0:0:
320,192,12299,1,8,0:0:0:0:
64,192,12611,1,2,0:0:0:0:
448,192,12767,1,2,0:0:0:0:
192,192,12923,1,8,0:0:0:0:
320,192,13236,1,2,0:0:0:0:
64,192,13392,1,2,0:0:0:0:
448,192,13548,1,8,0:0:0:0:
192,192,13860,128,2,14173:0:0:0:0:
320,192,14173,1,8,0:0:0:0:
448,192,14485,1,2,0:0:0:0:
64,192,14641,1,2,0:0:0:0:
320,192,14797,1,8,0:0:0:0:
192,192,15110,1,2,0:0:0:0:
448,192,15266,1,2,0:0:0:0:
64,192,15422,1,8,0:0:0:0:
320,192,15734,1,2,0:0:0:0:
192,192,15891,1,2,0:0:0:0:
64,192,16047,1,8,0:0:0:0:
320,192,16359,128,2,16671:0:0:0:0:
448,192,16359,1,4,0:0:0:0:
192,192,16671,1,8,0:0:0:0:
320,192,16984,1,2,0:0:0:0:
64,192,17140,1,2,0:0:0:0:
448,192,17296,1,8,0:0:0:0:
192,192,17608,1,2,0:0:0:0:
320,192,17765,1,2,0:0:0:0:
448,192,17921,1,8,0:0:0:0:
64,192,18233,1,2,0:0:0:0:
192,192,18389,1,2,0:0:0:0:
320,192,18545,1,8,0:0:0:0:
64,192,18858,1,4,0:0:0:0:
448,192,18858,128,2,19170:0:0:0:0:
192,192,19170,1,8,0:0:0:0:
320,192,19482,1,2,0:0:0:0:
64,192,19639,1,2,0:0:0:0:
448,192,19795,1,8,0:0:0:0:
192,192,20107,1,2,0:0:0:0:
320,192,20263,1,2,0:0:0:0:
64,192,20419,1,4,0:0:0:0:
448,192,20419,1,8,0:0:0:0:
192,192,20732,128,2,21044:0:0:0:0:
320,192,21044,128,10,21356:0:0:0:0:
64,192,21356,1,2,0:0:0:0:
192,192,21356,1,4,0:0:0:0:
448,192,21669,1,8,0:0:0:0:
64,192,21981,1,2,0:0:0:0:
192,192,22137,1,2,0:0:0:0:
320,192,22293,1,8,0:0:0:0:
448,192,22606,1,2,0:0:0:0:
320,192,22762,1,2,0:0:0:0:
192,192,22918,1,8,0:0:0:0:
64,192,23230,1,2,0:0:0:0:
448,192,23387,1,2,0:0:0:0:
192,192,23543,1,8,0:0:0:0:
320,192,23855,128,2,24167:0:0:0:0:
64,192,24167,1,8,0:0:0:0:
192,192,24480,1,2,0:0:0:0:
320,192,24636,1,2,0:0:0:0:
448,192,24792,1,8,0:0:0:0:
320,192,25104,1,2,0:0:0:0:
192,192,25261,1,2,0:0:0:0:
64,192,25417,128,8,25729:0:0:0:0:
448,192,25729,128,2,26041:0:0:0:0:
192,192,26041,128,8,26354:0:0:0:0:
320,192,26354,128,2,26666:0:0:0:0:
64,192,26666,1,8,0:0:0:0:
448,192,26979,1,2,0:0:0:0:
192,192,27135,1,2,0:0:0:0:
320,192,27291,1,8,0:0:0:0:
64,192,27603,1,2,0:0:0:0:
192,192,27759,1,2,0:0:0:0:
320,192,27916,1,8,0:0:0:0:
448,192,28228,1,2,0:0:0:0:
320,192,28384,1,2,0:0:0:0:
192,192,28540,1,8,0:0:0:0:
64,192,28853,128,2,29165:0:0:0:0:
448,192,29165,1,8,0:0:0:0:
320,192,29477,1,2,0:0:0:0:
192,192,29633,1,2,0:0:0:0:
448,192,29790,1,8,0:0:0:0:
64,192,30102,1,2,0:0:0:0:
192,192,30258,1,2,0:0:0:0:
320,192,30414,1,8,0:0:0:0:
448,192,30727,1,2,0:0:0:0:
320,192,30883,1,0,0:0:0:40:Tom1.wav
192,192,31039,1,2,0:0:0:0:
320,192,31351,1,4,0:0:0:0:
448,192,31351,128,2,31664:0:0:0:0:
64,192,31664,1,8,0:0:0:0:
192,192,31976,1,0,0:0:0:0:
320,192,32132,1,2,0:0:0:0:
448,192,32288,1,8,0:0:0:0:
64,192,32601,128,2,32913:0:0:0:0:
448,192,32913,1,8,0:0:0:0:
192,192,33069,1,0,0:0:0:0:
64,192,33381,1,2,0:0:0:0:
320,192,33538,1,8,0:0:0:0:
448,192,33850,128,2,34162:0:0:0:0:
64,192,34162,1,8,0:0:0:0:
320,192,34475,1,0,0:0:0:0:
192,192,34631,1,2,0:0:0:0:
64,192,34787,1,8,0:0:0:0:
448,192,34943,1,2,0:0:0:0:
192,192,35255,1,2,0:0:0:0:
320,192,35412,1,8,0:0:0:0:
64,192,35724,1,0,0:0:0:0:
448,192,35880,1,2,0:0:0:0:
320,192,36036,1,8,0:0:0:0:
64,192,36349,128,2,36661:0:0:0:0:
192,192,36349,1,4,0:0:0:0:
448,192,36661,1,8,0:0:0:0:
320,192,36973,1,0,0:0:0:0:
192,192,37129,1,2,0:0:0:0:
64,192,37286,1,8,0:0:0:0:
448,192,37598,128,2,37910:0:0:0:0:
64,192,37910,1,8,0:0:0:0:
320,192,38066,1,0,0:0:0:0:
448,192,38379,1,2,0:0:0:0:
192,192,38535,128,8,38847:0:0:0:0:
64,192,38847,128,2,39160:0:0:0:0:
448,192,38847,1,4,0:0:0:0:
320,192,39160,1,8,0:0:0:0:
192,192,39472,1,0,0:0:0:40:Hat open.wav
448,192,39628,1,2,0:0:0:0:
64,192,39784,1,8,0:0:0:0:
448,192,40097,1,2,0:0:0:0:
320,192,40253,1,2,0:0:0:0:
192,192,40409,1,8,0:0:0:0:
64,192,40721,1,2,0:0:0:0:
192,192,40878,1,2,0:0:0:0:
320,192,41034,1,8,0:0:0:0:
448,192,41346,128,2,41971:0:0:0:0:
320,192,41971,1,0,0:0:0:0:
320,192,43064,1,0,0:0:0:0:
320,192,43845,1,2,0:0:0:0:
448,192,43845,1,4,0:0:0:0:
64,192,44001,1,0,0:0:0:0:
320,192,44157,128,8,44469:0:0:0:0:
64,192,44469,1,2,0:0:0:0:
192,192,44626,1,2,0:0:0:0:
448,192,44782,128,8,45094:0:0:0:0:
320,192,45094,1,2,0:0:0:0:
64,192,45250,1,2,0:0:0:0:
192,192,45406,128,8,45719:0:0:0:0:
448,192,45719,1,2,0:0:0:0:
320,192,45875,1,2,0:0:0:0:
64,192,46031,128,8,46343:0:0:0:0:
448,192,46343,1,2,0:0:0:0:
192,192,46500,1,0,0:0:0:0:
320,192,46656,128,8,46968:0:0:0:0:
64,192,46968,1,2,0:0:0:0:
192,192,47124,1,2,0:0:0:0:
448,192,47280,1,8,0:0:0:0:
320,192,47437,128,0,47749:0:0:0:0:
64,192,47749,128,2,48061:0:0:0:0:
448,192,48061,128,0,48374:0:0:0:0:
192,192,48374,1,2,0:0:0:0:
320,192,48530,1,8,0:0:0:0:
64,192,48842,1,4,0:0:0:0:
192,192,48842,1,2,0:0:0:0:
448,192,48998,1,0,0:0:0:0:
64,192,49154,128,8,49467:0:0:0:0:
320,192,49467,1,2,0:0:0:0:
192,192,49623,1,2,0:0:0:0:
448,192,49779,128,8,50091:0:0:0:0:
64,192,50091,1,2,0:0:0:0:
192,192,50248,1,2,0:0:0:0:
320,192,50404,128,8,50716:0:0:0:0:
448,192,50716,1,2,0:0:0:0:
64,192,50872,1,2,0:0:0:0:
192,192,51028,128,8,51341:0:0:0:0:
320,192,51341,1,4,0:0:0:0:
448,192,51341,128,2,51653:0:0:0:0:
64,192,51653,1,8,0:0:0:0:
320,192,51965,1,2,0:0:0:0:
192,192,52122,1,2,0:0:0:0:
448,192,52278,1,8,0:0:0:0:
64,192,52590,1,2,0:0:0:0:
192,192,52746,1,2,0:0:0:0:
320,192,52903,1,8,0:0:0:0:
448,192,52903,1,4,0:0:0:0:
64,192,53215,128,2,53527:0:0:0:0:
448,192,53527,128,2,53840:0:0:0:0:
64,192,53840,1,4,0:0:0:0:
192,192,53840,1,2,0:0:0:0:
320,192,53996,1,2,0:0:0:0:
192,192,54152,1,8,0:0:0:0:
448,192,54464,1,0,0:0:0:40:Hat open.wav
192,192,54777,1,8,0:0:0:0:
320,192,55089,1,2,0:0:0:0:
64,192,55245,1,2,0:0:0:0:
320,192,55401,1,8,0:0:0:0:
192,192,55714,1,0,0:0:0:40:Hat open.wav
320,192,56026,1,8,0:0:0:0:
64,192,56338,1,2,0:0:0:0:
448,192,56494,1,2,0:0:0:0:
64,192,56651,1,8,0:0:0:0:
320,192,56963,1,0,0:0:0:40:Hat open.wav
64,192,57275,128,8,57588:0:0:0:0:
320,192,57588,1,2,0:0:0:0:
448,192,57744,1,2,0:0:0:0:
192,192,57900,128,8,58212:0:0:0:0:
448,192,58212,1,2,0:0:0:0:
320,192,58368,1,2,0:0:0:0:
64,192,58525,1,8,0:0:0:0:
192,192,58525,1,0,0:0:0:30:soft-hitfinish.wav
320,192,58837,1,4,0:0:0:0:
448,192,58837,1,2,0:0:0:0:
64,192,59149,1,8,0:0:0:0:
320,192,59462,1,0,0:0:0:40:Hat open.wav
192,192,59618,1,2,0:0:0:0:
448,192,59774,1,8,0:0:0:0:
64,192,60086,1,2,0:0:0:0:
192,192,60086,1,0,0:0:0:30:soft-hitfinish.wav
320,192,60242,1,2,0:0:0:0:
448,192,60399,1,8,0:0:0:0:
320,192,60711,1,4,0:0:0:0:
448,192,60711,1,2,0:0:0:0:
192,192,60867,1,2,0:0:0:0:
64,192,61023,1,8,0:0:0:0:
192,192,61336,1,4,0:0:0:0:
320,192,61336,1,2,0:0:0:0:
448,192,61648,1,8,0:0:0:0:
64,192,61960,1,0,0:0:0:40:Hat open.wav
320,192,62116,1,2,0:0:0:0:
192,192,62273,1,8,0:0:0:0:
64,192,62585,1,4,0:0:0:0:
448,192,62585,1,2,0:0:0:0:
192,192,62897,1,12,0:0:0:0:
320,192,63210,128,2,63522:0:0:0:0:
64,192,63522,128,10,63834:0:0:0:0:
320,192,63834,1,4,0:0:0:0:
448,192,63834,1,2,0:0:0:0:
192,192,63990,1,0,0:0:0:0:
448,192,64147,128,8,64459:0:0:0:0:
64,192,64459,1,2,0:0:0:0:
192,192,64615,1,2,0:0:0:0:
320,192,64771,128,8,65084:0:0:0:0:
64,192,65084,1,4,0:0:0:0:
192,192,65084,1,2,0:0:0:0:
448,192,65240,1,2,0:0:0:0:
64,192,65396,128,8,65708:0:0:0:0:
448,192,65708,1,2,0:0:0:0:
320,192,65865,1,2,0:0:0:0:
192,192,66021,128,8,66333:0:0:0:0:
320,192,66333,1,4,0:0:0:0:
448,192,66333,1,2,0:0:0:0:
64,192,66489,1,2,0:0:0:0:
320,192,66645,128,8,66958:0:0:0:0:
192,192,66958,1,2,0:0:0:0:
448,192,67114,1,2,0:0:0:0:
64,192,67270,1,8,0:0:0:0:
320,192,67426,128,0,67739:0:0:0:0:
192,192,67739,128,2,68051:0:0:0:0:
448,192,68051,128,0,68363:0:0:0:0:
64,192,68363,1,2,0:0:0:0:
320,192,68519,1,8,0:0:0:0:
64,192,68827,1,4,0:0:0:0:
192,192,68827,1,2,0:0:0:0:
448,192,68983,1,2,0:0:0:0:
192,192,69139,128,8,69451:0:0:0:0:
320,192,69451,1,2,0:0:0:0:
64,192,69607,1,2,0:0:0:0:
320,192,69764,1,4,0:0:0:0:
448,192,69764,128,8,70076:0:0:0:0:
192,192,70076,1,2,0:0:0:0:
320,192,70232,1,2,0:0:0:0:
64,192,70388,128,8,70701:0:0:0:0:
192,192,70701,1,2,0:0:0:0:
320,192,70857,1,2,0:0:0:0:
64,192,71013,1,4,0:0:0:0:
448,192,71013,128,8,71325:0:0:0:0:
320,192,71325,1,2,0:0:0:0:
192,192,71481,1,2,0:0:0:0:
64,192,71638,128,12,71950:0:0:0:0:
448,192,71950,1,2,0:0:0:0:
320,192,72106,1,2,0:0:0:0:
64,192,72262,1,4,0:0:0:0:
192,192,72262,128,8,72570:0:0:0:0:
320,192,72570,1,2,0:0:0:0:
64,192,72726,1,2,0:0:0:0:
320,192,72882,1,4,0:0:0:0:
448,192,72882,1,8,0:0:0:0:
192,192,73194,1,2,0:0:0:0:
448,192,73340,1,8,0:0:0:0:
64,192,73501,1,8,0:0:0:0:
320,192,73657,1,2,0:0:0:0:
64,192,73829,1,8,0:0:0:0:
192,192,73829,1,4,0:0:0:0:
448,192,74141,1,8,0:0:0:0:
320,192,74453,1,8,0:0:0:0:
192,192,74766,1,8,0:0:0:0:
64,192,75078,1,4,0:0:0:0:
448,192,75078,1,8,0:0:0:0:
320,192,75390,1,8,0:0:0:0:
192,192,75703,1,8,0:0:0:0:
448,192,76015,1,8,0:0:0:0:
64,192,76327,1,4,0:0:0:0:
192,192,76327,1,8,0:0:0:0:
320,192,76640,128,8,76952:0:0:0:0:
64,192,76952,128,8,77264:0:0:0:0:
448,192,77264,1,8,0:0:0:0:
192,192,77420,128,2,77733:0:0:0:0:
320,192,77733,128,2,78045:0:0:0:0:
64,192,78045,128,0,78357:0:0:0:0:
448,192,78357,128,8,78670:0:0:0:0:
192,192,78670,128,8,79138:0:0:0:0:
448,192,79138,1,8,0:0:0:0:
64,192,79451,1,2,0:0:0:0:
320,192,79607,1,2,0:0:0:0:
192,192,79763,1,8,0:0:0:0:
320,192,80075,1,2,0:0:0:0:
448,192,80075,1,4,0:0:0:0:
64,192,80231,1,2,0:0:0:0:
320,192,80388,1,8,0:0:0:0:
64,192,80700,1,2,0:0:0:0:
192,192,80700,1,4,0:0:0:0:
448,192,80856,1,2,0:0:0:0:
192,192,81012,1,8,0:0:0:0:
320,192,81325,1,2,0:0:0:0:
64,192,81637,1,10,0:0:0:0:
448,192,81949,1,10,0:0:0:0:
192,192,82262,128,10,82574:0:0:0:0:
320,192,82574,1,10,0:0:0:0:
448,192,82574,128,0,82886:0:0:0:40:Hat open.wav
64,192,82886,1,10,0:0:0:0:
320,192,83042,128,8,83355:0:0:0:0:
192,192,83355,128,0,83667:0:0:0:40:Tom1.wav
64,192,83667,128,2,87571:0:0:0:0:
448,192,83667,1,4,0:0:0:0:
