osu file format v14

[General]
AudioFilename: audio.mp3
AudioLeadIn: 0
PreviewTime: 43845
Countdown: 0
SampleSet: Soft
StackLeniency: 0.5
Mode: 0
LetterboxInBreaks: 0
WidescreenStoryboard: 1

[Editor]
DistanceSpacing: 1.2
BeatDivisor: 4
GridSize: 32
TimelineZoom: 2.5

[Metadata]
Title:Ranbu no Melody (TV Size)
TitleUnicode:乱舞のメロディ (TV Size)
Artist:SID
ArtistUnicode:シド
Creator:ayel
Version:yukic's Normal
Source:BLEACH
Tags:ブリーチ anime opening theme op 13 japanese rock jrock j-rock dead stock fsjallink subahibi kleune yukic
BeatmapID:3872038
BeatmapSetID:1839513

[Difficulty]
HPDrainRate:3
CircleSize:3.5
OverallDifficulty:4
ApproachRate:5.5
SliderMultiplier:1
SliderTickRate:1

[Events]
//Background and Video events
0,0,"bleach.jpg",0,0
//Break Periods
2,41546,42720
//Storyboard Layer 0 (Background)
//Storyboard Layer 1 (Fail)
//Storyboard Layer 2 (Pass)
//Storyboard Layer 3 (Foreground)
//Storyboard Layer 4 (Overlay)
//Storyboard Sound Samples

[TimingPoints]
118,312.337324310255,4,2,0,50,1,0
11362,-100,4,2,0,70,0,0
21356,-100,4,2,0,65,0,0
43689,-100,4,2,0,5,0,0
43845,-100,4,2,0,75,0,0
68827,312.337324310255,4,2,0,75,1,0
72570,312.337324310255,4,2,0,75,1,0
73340,312.337324310255,4,2,0,75,1,0
73501,312.337324310255,4,2,0,75,1,0
73829,312.337324310255,4,2,0,75,1,0
83745,-100,4,2,0,30,0,0

[Colours]
Combo1 : 17,254,176
Combo2 : 173,255,95
Combo3 : 255,88,100
Combo4 : 255,94,55

[HitObjects]
122,226,118,6,0,P|116:196|106:165,1,50,0|0,3:0|3:0,0:0:0:0:
65,155,430,1,2,0:0:0:0:
114,68,742,2,0,P|164:51|224:46,1,100,2|2,0:0|0:0,0:0:0:0:
294,100,1367,2,0,P|323:102|354:109,1,50,0|0,3:0|3:0,0:0:0:0:
379,140,1679,2,0,P|429:132|456:88,2,100,2|2|2,0:0|0:0|0:0,0:0:0:0:
323,223,2616,6,0,P|317:251|314:280,1,50,0|0,3:0|3:0,0:0:0:0:
341,314,2929,1,2,0:0:0:0:
252,360,3241,1,2,0:0:0:0:
187,290,3553,1,2,0:0:0:0:
187,290,3709,2,0,P|139:285|77:264,2,100,2|2|2,0:0|0:0|0:0,0:0:0:0:
245,208,4646,2,0,P|287:155|370:162,1,150,2|0,0:0|3:0,0:0:0:0:
413,182,5271,5,0,3:0:0:0:
413,182,5427,1,2,0:0:0:0:
473,102,5740,2,0,P|456:40|453:-3,1,100,2|2,0:0|0:0,0:0:0:0:
353,0,6364,2,0,P|360:23|362:56,1,50,0|0,3:0|3:0,0:0:0:0:
323,80,6677,1,2,0:0:0:0:
231,39,6989,2,0,B|194:7|194:7|146:27,1,100,2|2,0:0|0:0,0:0:0:0:
61,79,7614,6,2,P|76:127|83:183,2,100,2|0|2,0:0|0:0|0:0,0:1:0:0:
145,24,8551,1,2,0:0:0:0:
181,116,8863,2,0,P|170:164|166:230,1,100,2|0,0:0|0:0,0:0:0:0:
135,254,9331,1,2,0:0:0:0:
135,254,9488,1,0,0:0:0:0:
222,301,9800,1,0,3:0:0:0:
284,223,10112,1,2,0:0:0:0:
263,124,10425,6,0,P|266:97|272:73,1,50,8|4,0:3|0:3,0:0:0:0:
311,44,10737,2,0,P|366:57|424:63,1,100,8|0,0:0|1:0,0:0:0:0:
475,145,11362,6,0,P|448:148|418:159,1,50,4|2,1:2|0:0,0:0:0:0:
383,196,11674,1,8,0:0:0:0:
383,196,11830,2,0,P|391:222|394:251,1,50,2|0,0:0|1:2,0:0:0:0:
339,353,12299,1,8,0:0:0:0:
339,353,12455,2,0,P|288:345|258:297,1,100,2|0,0:1|1:2,0:0:0:0:
238,252,12923,2,0,P|207:258|184:271,1,50,8|0,0:0|3:0,0:0:0:0:
155,314,13236,1,0,1:2:0:0:
51,253,13548,1,8,0:0:0:0:
123,157,13860,6,0,P|117:122|103:89,1,50,2|0,1:2|3:0,0:0:0:0:
56,84,14173,1,8,0:0:0:0:
56,84,14329,2,0,P|44:44|43:16,2,50,2|0|2,0:0|1:2|1:2,0:0:0:0:
157,18,14954,1,2,0:1:0:0:
157,18,15110,2,0,P|210:22|271:47,1,100,0|8,1:2|0:0,0:0:0:0:
281,90,15578,2,0,P|332:90|366:54,1,100,2|0,3:2|1:2,0:0:0:0:
424,61,16047,1,8,0:0:0:0:
480,166,16359,6,0,P|468:202|466:236,1,50,4|0,1:2|3:0,0:0:0:0:
412,234,16671,1,8,0:0:0:0:
412,234,16828,2,0,P|429:275|432:303,1,50,2|0,0:0|1:2,0:0:0:0:
343,362,17296,1,8,0:0:0:0:
343,362,17452,2,0,P|294:340|234:328,1,100,2|0,0:1|1:2,0:0:0:0:
195,358,17921,1,8,0:0:0:0:
100,284,18233,2,0,P|113:250|114:217,1,50,0|0,1:2|1:2,0:0:0:0:
71,195,18545,1,8,0:0:0:0:
147,102,18858,6,0,P|197:108|227:158,1,100,6|8,1:2|0:0,0:0:0:0:
223,205,19326,2,0,P|286:180|329:176,1,100,2|0,0:0|1:2,0:0:0:0:
365,212,19795,1,8,0:0:0:0:
462,142,20107,6,0,P|453:120|447:95,1,50,0|0,1:2|1:2,0:0:0:0:
475,42,20419,1,12,0:0:0:0:
358,11,20732,2,0,P|332:15|299:28,1,50,0|8,1:2|3:0,0:0:0:0:
294,80,21044,2,0,P|267:74|242:74,1,50,4|6,3:0|3:2,0:0:0:0:
190,48,21356,5,4,1:2:0:0:
84,101,21669,1,8,0:0:0:0:
84,101,21825,2,0,P|60:141|72:195,1,100,2|0,0:0|1:2,0:0:0:0:
36,241,22293,1,8,0:0:0:0:
108,337,22606,2,0,P|177:318|221:316,1,100,0|8,1:2|0:0,0:0:0:0:
317,269,23230,1,0,1:2:0:0:
317,269,23387,1,2,1:2:0:0:
419,341,23699,5,0,3:0:0:0:
419,341,23855,2,0,P|442:288|424:245,1,100,2|8,1:2|0:0,0:0:0:0:
478,216,24324,2,0,P|461:165|451:99,1,100,2|0,0:0|1:2,0:0:0:0:
484,68,24792,1,8,0:0:0:0:
381,1,25104,1,0,1:2:0:0:
302,95,25417,6,0,P|259:81|194:76,1,100,10|2,0:0|1:2,0:0:0:0:
159,44,25885,1,0,1:2:0:0:
159,44,26041,1,10,0:0:0:0:
46,87,26354,2,0,B|25:135|25:135|55:181,1,100,6|8,1:1|0:0,0:0:0:0:
151,241,26979,2,0,P|140:288|133:345,1,100,0|8,1:2|0:0,0:0:0:0:
251,362,27603,2,0,P|284:353|312:348,1,50,0|0,1:2|1:2,0:0:0:0:
355,372,27916,5,10,0:0:0:0:
395,261,28228,1,0,1:2:0:0:
395,261,28384,2,0,P|452:268|501:282,1,100,2|0,1:1|3:0,0:0:0:0:
512,226,28853,2,0,P|505:189|496:161,1,50,2|2,1:2|0:0,0:0:0:0:
445,156,29165,2,0,P|455:131|458:96,1,50,8|2,0:0|0:1,0:0:0:0:
343,96,29633,1,0,1:2:0:0:
343,96,29790,2,0,P|355:27|369:-13,2,100,8|2|8,0:0|1:2|0:0,0:0:0:0:
256,179,30727,6,0,P|265:224|266:248,1,50,4|8,0:0|3:0,0:0:0:0:
237,285,31039,1,4,3:0:0:0:
146,363,31351,2,2,P|93:350|31:348,2,100,6|8|0,1:2|0:1|1:2,0:1:0:0:
237,285,32288,1,10,0:0:0:0:
136,218,32601,2,0,P|140:156|158:105,1,100,2|8,1:2|0:0,0:0:0:0:
135,63,33069,2,0,P|186:67|237:87,1,100,2|0,0:0|1:2,0:0:0:0:
269,131,33538,1,10,0:0:0:0:
232,245,33850,6,0,P|234:287|215:354,2,100,6|8|2,1:2|0:0|0:3,0:0:0:0:
344,201,34787,1,10,0:0:0:0:
344,201,34943,2,0,P|332:263|333:306,1,100,6|0,1:1|1:2,0:0:0:0:
358,354,35412,2,0,P|392:342|418:339,1,50,8|0,0:0|3:0,0:0:0:0:
465,346,35724,1,2,0:3:0:0:
508,234,36036,1,12,0:0:0:0:
417,155,36349,6,2,P|406:111|371:51,2,100,6|8|2,1:2|0:0|0:3,0:1:0:0:
316,221,37286,1,8,0:0:0:0:
237,130,37598,2,2,P|191:127|121:108,1,100,2|8,1:2|0:0,0:1:0:0:
86,143,38066,2,2,B|71:192|71:192|100:235,1,100,2|0,0:0|1:0,0:1:0:0:
63,281,38535,1,10,0:1:0:0:
151,361,38847,6,0,P|207:339|264:336,2,100,6|8|2,1:2|0:0|0:3,0:0:0:0:
95,373,39628,1,0,1:2:0:0:
95,373,39784,1,8,0:0:0:0:
36,268,40097,2,0,P|52:217|54:200,1,50,0|0,1:2|3:0,0:0:0:0:
104,192,40409,2,0,P|89:160|90:74,1,100,8|0,0:0|1:2,0:0:0:0:
125,52,40878,1,0,1:2:0:0:
125,52,41034,2,0,P|179:55|232:65,1,100,12|0,0:0|0:0,0:0:0:0:
309,199,43845,6,0,P|298:171|293:146,1,50,4|2,1:2|0:0,0:0:0:0:
294,91,44157,1,10,0:1:0:0:
389,18,44469,2,0,P|408:66|416:113,1,100,2|10,1:1|0:2,0:0:0:0:
491,206,45094,2,0,P|482:235|478:266,1,50,0|2,1:1|1:2,0:0:0:0:
498,311,45406,1,10,0:1:0:0:
386,354,45719,2,0,P|348:336|274:329,1,100,2|10,1:1|0:2,0:0:0:0:
174,355,46343,6,0,P|155:330|152:294,1,50,0|2,1:1|0:0,0:0:0:0:
172,256,46656,1,10,0:1:0:0:
67,197,46968,1,2,1:1:0:0:
111,85,47280,1,8,0:0:0:0:
111,85,47437,2,2,P|155:64|215:57,1,100,2|0,0:2|1:2,0:1:0:0:
320,23,48061,2,0,P|379:43|434:52,1,100,2|2,0:0|1:2,0:0:0:0:
463,86,48530,2,0,P|450:118|447:148,1,50,8|4,0:0|3:0,0:0:0:0:
481,182,48842,1,4,1:2:0:0:
468,301,49154,6,0,P|422:285|370:280,1,100,10|2,0:1|1:1,0:0:0:0:
262,332,49779,1,10,0:2:0:0:
196,243,50091,2,0,P|164:246|131:257,1,50,0|0,1:1|1:2,0:0:0:0:
88,265,50404,1,10,0:1:0:0:
7,175,50716,1,2,1:1:0:0:
63,69,51028,1,10,0:1:0:0:
182,43,51341,6,2,P|233:27|295:22,2,100,6|8|2,1:2|0:0|1:1,0:1:0:0:
132,16,52122,1,0,1:2:0:0:
132,16,52278,1,10,0:1:0:0:
45,99,52590,2,0,P|49:122|55:151,1,50,2|0,1:1|1:2,0:0:0:0:
34,205,52903,1,12,0:0:0:0:
129,277,53215,2,0,P|169:284|191:297,1,50,0|8,1:2|3:0,0:0:0:0:
208,339,53527,2,0,P|256:325|273:325,1,50,4|4,3:0|3:0,0:0:0:0:
314,339,53840,5,4,1:2:0:0:
314,339,53996,1,4,1:3:0:0:
120,123,55089,1,4,1:3:0:0:
120,123,55245,1,4,1:3:0:0:
404,63,56338,1,4,1:3:0:0:
404,63,56494,1,4,1:3:0:0:
314,339,57275,2,2,P|315:314|325:291,1,50,10|0,0:1|0:0,0:1:0:0:
381,269,57588,6,0,P|379:244|371:217,1,50,4|4,1:3|1:3,0:0:0:0:
398,166,57900,1,8,0:0:0:0:
282,132,58212,2,0,P|271:92|270:66,1,50,4|4,3:0|3:0,0:0:0:0:
308,36,58525,1,4,0:0:0:0:
191,6,58837,6,0,P|141:12|93:32,2,100,2|8|2,1:1|0:0|3:0,0:0:0:0:
308,36,59774,1,10,0:1:0:0:
236,132,60086,2,0,P|227:171|225:200,1,50,2|0,1:1|1:2,0:0:0:0:
171,206,60399,1,2,3:0:0:0:
171,206,60555,2,0,P|188:263|192:321,1,100,2|0,0:1|1:2,0:0:0:0:
300,366,61179,5,2,0:1:0:0:
300,366,61336,2,0,P|355:352|384:301,1,100,6|8,1:2|0:0,0:0:0:0:
355,201,61960,1,2,3:0:0:0:
470,166,62273,2,0,P|481:102|485:90,1,50,2|2,0:1|0:0,0:0:0:0:
489,57,62585,2,0,P|444:43|388:44,1,100,2|12,1:1|0:0,0:0:0:0:
350,87,63053,1,2,0:1:0:0:
245,146,63366,2,0,P|212:144|174:131,2,50,8|4|4,3:0|3:0|3:0,0:0:0:0:
271,199,63834,6,0,P|293:188|325:184,1,50,4|2,1:2|0:0,0:0:0:0:
369,215,64147,1,10,0:1:0:0:
488,203,64459,2,0,P|470:275|469:322,1,100,2|10,1:1|0:2,0:0:0:0:
366,363,65084,2,0,P|332:360|305:346,1,50,0|2,1:1|1:2,0:0:0:0:
273,312,65396,1,10,0:1:0:0:
157,343,65708,2,0,P|98:353|43:378,1,100,2|10,1:1|0:2,0:0:0:0:
5,261,66333,6,0,P|6:228|17:197,1,50,0|2,1:1|0:0,0:0:0:0:
59,176,66645,1,10,0:1:0:0:
38,57,66958,2,0,P|128:70|165:89,1,100,2|8,1:1|0:0,0:0:0:0:
178,114,67426,1,2,0:2:0:0:
178,114,67582,2,0,P|230:104|257:62,1,100,0|8,1:0|0:0,0:0:0:0:
367,23,68207,2,0,P|385:65|391:91,1,50,0|2,1:2|1:2,0:0:0:0:
359,122,68519,1,8,0:0:0:0:
464,174,68827,6,0,P|458:213|459:243,1,50,4|2,1:2|0:0,0:0:0:0:
482,277,69139,1,10,0:1:0:0:
413,375,69451,2,0,P|355:349|282:342,1,100,2|10,1:1|0:2,0:0:0:0:
211,288,70076,2,0,P|187:295|164:305,2,50,0|2|10,1:1|1:2|0:1,0:0:0:0:
267,262,70544,1,8,0:0:0:0:
267,262,70701,2,0,P|257:213|245:182,1,50,2|0,1:1|1:1,0:0:0:0:
208,178,71013,1,10,0:1:0:0:
297,97,71325,6,2,P|310:32|309:-8,2,100,0|8|2,1:2|0:0|1:0,0:1:0:0:
183,56,72262,1,10,0:1:0:0:
84,121,72570,2,0,P|104:168|108:197,1,50,6|0,1:0|1:0,0:0:0:0:
59,207,72882,2,0,P|39:269|43:317,1,100,8|0,0:0|1:0,0:0:0:0:
79,350,73340,1,8,0:0:0:0:
79,350,73501,2,0,P|138:338|184:336,1,100,6|0,0:1|0:0,0:0:0:0:
299,368,74141,6,0,P|308:332|306:304,1,50,10|2,0:1|1:2,0:0:0:0:
262,280,74453,2,0,P|263:217|280:176,1,100,10|10,0:1|0:1,0:0:0:0:
156,172,75078,2,0,P|146:120|147:99,1,50,8|2,0:0|1:2,0:0:0:0:
113,73,75390,1,10,0:1:0:0:
221,20,75703,2,0,P|270:33|334:33,1,100,10|10,0:1|0:1,0:0:0:0:
402,120,76327,6,0,P|451:93|471:90,1,50,12|2,0:2|1:2,0:0:0:0:
495,127,76640,1,10,0:1:0:0:
509,245,76952,1,10,0:1:0:0:
405,303,77264,1,8,0:0:0:0:
405,303,77420,2,2,P|317:279|273:275,1,100,6|2,1:2|1:0,0:1:0:0:
251,296,77889,1,8,0:0:0:0:
263,176,78201,2,0,P|252:144|247:115,1,50,8|8,0:0|3:1,0:0:0:0:
189,118,78514,2,0,P|195:82|195:53,1,50,4|4,3:0|3:0,0:0:0:0:
158,21,78826,1,2,1:1:0:0:
56,84,79138,6,0,P|48:129|46:146,1,50,8|0,0:0|3:0,0:0:0:0:
1,172,79451,2,0,P|22:228|28:267,1,100,2|10,3:0|0:1,0:0:0:0:
94,366,80075,2,0,P|152:343|192:334,1,100,6|2,1:1|3:0,0:0:0:0:
202,275,80544,1,6,0:1:0:0:
303,338,80856,2,0,P|361:346|371:346,1,50,0|12,1:2|0:1,0:0:0:0:
415,338,81168,1,2,0:1:0:0:
415,338,81325,2,0,P|425:269|396:239,1,100,6|0,1:2|3:0,0:0:0:0:
349,241,81793,1,0,3:0:0:0:
349,241,81949,2,0,P|338:180|318:132,1,100,0|2,3:0|3:1,0:0:0:0:
248,51,82574,6,0,P|226:96|217:153,1,100,2|8,3:1|3:0,0:0:0:0:
159,159,83042,2,0,L|180:217,1,50,8|8,3:0|3:0,0:0:0:0:
123,235,83355,2,0,P|108:280|108:304,1,50,4|4,3:0|3:0,0:0:0:0:
117,341,83667,1,4,3:1:0:0:
256,192,83745,12,0,88821,0:0:0:0:
