osu file format v14

[General]
AudioFilename: audio.mp3
AudioLeadIn: 0
PreviewTime: 43845
Countdown: 0
SampleSet: Soft
StackLeniency: 0.4
Mode: 0
LetterboxInBreaks: 0
WidescreenStoryboard: 1

[Editor]
Bookmarks: 43845
DistanceSpacing: 1.2
BeatDivisor: 4
GridSize: 32
TimelineZoom: 2.5

[Metadata]
Title:Ranbu no Melody (TV Size)
TitleUnicode:乱舞のメロディ (TV Size)
Artist:SID
ArtistUnicode:シド
Creator:ayel
Version:subahibi's Insane
Source:BLEACH
Tags:ブリーチ anime opening theme op 13 japanese rock jrock j-rock dead stock fsjallink subahibi kleune yukic
BeatmapID:3844492
BeatmapSetID:1839513

[Difficulty]
HPDrainRate:5
CircleSize:4
OverallDifficulty:8
ApproachRate:9
SliderMultiplier:1.5
SliderTickRate:1

[Events]
//Background and Video events
0,0,"bleach.jpg",0,0
//Break Periods
//Storyboard Layer 0 (Background)
//Storyboard Layer 1 (Fail)
//Storyboard Layer 2 (Pass)
//Storyboard Layer 3 (Foreground)
//Storyboard Layer 4 (Overlay)
//Storyboard Sound Samples

[TimingPoints]
118,312.337324310255,4,2,0,50,1,0
118,-142.857142857143,4,2,0,50,0,0
11362,-111.111111111111,4,2,0,70,0,0
21356,-125,4,2,0,65,0,0
33850,-111.111111111111,4,2,0,65,0,0
34475,-125,4,2,0,65,0,0
43689,-125,4,2,0,5,0,0
43767,-100,4,2,0,5,0,0
43845,-100,4,2,0,75,0,1
58525,-76.9230769230769,4,2,0,75,0,0
58837,-100,4,2,0,75,0,0
68827,312.337324310255,4,2,0,75,1,0
72570,312.337324310255,4,2,0,75,1,0
73340,312.337324310255,4,2,0,75,1,0
73501,312.337324310255,4,2,0,75,1,0
73829,312.337324310255,4,2,0,75,1,0
83745,-100,4,2,0,30,0,0

[Colours]
Combo1 : 17,254,176
Combo2 : 173,255,95
Combo3 : 255,88,100
Combo4 : 255,94,55

[HitObjects]
76,384,274,5,0,3:0:0:0:
76,384,430,2,0,L|51:272,1,104.999996795654,2|2,0:0|0:0,0:0:0:0:
107,228,1055,1,2,0:0:0:0:
141,297,1367,1,0,0:0:0:0:
162,175,1523,5,0,3:0:0:0:
162,175,1679,2,0,L|137:63,1,104.999996795654,2|2,0:0|0:0,0:0:0:0:
204,28,2304,1,2,0:0:0:0:
230,101,2616,1,0,3:0:0:0:
312,115,2772,5,0,3:0:0:0:
312,115,2929,2,0,P|346:66|356:9,1,104.999996795654,2|2,0:0|0:0,0:0:0:0:
230,101,3553,1,2,0:0:0:0:
312,115,3709,2,0,P|335:162|356:227,1,104.999996795654,2|2,0:0|0:0,0:0:0:0:
289,274,4334,1,2,0:0:0:0:
402,132,4646,2,0,P|419:83|423:21,1,104.999996795654,2|0,0:0|0:0,0:0:0:0:
334,12,5271,5,0,3:0:0:0:
334,12,5427,2,0,L|309:124,1,104.999996795654,2|2,0:0|0:0,0:0:0:0:
292,186,6052,1,2,0:0:0:0:
216,205,6364,1,0,0:0:0:0:
343,252,6520,5,0,3:0:0:0:
343,252,6677,2,0,L|368:364,1,104.999996795654,2|2,0:0|0:0,0:0:0:0:
443,384,7301,1,2,0:0:0:0:
283,340,7614,6,2,P|223:338|129:387,1,157.499995193482,2|0,0:0|3:0,0:1:0:0:
63,355,8238,2,0,B|76:323|109:303|109:303|97:263,1,104.999996795654,2|2,0:0|0:0,0:0:0:0:
27,276,8863,1,2,0:0:0:0:
256,192,8941,12,2,10112,0:0:0:0:
256,192,10425,6,0,L|247:161,2,26.2499991989136,8|8|4,0:3|0:3|0:3,0:0:0:0:
278,268,10737,1,8,0:0:0:0:
321,367,10893,1,0,1:0:0:0:
321,367,10971,1,0,1:0:0:0:
321,367,11049,1,0,1:0:0:0:
321,367,11127,1,0,1:0:0:0:
321,367,11205,1,0,1:0:0:0:
321,367,11284,1,0,1:0:0:0:
321,367,11362,6,0,L|347:294,1,67.4999979400635,4|2,1:2|0:0,0:0:0:0:
202,283,11674,2,0,L|178:208,1,67.4999979400635,8|2,0:0|0:0,0:0:0:0:
369,231,11986,2,0,L|393:156,1,67.4999979400635,0|0,1:2|1:2,0:0:0:0:
196,141,12299,1,8,0:0:0:0:
259,100,12455,5,2,0:1:0:0:
259,100,12611,2,0,P|278:149|260:175,1,67.4999979400635,0|0,0:0|1:2,0:0:0:0:
119,136,12923,2,0,P|123:103|148:82,1,67.4999979400635,8|0,0:0|3:0,0:0:0:0:
232,240,13236,2,0,P|251:289|233:315,1,67.4999979400635,0|0,1:2|1:2,0:0:0:0:
103,274,13548,2,0,P|107:241|132:220,1,67.4999979400635,8|0,0:0|0:0,0:0:0:0:
169,336,13860,5,2,1:2:0:0:
158,384,14017,1,0,3:0:0:0:
246,299,14173,5,8,0:0:0:0:
273,375,14330,1,2,0:0:0:0:
321,260,14485,5,0,1:2:0:0:
455,298,14642,1,2,1:2:0:0:
405,230,14797,5,8,0:0:0:0:
405,230,14875,1,0,0:0:0:0:
405,230,14954,2,0,L|434:121,1,101.249996910095,2|0,0:1|0:0,0:0:0:0:
456,106,15266,2,0,P|418:115|380:141,1,67.4999979400635,2|8,1:2|0:0,0:0:0:0:
334,175,15578,1,2,3:2:0:0:
334,175,15656,1,8,0:0:0:0:
334,175,15734,2,0,P|314:142|320:99,1,67.4999979400635,0|0,1:2|1:2,0:0:0:0:
413,68,16047,2,0,P|411:101|393:129,1,67.4999979400635,8|0,0:0|0:0,0:0:0:0:
212,211,16359,6,0,L|186:138,1,67.4999979400635,4|0,1:2|3:0,0:0:0:0:
314,113,16671,2,0,L|338:38,1,67.4999979400635,8|2,0:0|0:0,0:0:0:0:
164,75,16984,2,0,L|140:0,1,67.4999979400635,0|0,1:2|1:2,0:0:0:0:
239,88,17296,1,8,0:0:0:0:
111,139,17452,1,2,0:1:0:0:
111,139,17608,6,0,P|75:116|38:106,1,67.4999979400635,0|0,0:0|1:2,0:0:0:0:
139,217,17921,2,0,P|101:236|73:263,1,67.4999979400635,8|0,0:0|0:0,0:0:0:0:
219,221,18233,2,0,P|217:263|226:300,1,67.4999979400635,0|0,1:2|1:2,0:0:0:0:
274,164,18545,2,0,P|310:187|347:196,1,67.4999979400635,8|2,0:0|3:2,0:0:0:0:
182,0,18858,6,0,B|176:22|176:22|137:37|97:82,1,101.249996910095,6|0,1:2|0:0,0:0:0:0:
179,110,19170,1,8,0:0:0:0:
277,48,19326,2,0,L|353:59,1,67.4999979400635,2|0,0:0|1:2,0:0:0:0:
425,139,19639,1,0,1:2:0:0:
417,23,19795,2,0,P|452:44|471:89,1,67.4999979400635,8|0,0:0|3:0,0:0:0:0:
420,250,20107,5,0,1:2:0:0:
359,186,20263,1,0,1:2:0:0:
503,231,20419,1,12,0:0:0:0:
348,105,20576,1,0,1:2:0:0:
246,270,20732,2,0,L|258:223,3,33.7499989700318,0|0|8|8,1:2|0:0|3:0|3:0,0:0:0:0:
310,343,21044,5,4,3:0:0:0:
310,343,21122,1,4,3:0:0:0:
310,343,21200,1,6,3:2:0:0:
310,343,21278,1,4,3:0:0:0:
310,343,21356,6,2,L|343:212,1,120,4|8,1:2|0:0,0:1:0:0:
201,156,21825,1,2,0:0:0:0:
249,88,21981,2,0,P|281:132|278:178,1,90
253,237,22293,2,0,P|209:240|182:259,1,60,8|0,0:0|3:0,0:0:0:0:
123,206,22606,2,0,L|102:138,1,60,0|0,1:2|1:2,0:0:0:0:
29,296,22918,2,0,P|73:292|100:274,1,60,8|2,0:0|0:0,0:0:0:0:
105,148,23230,2,0,L|123:206,1,60,0|2,1:2|1:2,0:0:0:0:
160,322,23543,2,0,B|189:330|189:330|214:355|214:355|255:368,1,90,8|0,0:0|0:0,0:0:0:0:
298,302,23855,6,0,B|286:225|286:225|300:200|300:178,1,120,2|8,1:2|0:0,0:0:0:0:
218,166,24324,1,2,0:0:0:0:
218,166,24480,2,0,L|228:96,1,60,0|0,1:2|1:2,0:0:0:0:
171,13,24792,2,0,P|153:48|165:84,1,60,8|0,0:0|3:0,0:0:0:0:
226,106,25026,1,0,0:0:0:0:
226,106,25104,2,0,P|261:83|327:83,1,90,0|0,1:2|0:0,0:0:0:0:
359,137,25417,5,10,0:0:0:0:
348,270,25651,1,8,0:0:0:0:
348,270,25729,2,0,L|336:212,1,60,2|0,1:2|1:2,0:0:0:0:
436,80,26041,2,0,L|449:139,1,60,10|0,0:0|0:0,0:0:0:0:
291,52,26354,1,6,1:1:0:0:
129,269,26666,6,0,L|119:203,1,60,8|2,0:0|0:0,0:0:0:0:
248,368,26979,2,0,L|258:302,2,60,0|0|8,1:2|1:2|0:0,0:0:0:0:
129,269,27447,5,0,3:0:0:0:
129,269,27603,2,0,L|119:203,1,60,0|0,1:2|1:2,0:0:0:0:
248,368,27916,2,0,L|259:289,1,60,10|0,0:0|0:0,0:0:0:0:
10,283,28228,5,0,1:2:0:0:
10,283,28384,2,0,L|-3:356,1,60,2|8,1:1|0:0,0:0:0:0:
108,266,28696,1,0,3:0:0:0:
108,266,28774,1,0,0:0:0:0:
108,266,28853,2,0,P|120:238|119:209,1,60,2|2,1:2|0:0,0:0:0:0:
107,132,29165,5,8,0:0:0:0:
165,78,29321,1,2,0:1:0:0:
241,99,29477,1,0,1:2:0:0:
249,177,29633,1,0,1:2:0:0:
196,231,29790,1,8,0:0:0:0:
323,344,30024,5,0,3:0:0:0:
323,344,30102,2,0,L|311:286,1,60,2|0,1:2|1:2,0:0:0:0:
182,380,30414,2,0,L|194:322,1,60,8|0,0:0|3:0,0:0:0:0:
1,204,30727,5,4,0:0:0:0:
151,157,30883,1,8,3:0:0:0:
112,304,31039,2,0,P|79:274|81:231,1,90,4|0,3:0|0:0,0:0:0:0:
87,221,31351,6,2,B|64:143|64:143|91:100,1,120,6|8,1:2|0:1,0:1:0:0:
228,153,31820,1,0,3:0:0:0:
177,71,31976,2,0,L|148:163,1,90,0|0,1:2|0:0,0:0:0:0:
193,219,32288,2,0,P|227:202|275:198,1,60,10|0,0:0|3:0,0:0:0:0:
404,133,32601,2,0,L|370:6,1,120,2|8,1:2|0:0,0:0:0:0:
316,117,33069,2,0,B|344:199|344:199|396:214,1,120,2|0,0:0|1:2,0:0:0:0:
433,265,33538,2,0,P|399:283|366:285,1,60,10|0,0:0|3:0,0:0:0:0:
206,336,33850,6,0,P|172:307|71:316,1,134.999995880127,6|8,1:2|0:0,0:0:0:0:
229,224,34318,1,0,3:0:0:0:
137,218,34475,2,0,P|123:185|120:149,1,60,2|0,0:3|1:2,0:0:0:0:
229,224,34787,5,10,0:0:0:0:
299,356,34943,2,0,P|312:323|316:287,1,60,6|0,1:1|0:0,0:0:0:0:
229,224,35334,5,0,0:0:0:0:
229,224,35412,2,0,L|242:291,1,60,8|0,0:0|3:0,0:0:0:0:
385,189,35724,2,0,L|372:256,1,60,2|0,0:3|1:2,0:0:0:0:
500,292,36036,2,0,L|473:345,1,60,12|0,0:0|0:0,0:0:0:0:
373,247,36349,6,2,L|350:129,1,120,6|8,1:2|0:0,0:1:0:0:
226,16,36817,1,0,3:0:0:0:
259,145,36973,2,0,L|278:73,1,60,2|0,0:3|1:2,0:0:0:0:
365,71,37286,2,0,L|349:128,1,60,8|0,0:0|3:0,0:0:0:0:
176,186,37598,6,2,P|147:161|62:169,1,120,2|8,1:2|0:0,0:1:0:0:
164,268,38066,2,2,P|130:276|53:345,1,120,2|0,0:0|1:0,0:1:0:0:
236,308,38535,2,0,P|220:340|212:377,1,60,10|0,0:1|0:0,0:0:0:0:
378,245,38847,6,0,L|345:114,1,120,6|8,1:2|0:0,0:0:0:0:
477,198,39316,1,0,3:0:0:0:
283,73,39472,2,0,L|264:140,1,60,2|0,0:3|1:2,0:0:0:0:
432,131,39784,2,0,L|416:73,1,60,8|0,0:0|3:0,0:0:0:0:
419,321,40097,6,0,P|446:299|464:263,1,60,0|0,1:2|3:0,0:0:0:0:
253,188,40409,2,0,P|265:155|264:115,1,60,8|0,0:0|3:0,0:0:0:0:
53,231,40721,2,0,P|47:196|26:162,1,60,0|0,1:2|1:2,0:0:0:0:
210,384,41034,1,12,0:0:0:0:
256,192,41346,12,0,43532,0:0:0:0:
232,307,43845,5,4,1:2:0:0:
360,264,44001,1,2,0:0:0:0:
354,150,44157,2,0,P|340:114|294:74,1,75,10|0,0:1|0:0,0:0:0:0:
129,67,44469,2,0,P|142:101|167:129,1,75,2|0,1:1|1:2,0:0:0:0:
231,73,44782,2,2,L|250:-2,1,75,10|0,0:2|0:0,0:1:0:0:
131,233,45094,6,0,P|95:266|-7:260,1,150,0|10,1:1|0:1,0:0:0:0:
167,129,45563,1,0,0:0:0:0:
93,81,45719,2,0,P|82:116|84:153,1,75,2|0,1:1|1:2,0:0:0:0:
287,210,46031,2,2,P|251:199|214:201,1,75,10|0,0:2|0:0,0:1:0:0:
428,176,46343,5,0,1:1:0:0:
330,45,46500,1,2,0:0:0:0:
499,37,46656,1,10,0:1:0:0:
342,135,46812,1,0,0:0:0:0:
512,204,46968,2,0,P|514:166|502:129,1,75,2|0,1:1|1:2,0:0:0:0:
372,235,47280,5,8,0:0:0:0:
419,103,47437,2,2,P|416:140|429:178,1,75,2|0,0:2|0:0,0:1:0:0:
329,220,47749,2,0,P|345:253|375:279,1,75,0|8,1:2|0:0,0:0:0:0:
292,346,48061,2,0,P|323:366|361:374,1,75,2|0,0:0|1:2,0:0:0:0:
229,251,48374,1,2,1:2:0:0:
113,384,48530,2,0,P|149:375|180:355,1,75,8|4,0:0|3:0,0:0:0:0:
76,176,48842,6,0,L|103:106,1,75,4|2,1:2|0:0,0:0:0:0:
265,78,49154,2,0,P|250:124|158:170,1,150,10|2,0:1|1:1,0:0:0:0:
417,84,49623,1,0,1:2:0:0:
417,84,49701,1,0,0:0:0:0:
417,84,49779,2,2,L|331:122,1,75,10|0,0:2|0:0,0:1:0:0:
164,170,50091,2,0,L|137:101,1,75,0|0,1:1|1:2,0:0:0:0:
313,348,50404,6,0,P|341:300|340:244,1,112.5,10|0,0:1|0:0,0:0:0:0:
405,205,50716,2,0,P|419:241|422:288,1,75,2|0,1:1|1:2,0:0:0:0:
266,279,51028,2,0,P|262:241|246:208,1,75,10|0,0:1|0:0,0:0:0:0:
497,294,51341,2,2,P|496:230|446:142,1,150,6|8,1:2|0:0,0:1:0:0:
163,250,51965,6,0,P|141:219|110:198,1,75,2|0,1:1|1:2,0:0:0:0:
82,288,52278,2,0,P|48:272|11:269,1,75,10|0,0:1|3:0,0:0:0:0:
246,221,52590,2,0,P|277:238|369:231,1,112.5,2|0,1:1|0:0,0:0:0:0:
377,215,52903,2,0,L|387:157,1,37.5,12|0,0:0|0:0,0:0:0:0:
438,118,53059,2,0,P|403:103|361:104,1,75,2|0,0:1|1:2,0:0:0:0:
226,83,53371,5,8,3:0:0:0:
218,119,53449,1,8,3:0:0:0:
190,144,53527,1,4,3:0:0:0:
153,153,53605,1,4,3:0:0:0:
118,138,53683,1,4,3:0:0:0:
97,106,53761,1,4,3:0:0:0:
99,68,53840,6,0,P|126:29|164:23,2,75,4|4|10,1:2|1:3|0:1,0:0:0:0:
153,153,55089,6,0,P|173:195|159:231,2,75,4|4|10,1:3|1:3|0:1,0:0:0:0:
65,163,56338,6,0,P|17:159|-6:129,2,75,4|4|10,1:3|1:3|0:1,0:0:0:0:
208,35,57275,5,10,0:1:0:0:
208,35,57431,2,0,P|255:38|279:68,1,75,0|4,0:0|1:3,0:0:0:0:
441,198,57744,2,0,P|393:194|369:164,1,75,4|8,1:3|0:0,0:0:0:0:
317,125,58056,5,8,3:0:0:0:
344,103,58134,1,8,3:0:0:0:
353,68,58212,1,4,3:0:0:0:
273,56,58368,1,4,3:0:0:0:
402,213,58525,6,0,B|360:223|360:223|338:244|338:244|299:243|254:261,1,146.249993305207,4|0,0:0|0:0,0:0:0:0:
263,294,58837,2,0,P|240:256|242:217,1,75,2|0,1:1|0:0,0:0:0:0:
93,195,59149,2,0,P|59:225|21:235,1,75,8|0,0:0|3:0,0:0:0:0:
174,176,59462,2,0,P|207:145|245:135,1,75,2|0,3:0|1:2,0:0:0:0:
147,254,59774,2,0,P|160:297|153:336,1,75,10|0,0:1|0:0,0:0:0:0:
31,234,60086,6,0,P|-2:198|4:96,1,150,2|2,1:1|3:0,0:0:0:0:
250,284,60555,2,0,L|351:267,1,75,2|0,0:1|1:2,0:0:0:0:
167,178,60867,2,0,L|268:161,1,75,0|8,1:2|0:0,0:0:0:0:
101,72,61179,1,2,1:1:0:0:
101,72,61258,1,0,1:0:0:0:
101,72,61336,2,0,L|202:55,1,75,0|0,1:0|0:0,0:0:0:0:
408,51,61648,6,0,P|384:80|374:116,1,75,8|0,0:0|3:0,0:0:0:0:
491,185,61960,2,0,P|480:149|457:119,1,75,2|0,3:0|1:2,0:0:0:0:
326,188,62273,2,0,P|336:223|359:253,1,75,2|2,0:1|0:0,0:0:0:0:
220,319,62585,2,0,P|209:283|186:253,1,75,2|0,1:1|1:2,0:0:0:0:
211,116,62897,1,12,0:0:0:0:
211,116,63053,2,0,L|240:186,1,75,2|8,0:1|1:3,0:0:0:0:
284,259,63366,5,8,3:0:0:0:
320,247,63444,1,8,3:0:0:0:
356,235,63522,1,4,3:0:0:0:
391,234,63600,1,4,3:0:0:0:
406,268,63678,1,4,3:0:0:0:
417,303,63756,1,4,3:0:0:0:
427,339,63834,5,4,1:2:0:0:
338,323,63990,1,2,0:0:0:0:
484,268,64147,2,0,L|505:186,1,75,10|0,0:1|0:0,0:0:0:0:
303,126,64459,2,0,P|266:133|235:153,1,75,2|0,1:1|1:2,0:0:0:0:
320,229,64771,2,2,P|356:221|387:201,1,75,10|0,0:2|0:0,0:1:0:0:
211,128,65084,6,0,L|193:34,1,75,0|2,1:1|1:2,0:0:0:0:
442,75,65396,2,0,P|416:102|383:119,1,75,10|0,0:1|0:0,0:0:0:0:
261,184,65708,2,0,P|294:200|319:228,1,75,2|0,1:1|1:2,0:0:0:0:
382,299,66021,6,2,B|324:308|324:308|308:340|262:356,1,112.5,10|0,0:2|0:0,0:1:0:0:
275,341,66333,2,0,L|246:259,1,75,0|2,1:1|0:0,0:0:0:0:
111,211,66645,1,10,0:1:0:0:
169,298,66880,1,4,3:0:0:0:
169,298,66958,1,2,1:1:0:0:
215,196,67114,1,0,1:2:0:0:
215,196,67192,1,4,3:0:0:0:
215,196,67270,1,8,0:0:0:0:
262,98,67426,1,2,1:2:0:0:
262,98,67504,1,0,1:0:0:0:
262,98,67582,1,4,1:2:0:0:
413,73,67739,6,0,P|380:90|343:98,1,75,0|8,1:2|0:0,0:0:0:0:
160,37,68051,2,0,P|192:19|229:11,1,75,2|0,0:0|1:2,0:0:0:0:
360,7,68363,1,2,1:2:0:0:
262,98,68519,1,8,0:0:0:0:
369,167,68676,5,4,3:0:0:0:
369,167,68754,1,4,0:3:0:0:
369,167,68827,2,0,P|361:130|342:97,1,75,4|2,1:2|0:0,0:0:0:0:
229,10,69139,1,10,0:1:0:0:
197,149,69295,1,0,0:0:0:0:
197,149,69373,1,0,0:0:0:0:
197,149,69451,1,2,1:1:0:0:
90,53,69607,1,0,1:1:0:0:
90,53,69685,1,0,0:0:0:0:
90,53,69764,2,2,P|46:99|49:177,1,112.5,10|0,0:2|0:0,0:1:0:0:
17,179,70076,6,0,L|100:149,1,75,0|2,1:1|1:2,0:0:0:0:
173,68,70388,1,10,0:1:0:0:
286,127,70544,1,8,0:0:0:0:
286,127,70622,1,8,0:0:0:0:
286,127,70701,1,2,1:1:0:0:
265,240,70857,1,0,1:1:0:0:
265,240,70935,1,0,0:0:0:0:
265,240,71013,2,0,P|271:295|313:368,1,112.5,10|0,0:1|0:0,0:0:0:0:
364,314,71325,6,2,L|374:219,1,75,0|0,1:2|1:0,0:1:0:0:
185,295,71638,2,0,L|195:390,1,75,8|0,0:0|3:0,0:0:0:0:
180,379,71872,1,0,0:0:0:0:
169,381,71950,2,0,P|138:360|102:349,1,75,2|0,1:0|1:0,0:0:0:0:
3,253,72262,2,0,P|38:242|76:241,1,75,10|0,0:1|3:0,0:0:0:0:
371,239,72570,6,0,L|378:313,1,75,6|0,1:0|0:0,0:0:0:0:
319,168,72882,1,8,0:0:0:0:
216,274,73038,2,0,L|242:205,1,75,6|0,0:1|1:0,0:0:0:0:
136,303,73340,1,8,0:0:0:0:
68,167,73501,2,0,L|75:241,1,75,6|0,0:1|1:0,0:0:0:0:
242,204,73829,5,8,0:0:0:0:
278,47,73985,1,2,1:2:0:0:
333,204,74141,1,10,0:1:0:0:
209,89,74297,1,2,1:2:0:0:
287,135,74453,5,10,0:1:0:0:
174,244,74609,1,2,1:2:0:0:
135,88,74766,1,10,0:1:0:0:
242,204,74922,1,2,1:2:0:0:
333,204,75078,6,0,P|391:224|450:251,1,112.5,8|0,0:0|0:0,0:0:0:0:
473,236,75390,2,0,P|478:194|452:167,1,75,10|2,0:1|1:2,0:0:0:0:
347,384,75703,2,0,P|304:352|306:298,1,112.5,10|0,0:1|0:0,0:0:0:0:
318,288,76015,2,0,P|353:296|400:323,1,75,10|2,0:1|1:2,0:0:0:0:
265,160,76327,6,0,P|282:126|286:82,1,75,12|2,0:2|1:2,0:0:0:0:
192,28,76640,1,10,0:1:0:0:
113,116,76796,1,0,1:0:0:0:
169,197,76952,2,0,P|152:228|144:271,1,75,10|0,0:1|1:0,0:0:0:0:
304,317,77264,5,8,0:0:0:0:
265,160,77420,1,6,1:2:0:0:
239,255,77577,1,0,0:0:0:0:
334,229,77733,2,0,P|373:245|391:278,1,75,2|8,1:0|0:0,0:0:0:0:
144,266,78045,2,0,P|104:249|86:216,1,75,2|8,0:1|0:0,0:0:0:0:
105,152,78357,6,0,L|113:115,1,37.5,8|8,3:1|3:0,0:0:0:0:
147,47,78514,1,4,3:0:0:0:
147,47,78592,1,4,3:0:0:0:
147,47,78670,1,4,3:0:0:0:
147,47,78748,1,4,3:0:0:0:
147,47,78826,2,0,P|181:80|188:134,1,75,2|0,1:1|0:0,0:0:0:0:
278,159,79138,2,0,P|278:110|245:68,1,75,8|0,0:0|3:0,0:0:0:0:
112,115,79451,2,0,P|111:163|145:206,1,75,2|0,3:0|1:2,0:0:0:0:
252,338,79763,2,0,P|248:282|221:233,1,112.5,10|0,0:1|0:0,0:0:0:0:
214,230,80075,5,6,1:1:0:0:
180,383,80231,1,0,1:2:0:0:
315,236,80388,1,2,3:0:0:0:
105,338,80544,2,0,B|64:330|64:330|29:369|-25:348,1,112.5,6|0,0:1|0:0,0:0:0:0:
0,354,80856,2,0,P|-5:305|25:270,1,75,0|12,1:2|0:1,0:0:0:0:
168,227,81168,1,2,0:1:0:0:
168,227,81247,1,0,0:0:0:0:
168,227,81325,2,0,P|190:256|224:272,1,75,6|0,1:2|3:0,0:0:0:0:
319,322,81559,5,0,3:0:0:0:
334,328,81637,2,0,L|387:308,2,37.5,0|0|0,3:0|0:0|3:0,0:0:0:0:
360,239,81871,1,0,3:0:0:0:
373,233,81949,2,0,L|426:253,2,37.5,0|0|0,3:0|0:0|3:0,0:0:0:0:
281,201,82184,1,0,3:0:0:0:
286,187,82262,2,0,L|337:163,2,37.5,2|0|0,3:1|0:0|3:0,0:0:0:0:
208,169,82574,5,2,3:1:0:0:
183,140,82652,1,0,3:0:0:0:
173,104,82730,1,8,3:0:0:0:
178,65,82808,1,8,3:0:0:0:
201,37,82886,1,8,3:0:0:0:
232,16,82964,1,8,3:0:0:0:
269,14,83042,2,0,L|326:23,1,37.5,8|8,3:0|3:0,0:0:0:0:
352,91,83199,5,8,3:0:0:0:
363,88,83277,1,8,3:0:0:0:
373,85,83355,1,4,3:0:0:0:
383,82,83433,1,4,3:0:0:0:
393,79,83511,1,4,3:0:0:0:
403,75,83589,1,4,3:0:0:0:
414,73,83667,1,4,3:1:0:0:
256,192,83745,12,0,88821,0:0:0:0:
