osu file format v14

[General]
AudioFilename: audio.mp3
AudioLeadIn: 0
PreviewTime: 43767
Countdown: 0
SampleSet: Soft
StackLeniency: 0.4
Mode: 0
LetterboxInBreaks: 0
WidescreenStoryboard: 1

[Editor]
DistanceSpacing: 1
BeatDivisor: 4
GridSize: 8
TimelineZoom: 3.099999

[Metadata]
Title:Ranbu no Melody (TV Size)
TitleUnicode:乱舞のメロディ (TV Size)
Artist:SID
ArtistUnicode:シド
Creator:Aakki
Version:Smoke's Light Insane
Source:BLEACH
Tags:anime opening 13 op of the wild dance male vocals japanese rock jrock j-rock xandit nyantiaz gokugohan12468 kittyadventure gibee games jiebi smoke mnyui sotarks
BeatmapID:2479998
BeatmapSetID:1189202

[Difficulty]
HPDrainRate:4.8
CircleSize:4.4
OverallDifficulty:8
ApproachRate:8.8
SliderMultiplier:1.6
SliderTickRate:1

[Events]
//Background and Video events
Video,-692,"Bleach-OP13.mp4"
0,0,"background.jpg",0,0
//Break Periods
2,41546,43216
//Storyboard Layer 0 (Background)
//Storyboard Layer 1 (Fail)
//Storyboard Layer 2 (Pass)
//Storyboard Layer 3 (Foreground)
//Storyboard Layer 4 (Overlay)
//Storyboard Sound Samples

[TimingPoints]
118,312.337324310255,4,2,1,62,1,0
118,-125,4,2,1,62,0,0
10268,-125,4,2,1,5,0,0
10425,-125,4,2,1,69,0,0
11049,-90.9090909090909,4,2,1,69,0,0
11362,-90.9090909090909,4,2,1,72,0,0
19092,-90.9090909090908,4,2,1,5,0,0
19170,-90.9090909090909,4,2,1,72,0,0
20029,-90.9090909090908,4,2,1,5,0,0
20107,-90.9090909090909,4,2,1,72,0,0
21356,-111.111111111111,4,2,1,65,0,0
26276,-111.111111111111,4,2,1,5,0,0
26355,-111.111111111111,4,2,1,65,0,0
26900,-111.111111111111,4,2,1,5,0,0
26979,-111.111111111111,4,2,1,65,0,0
27525,-111.111111111111,4,2,1,5,0,0
27604,-111.111111111111,4,2,1,65,0,0
28150,-111.111111111111,4,2,1,5,0,0
28229,-111.111111111111,4,2,1,65,0,0
30648,-111.111111111111,4,2,1,5,0,0
30727,-111.111111111111,4,2,1,65,0,0
36271,-111.111111111111,4,2,1,5,0,0
36349,-111.111111111111,4,2,1,65,0,0
38847,-105.263157894737,4,2,1,65,0,0
41346,-111.111111111111,4,2,1,50,0,0
43845,-83.3333333333333,4,2,1,72,0,1
45016,-83.3333333333333,4,2,1,5,0,1
45094,-83.3333333333333,4,2,1,72,0,1
46265,-83.3333333333333,4,2,1,5,0,1
46343,-83.3333333333333,4,2,1,72,0,1
48764,-83.3333333333333,4,2,1,5,0,1
48842,-83.3333333333333,4,2,1,72,0,1
53840,-100,4,2,1,65,0,0
58759,-100,4,2,1,5,0,0
58837,-83.3333333333333,4,2,1,72,0,1
65006,-83.3333333333333,4,2,1,5,0,1
65084,-83.3333333333333,4,2,1,72,0,1
66255,-83.3333333333333,4,2,1,5,0,1
66333,-83.3333333333333,4,2,1,72,0,1
68754,-83.3333333333333,4,2,1,5,0,1
68827,312.337324310255,4,2,1,72,1,0
68827,-83.3333333333333,4,2,1,72,0,1
69998,-83.3333333333333,4,2,1,5,0,1
70076,-83.3333333333333,4,2,1,72,0,1
71247,-83.3333333333333,4,2,1,5,0,1
71325,-83.3333333333333,4,2,1,72,0,1
72570,312.337324310255,4,2,1,72,1,1
72570,-83.3333333333333,4,2,1,72,0,1
73340,312.337324310255,4,2,1,72,1,1
73340,-83.3333333333333,4,2,1,72,0,1
73501,312.337324310255,4,2,1,62,1,1
73501,-83.3333333333333,4,2,1,62,0,1
73829,312.337324310255,4,2,1,72,1,0
73829,-83.3333333333333,4,2,1,72,0,0
77186,-83.3333333333333,4,2,1,5,0,0
77264,-83.3333333333333,4,2,1,72,0,0
83667,-399.999999999997,4,2,1,72,0,0
83979,-399.999999999997,4,2,1,65,0,0
84135,-769.230769230769,4,2,1,65,0,0
84292,-769.230769230769,4,2,1,60,0,0
84448,-769.230769230769,4,2,1,60,0,0
84604,-769.230769230769,4,2,1,55,0,0
84760,-769.230769230769,4,2,1,55,0,0
84916,-769.230769230769,4,2,1,50,0,0
85073,-769.230769230769,4,2,1,50,0,0
85229,-769.230769230769,4,2,1,45,0,0
85385,-769.230769230769,4,2,1,45,0,0
85541,-769.230769230769,4,2,1,40,0,0
85697,-769.230769230769,4,2,1,40,0,0
85853,-769.230769230769,4,2,1,30,0,0
86010,-769.230769230769,4,2,1,30,0,0
86166,-769.230769230769,4,2,1,20,0,0
86322,-769.230769230769,4,2,1,20,0,0
86478,-769.230769230769,4,2,1,10,0,0
86634,-769.230769230769,4,2,1,10,0,0
86790,-769.230769230769,4,2,1,5,0,0
86947,-769.230769230769,4,2,1,5,0,0
87259,-769.230769230769,4,2,1,5,0,0

[Colours]
Combo1 : 155,117,113
Combo2 : 232,116,0
Combo3 : 196,0,0
Combo4 : 139,139,139

[HitObjects]
56,264,274,5,2,0:0:0:0:
56,264,430,2,0,P|46:199|28:134,2,128,2|2|2,0:0|0:0|0:0,0:0:0:0:
268,350,1523,1,2,0:0:0:0:
268,350,1679,2,0,P|278:285|296:217,2,128,2|2|2,0:0|0:0|0:0,0:0:0:0:
464,231,2772,1,2,0:0:0:0:
464,231,2929,2,0,L|456:147,1,64,2|2,0:0|0:0,0:0:0:0:
498,302,3241,2,0,B|462:318|418:313|428:270|358:296,1,128,2|2,0:0|0:0,0:0:0:0:
303,319,3709,1,2,0:0:0:0:
159,373,4022,1,2,0:0:0:0:
51,263,4334,1,2,0:0:0:0:
107,120,4646,1,2,0:0:0:0:
398,54,5271,5,2,0:0:0:0:
398,54,5427,2,0,P|386:112|375:192,2,128,2|2|2,0:0|0:0|0:0,0:0:0:0:
183,139,6520,1,2,0:0:0:0:
183,139,6677,2,0,P|195:197|206:277,2,128,2|2|2,0:0|0:0|0:0,0:0:0:0:
329,188,7614,2,0,P|290:168|230:217,1,128,2|2,0:0|0:0,0:0:0:0:
318,340,8238,1,2,0:0:0:0:
416,221,8551,1,2,0:0:0:0:
360,77,8863,2,0,B|335:44|292:45|238:53|272:134|190:100|172:83,1,192,2|2,0:0|0:0,0:0:0:0:
72,222,10425,6,0,L|82:268,1,42.6666666666667,0|0,1:0|1:0,0:0:0:0:
91,293,10581,1,0,1:0:0:0:
197,246,10737,2,0,L|179:336,1,64,8|8,0:0|0:0,0:0:0:0:
212,351,10971,1,8,0:0:0:0:
212,351,11049,2,0,L|260:342,3,44.0000013427735,8|8|8|8,0:0|0:0|0:0|0:0,0:0:0:0:
318,293,11362,5,6,1:0:0:0:
318,293,11518,2,0,L|421:302,1,88.000002685547,2|8,0:0|0:0,0:0:0:0:
462,171,11830,1,2,0:0:0:0:
462,171,11986,2,0,L|359:180,1,88.000002685547,2|2,1:0|1:0,0:0:0:0:
227,65,12299,1,8,0:0:0:0:
322,33,12455,2,0,P|303:103|287:212,1,176.000005371094,2|2,0:0|1:0,0:0:0:0:
440,280,12923,2,0,P|400:253|352:257,1,88.000002685547,10|2,0:0|0:0,0:0:0:0:
247,303,13236,1,2,1:0:0:0:
247,303,13392,1,2,1:0:0:0:
133,255,13548,2,0,L|123:163,1,88.000002685547,10|2,0:0|0:0,0:0:0:0:
156,33,13860,5,2,1:0:0:0:
156,33,14017,2,0,P|197:39|240:56,1,88.000002685547,2|8,0:0|0:0,0:0:0:0:
404,0,14329,1,2,0:0:0:0:
404,0,14485,2,0,P|362:6|319:23,1,88.000002685547,2|2,1:0|1:0,0:0:0:0:
262,162,14797,1,8,0:0:0:0:
347,104,14954,2,0,P|390:84|491:160,1,176.000005371094,2|2,0:0|0:0,0:0:0:0:
372,310,15422,2,0,P|379:257|392:219,1,88.000002685547,8|2,0:0|0:0,0:0:0:0:
427,202,15656,1,8,0:0:0:0:
427,202,15734,2,0,P|467:226|522:220,1,88.000002685547,0|2,1:0|1:0,0:0:0:0:
488,78,16047,1,8,0:0:0:0:
488,78,16203,1,2,0:0:0:0:
354,122,16359,6,0,B|321:85|266:87|257:153|179:108,1,176.000005371094,6|8,1:0|0:0,0:0:0:0:
84,19,16828,1,2,0:0:0:0:
84,19,16984,2,0,P|115:55|103:110,1,88.000002685547,2|2,1:0|1:0,0:0:0:0:
60,249,17296,1,8,0:0:0:0:
6,160,17452,2,0,B|150:179|150:179|103:209,1,176.000005371094,2|2,0:0|1:0,0:0:0:0:
64,336,17921,2,0,L|59:240,1,88.000002685547,10|2,0:0|0:0,0:0:0:0:
229,261,18233,1,2,1:0:0:0:
229,261,18389,1,2,1:0:0:0:
148,360,18545,2,0,L|141:265,1,88.000002685547,10|2,0:0|0:0,0:0:0:0:
315,362,18858,6,0,B|343:333|390:335|387:379|454:348,1,132.00000402832,6|0,1:0|0:0,0:0:0:0:
477,332,19170,2,0,L|464:226,1,88.000002685547,8|2,0:0|0:0,0:0:0:0:
450,113,19482,1,0,1:0:0:0:
450,113,19639,1,0,1:0:0:0:
344,191,19795,2,0,L|358:52,1,132.00000402832,10|0,0:0|0:0,0:0:0:0:
365,16,20107,1,2,1:0:0:0:
365,16,20263,1,0,0:0:0:0:
249,108,20419,2,0,B|208:88|208:88|146:95,1,88.000002685547,12|2,0:0|0:0,0:0:0:0:
21,118,20732,1,0,1:0:0:0:
78,12,20888,1,8,0:0:0:0:
78,12,20966,1,8,0:0:0:0:
78,12,21044,2,0,L|85:69,3,44.0000013427735,8|8|10|8,0:0|0:0|0:0|0:0,0:0:0:0:
93,105,21356,6,0,L|117:265,1,143.999995605469,4|10,1:0|0:0,0:0:0:0:
66,328,21825,2,0,P|112:282|183:309,1,143.999995605469,2|0,0:0|1:0,0:0:0:0:
239,377,22293,1,8,0:0:0:0:
361,235,22606,1,0,1:0:0:0:
361,235,22762,1,0,1:0:0:0:
270,210,22918,2,0,L|282:296,1,71.9999978027344,8|2,0:0|0:0,0:0:0:0:
355,336,23230,1,2,1:0:0:0:
355,336,23387,2,0,L|443:327,1,71.9999978027344,2|8,1:0|0:0,0:0:0:0:
494,264,23699,5,2,0:0:0:0:
447,182,23855,2,0,L|451:110,1,71.9999978027344,2|0,1:0|0:0,0:0:0:0:
508,35,24167,1,10,0:0:0:0:
508,35,24324,2,0,P|446:15|366:64,1,143.999995605469,2|0,0:0|1:0,0:0:0:0:
315,117,24792,1,8,0:0:0:0:
163,7,25104,1,0,1:0:0:0:
163,7,25261,1,0,1:0:0:0:
129,94,25417,2,0,L|208:89,1,71.9999978027344,10|0,0:0|0:0,0:0:0:0:
238,117,25651,1,8,0:0:0:0:
238,117,25729,2,0,L|222:209,1,71.9999978027344,2|0,1:0|1:0,0:0:0:0:
138,222,26041,2,0,P|200:210|230:248,1,107.999996704102,10|0,0:0|0:0,0:0:0:0:
258,274,26354,6,0,L|337:263,1,71.9999978027344,2|0,1:0|0:0,0:0:0:0:
401,204,26666,2,0,P|358:244|382:313,1,107.999996704102,10|0,0:0|0:0,0:0:0:0:
387,328,26979,1,2,1:0:0:0:
387,328,27135,1,2,1:0:0:0:
475,296,27291,2,0,L|484:160,1,107.999996704102,8|0,0:0|0:0,0:0:0:0:
488,141,27603,1,2,1:0:0:0:
488,141,27759,1,2,0:0:0:0:
410,87,27916,2,0,B|372:83|372:83|341:99|341:99|284:92,1,107.999996704102,10|0,0:0|0:0,0:0:0:0:
260,84,28228,1,2,1:0:0:0:
184,29,28384,2,0,L|170:103,1,71.9999978027344,2|8,1:0|0:0,0:0:0:0:
145,189,28696,1,2,0:0:0:0:
53,167,28853,5,0,1:0:0:0:
53,167,29009,2,0,L|64:261,1,71.9999978027344,2|8,0:0|0:0,0:0:0:0:
14,319,29321,2,0,P|74:273|140:304,1,143.999995605469,2|0,0:0|1:0,0:0:0:0:
192,366,29790,1,8,0:0:0:0:
298,212,30102,1,2,1:0:0:0:
298,212,30258,1,2,0:0:0:0:
211,176,30414,2,0,L|215:248,1,71.9999978027344,10|2,0:0|0:0,0:0:0:0:
382,237,30727,1,8,0:0:0:0:
382,237,30883,1,8,0:0:0:0:
294,140,31039,2,0,L|298:212,1,71.9999978027344,8|2,0:0|0:0,0:0:0:0:
460,275,31351,6,0,P|469:203|489:119,2,143.999995605469,6|8|0,1:0|0:0|0:0,0:0:0:0:
349,357,32132,1,0,1:0:0:0:
308,283,32288,2,0,P|351:271|395:287,1,71.9999978027344,10|0,0:0|0:0,0:0:0:0:
243,367,32601,2,0,B|223:345|195:339|173:350|147:394|91:355,1,143.999995605469,2|8,1:0|0:0,0:0:0:0:
19,247,33069,2,0,P|90:238|130:298,1,143.999995605469,2|0,1:0|1:0,0:0:0:0:
31,384,33538,1,10,0:0:0:0:
10,241,33850,6,0,L|29:86,1,143.999995605469,6|8,1:2|0:0,0:0:0:0:
189,200,34475,1,0,0:0:0:0:
189,200,34631,1,0,1:0:0:0:
27,98,34787,1,10,0:0:0:0:
120,60,34943,2,0,L|101:220,1,143.999995605469,2|0,1:0|1:0,0:0:0:0:
172,295,35412,1,8,0:0:0:0:
312,129,35724,1,2,0:0:0:0:
312,129,35880,1,0,1:0:0:0:
220,101,36036,2,0,L|232:176,1,71.9999978027344,8|0,0:0|0:0,0:0:0:0:
397,109,36349,6,0,P|350:45|260:53,1,143.999995605469,6|8,1:0|0:0,0:0:0:0:
112,204,36973,1,2,0:0:0:0:
112,204,37129,1,0,1:0:0:0:
63,116,37286,2,0,L|134:108,1,71.9999978027344,10|0,0:0|0:0,0:0:0:0:
238,175,37598,2,0,L|383:160,1,143.999995605469,2|8,1:0|0:0,0:0:0:0:
464,70,38066,2,0,P|416:117|433:198,1,143.999995605469,2|0,0:0|1:0,0:0:0:0:
508,278,38535,1,10,0:0:0:0:
253,265,38847,6,0,B|374:254|374:254|351:280,1,151.999995941162,6|8,1:0|0:0,0:0:0:0:
288,361,39316,1,0,0:0:0:0:
187,327,39472,1,2,0:0:0:0:
187,327,39628,1,2,1:0:0:0:
86,362,39784,2,0,L|97:282,1,75.9999979705811,10|2,0:0|0:0,0:0:0:0:
152,167,40097,1,2,0:0:0:0:
152,167,40253,1,2,1:0:0:0:
51,132,40409,2,0,L|62:212,1,75.9999979705811,10|2,0:0|0:0,0:0:0:0:
240,125,40721,1,0,1:0:0:0:
240,125,40878,1,2,1:0:0:0:
141,91,41034,2,0,L|152:171,1,75.9999979705811,10|2,0:0|0:0,0:0:0:0:
171,290,41346,5,2,0:0:0:0:
152,278,43845,5,4,1:0:0:0:
253,249,44001,1,2,0:0:0:0:
253,249,44157,2,0,L|237:350,1,95.9999970703126,10|0,0:0|0:0,0:0:0:0:
75,302,44469,2,0,P|75:247|110:208,1,95.9999970703126,2|0,1:0|1:0,0:0:0:0:
299,159,44782,2,0,P|258:201|163:177,1,143.999995605469,10|0,0:0|0:0,0:0:0:0:
153,158,45094,5,0,1:0:0:0:
192,59,45250,1,2,0:0:0:0:
192,59,45406,2,0,B|237:50|237:50|284:67,1,95.9999970703126,10|0,0:0|0:0,0:0:0:0:
385,101,45719,2,0,B|429:115|429:115|477:105,1,95.9999970703126,2|0,1:0|1:0,0:0:0:0:
349,20,46031,2,0,P|303:67|319:156,1,143.999995605469,10|0,0:0|0:0,0:0:0:0:
333,175,46343,5,0,1:0:0:0:
438,159,46500,1,2,0:0:0:0:
438,159,46656,2,0,L|414:257,1,95.9999970703126,10|0,0:0|0:0,0:0:0:0:
437,361,46968,2,0,B|397:335|397:335|338:340,1,95.9999970703126,2|0,1:0|1:0,0:0:0:0:
243,349,47280,1,10,0:0:0:0:
186,251,47437,2,0,L|282:242,1,95.9999970703126,2|0,0:0|1:0,0:0:0:0:
146,348,47749,2,0,L|39:337,1,95.9999970703126,2|8,0:0|0:0,0:0:0:0:
121,189,48061,2,0,P|164:210|187:276,1,95.9999970703126,2|0,0:0|1:0,0:0:0:0:
50,338,48374,1,2,1:0:0:0:
17,213,48530,2,0,L|34:70,1,143.999995605469,8|0,0:0|0:0,0:0:0:0:
40,27,48842,5,4,1:0:0:0:
130,80,48998,1,2,0:0:0:0:
130,80,49154,2,0,L|228:71,1,95.9999970703126,10|0,0:0|0:0,0:0:0:0:
336,26,49467,2,0,P|311:73|322:124,1,95.9999970703126,2|0,1:0|1:0,0:0:0:0:
459,147,49779,2,0,P|430:101|381:83,1,95.9999970703126,10|0,0:0|0:0,0:0:0:0:
256,210,50091,1,0,1:0:0:0:
157,170,50248,1,2,0:0:0:0:
157,170,50404,2,0,L|165:287,1,95.9999970703126,10|0,0:0|0:0,0:0:0:0:
336,247,50716,2,0,P|289:209|248:210,1,95.9999970703126,2|0,1:0|1:0,0:0:0:0:
198,342,51028,2,0,P|253:320|273:284,1,95.9999970703126,10|0,0:0|0:0,0:0:0:0:
68,165,51341,6,0,L|87:361,2,191.999994140625,6|8|2,1:0|0:0|1:0,0:0:0:0:
100,53,52122,1,0,1:0:0:0:
100,53,52278,2,0,L|-9:66,1,95.9999970703126,10|0,0:0|0:0,0:0:0:0:
158,133,52590,1,2,1:0:0:0:
256,94,52746,1,0,0:0:0:0:
256,94,52903,2,0,L|246:192,1,95.9999970703126,8|2,0:0|0:0,0:0:0:0:
231,322,53215,1,0,1:0:0:0:
353,247,53371,1,8,0:0:0:0:
337,245,53449,1,8,0:0:0:0:
323,242,53527,2,0,L|331:312,3,47.9999985351563,10|8|8|8,0:0|0:0|0:0|0:0,0:0:0:0:
334,337,53840,5,4,1:0:0:0:
436,275,53996,1,2,1:0:0:0:
436,275,54152,2,0,P|441:206|455:112,2,160,10|2|10,0:0|0:0|0:0,0:0:0:0:
214,369,55089,1,0,1:0:0:0:
115,301,55245,1,2,1:0:0:0:
115,301,55401,2,0,P|109:232|96:138,2,160,10|2|10,0:0|0:0|0:0,0:0:0:0:
307,156,56338,5,0,1:0:0:0:
227,66,56494,1,2,1:0:0:0:
227,66,56651,2,0,L|207:241,1,160,10|2,0:0|0:0,0:0:0:0:
56,39,57275,1,10,0:0:0:0:
56,39,57431,2,0,L|144:29,1,80,2|0,0:0|1:0,0:0:0:0:
164,121,57744,2,0,L|235:68,1,80,2|8,1:0|0:0,0:0:0:0:
298,138,58056,2,0,L|314:101,2,40,2|8|8,0:0|0:0|0:0,0:0:0:0:
255,247,58368,1,10,0:0:0:0:
358,298,58525,2,0,P|315:252|239:272,1,120,12|0,0:0|0:0,0:0:0:0:
195,302,58837,6,0,P|100:288|0:279,2,191.999994140625,4|8|0,1:0|0:0|1:0,0:0:0:0:
314,204,59618,1,0,1:0:0:0:
314,204,59774,2,0,P|260:197|210:234,1,95.9999970703126,10|0,0:0|0:0,0:0:0:0:
395,279,60086,2,0,L|413:167,1,95.9999970703126,6|0,1:0|1:0,0:0:0:0:
454,87,60399,1,10,0:0:0:0:
454,87,60555,2,0,L|343:99,1,95.9999970703126,2|4,0:0|1:0,0:0:0:0:
216,17,60867,1,2,1:0:0:0:
216,17,61023,2,0,P|265:6|306:40,1,95.9999970703126,8|2,0:0|0:0,0:0:0:0:
194,192,61336,6,0,B|164:149|115:138|71:198|16:164,2,191.999994140625,4|8|0,1:0|0:0|1:0,0:0:0:0:
265,326,62116,1,0,1:0:0:0:
136,243,62273,1,10,0:0:0:0:
136,243,62429,1,2,0:0:0:0:
280,147,62585,2,0,L|272:263,1,95.9999970703126,6|2,1:0|0:0,0:0:0:0:
139,346,62897,1,10,0:0:0:0:
139,346,63053,2,0,L|128:233,1,95.9999970703126,2|4,0:0|1:0,0:0:0:0:
185,112,63366,1,10,0:0:0:0:
199,110,63444,1,8,0:0:0:0:
213,108,63522,2,0,L|282:116,3,47.9999985351563,8|8|8|8,0:0|0:0|0:0|0:0,0:0:0:0:
303,119,63834,5,4,1:0:0:0:
400,79,63990,1,2,0:0:0:0:
400,79,64147,2,0,L|386:191,1,95.9999970703126,10|0,0:0|0:0,0:0:0:0:
416,291,64459,2,0,B|376:268|376:268|317:280,1,95.9999970703126,2|0,1:0|1:0,0:0:0:0:
195,302,64771,2,0,L|45:274,1,143.999995605469,10|0,0:0|0:0,0:0:0:0:
11,264,65084,1,4,1:0:0:0:
80,185,65240,1,2,0:0:0:0:
80,185,65396,2,0,L|71:77,1,95.9999970703126,10|0,0:0|0:0,0:0:0:0:
148,16,65708,2,0,L|256:25,1,95.9999970703126,2|0,1:0|1:0,0:0:0:0:
331,83,66021,2,0,P|388:69|454:153,1,143.999995605469,10|0,0:0|0:0,0:0:0:0:
461,161,66333,5,4,1:0:0:0:
394,242,66489,1,2,0:0:0:0:
394,242,66645,2,0,B|351:217|351:217|280:224,1,95.9999970703126,10|0,0:0|0:0,0:0:0:0:
218,282,66958,2,0,L|94:263,1,95.9999970703126,2|0,1:0|1:0,0:0:0:0:
0,247,67270,1,10,0:0:0:0:
91,193,67426,2,0,L|77:313,1,95.9999970703126,2|4,0:0|1:0,0:0:0:0:
31,126,67739,2,0,P|79:100|135:114,1,95.9999970703126,2|8,0:0|0:0,0:0:0:0:
239,242,68051,2,0,P|193:212|177:157,1,95.9999970703126,2|0,0:0|1:0,0:0:0:0:
176,12,68363,1,2,1:0:0:0:
307,107,68519,2,0,L|450:93,1,143.999995605469,8|0,0:0|0:0,0:0:0:0:
492,89,68827,5,4,1:0:0:0:
454,187,68983,1,2,0:0:0:0:
454,187,69139,2,0,L|468:292,1,95.9999970703126,10|0,0:0|0:0,0:0:0:0:
441,316,69373,1,8,0:0:0:0:
441,316,69451,2,0,B|398:297|398:297|335:307,1,95.9999970703126,2|0,1:0|1:0,0:0:0:0:
277,382,69764,2,0,P|306:319|263:242,1,143.999995605469,10|0,0:0|0:0,0:0:0:0:
249,223,70076,5,4,1:0:0:0:
147,253,70232,1,2,0:0:0:0:
147,253,70388,2,0,L|159:144,1,95.9999970703126,10|8,0:0|0:0,0:0:0:0:
137,118,70622,1,8,0:0:0:0:
137,118,70701,2,0,L|31:127,1,95.9999970703126,2|0,1:0|1:0,0:0:0:0:
15,23,71013,2,0,L|161:31,1,143.999995605469,10|0,0:0|0:0,0:0:0:0:
197,50,71325,6,0,B|231:12|286:5|308:65|379:32,2,191.999994140625,6|8|2,1:0|0:0|1:0,0:0:0:0:
268,200,72106,1,0,1:0:0:0:
268,200,72262,2,0,L|255:91,1,95.9999970703126,10|0,0:0|0:0,0:0:0:0:
66,195,72570,1,2,1:0:0:0:
154,251,72726,1,0,1:0:0:0:
154,251,72882,2,0,L|163:155,1,95.9999970703126,12|0,0:0|0:0,0:0:0:0:
346,251,73194,1,0,1:0:0:0:
253,303,73340,1,8,0:0:0:0:
351,257,73501,1,10,0:0:0:0:
252,294,73657,1,8,0:0:0:0:
412,378,73829,6,0,P|421:326|431:279,1,95.9999970703126,12|2,0:0|1:0,0:0:0:0:
493,154,74141,2,0,P|430:195|346:129,1,191.999994140625,10|10,0:0|0:0,0:0:0:0:
471,59,74609,1,0,1:0:0:0:
341,121,74766,1,10,0:0:0:0:
476,71,74922,1,0,1:0:0:0:
324,18,75078,6,0,L|335:133,1,95.9999970703126,12|2,0:0|1:0,0:0:0:0:
371,245,75390,2,0,B|320:211|320:211|189:234,1,191.999994140625,10|10,0:0|0:0,0:0:0:0:
101,345,75859,1,0,1:0:0:0:
182,226,76015,1,10,0:0:0:0:
112,353,76171,1,0,1:0:0:0:
29,201,76327,6,0,L|42:85,1,95.9999970703126,12|2,0:0|1:0,0:0:0:0:
157,22,76640,2,0,P|213:28|259:68,1,95.9999970703126,10|0,0:0|1:0,0:0:0:0:
310,132,76952,2,0,L|471:106,1,143.999995605469,10|0,0:0|0:0,0:0:0:0:
491,127,77264,1,10,0:0:0:0:
491,127,77420,2,0,L|479:230,1,95.9999970703126,2|12,1:0|0:0,0:0:0:0:
388,274,77733,2,0,B|349:252|349:252|285:262,1,95.9999970703126,2|8,1:0|0:0,0:0:0:0:
193,276,78045,2,0,B|142:283|142:283|103:261,1,95.9999970703126,2|8,1:0|0:0,0:0:0:0:
16,202,78357,1,10,0:0:0:0:
18,187,78435,1,8,0:0:0:0:
19,172,78514,2,0,L|27:100,3,47.9999985351563,8|8|10|8,0:0|0:0|0:0|0:0,0:0:0:0:
45,91,78826,6,0,B|61:137|136:145|147:70|237:112,2,191.999994140625,4|8|0,1:0|0:0|1:0,0:0:0:0:
138,8,79607,1,0,1:0:0:0:
138,8,79763,2,0,L|239:23,1,95.9999970703126,10|0,0:0|0:0,0:0:0:0:
327,143,80075,1,6,1:0:0:0:
239,16,80231,1,0,1:0:0:0:
316,148,80388,1,10,0:0:0:0:
388,1,80544,2,0,P|343:27|305:74,1,95.9999970703126,2|4,0:0|1:0,0:0:0:0:
405,200,80856,1,2,1:0:0:0:
499,93,81012,2,0,P|457:87|388:105,1,95.9999970703126,8|2,0:0|0:0,0:0:0:0:
278,232,81325,5,4,1:0:0:0:
178,196,81481,1,8,0:0:0:0:
178,196,81559,1,8,0:0:0:0:
178,196,81637,2,0,L|193:291,1,95.9999970703126,8|8,0:0|0:0,0:0:0:0:
114,361,81949,1,8,0:0:0:0:
35,290,82105,1,8,0:0:0:0:
35,290,82184,1,8,0:0:0:0:
35,290,82262,2,0,L|50:195,1,95.9999970703126,10|8,0:0|0:0,0:0:0:0:
9,66,82574,6,0,P|70:111|150:77,1,143.999995605469,10|8,0:0|0:0,0:0:0:0:
164,68,82886,1,10,0:0:0:0:
272,105,83042,1,10,0:0:0:0:
272,105,83121,1,8,0:0:0:0:
272,105,83199,2,0,L|263:-1,2,95.9999970703126,8|8|8,0:0|3:0|3:0,0:0:0:0:
290,294,83667,1,6,1:0:0:0:
256,192,83745,12,0,88665,0:0:0:0:
