osu file format v14

[General]
AudioFilename: audio.mp3
AudioLeadIn: 0
PreviewTime: 43767
Countdown: 0
SampleSet: Soft
StackLeniency: 0.7
Mode: 0
LetterboxInBreaks: 0
WidescreenStoryboard: 1

[Editor]
DistanceSpacing: 1.2
BeatDivisor: 4
GridSize: 8
TimelineZoom: 1.8

[Metadata]
Title:Ranbu no Melody (TV Size)
TitleUnicode:乱舞のメロディ (TV Size)
Artist:SID
ArtistUnicode:シド
Creator:Aakki
Version:Nyantiaz's Hard
Source:BLEACH
Tags:anime opening 13 op of the wild dance male vocals japanese rock jrock j-rock xandit nyantiaz gokugohan12468 kittyadventure gibee games jiebi smoke mnyui sotarks
BeatmapID:2478213
BeatmapSetID:1189202

[Difficulty]
HPDrainRate:4.5
CircleSize:3.4
OverallDifficulty:6.5
ApproachRate:8
SliderMultiplier:1.4
SliderTickRate:1

[Events]
//Background and Video events
Video,-692,"Bleach-OP13.mp4"
0,0,"nyantiaz.jpg",0,0
//Break Periods
2,41546,42991
//Storyboard Layer 0 (Background)
//Storyboard Layer 1 (Fail)
//Storyboard Layer 2 (Pass)
//Storyboard Layer 3 (Foreground)
//Storyboard Layer 4 (Overlay)
//Storyboard Sound Samples

[TimingPoints]
118,312.337324310255,4,2,1,62,1,0
118,-105.263157894737,4,2,1,62,0,0
10268,-100,4,2,1,5,0,0
10425,-100,4,2,1,69,0,0
11362,-95.2380952380952,4,2,1,72,0,0
21356,-100,4,2,1,65,0,0
26276,-100,4,2,1,5,0,0
26354,-100,4,2,1,65,0,0
30648,-100,4,2,1,5,0,0
30727,-100,4,2,1,65,0,0
32522,-100,4,2,1,5,0,0
32601,-100,4,2,1,65,0,0
36271,-100,4,2,1,5,0,0
36349,-105.263157894737,4,2,1,65,0,0
38769,-105.263157894737,4,2,1,5,0,0
38847,-105.263157894737,4,2,1,65,0,0
41346,-105.263157894737,4,2,1,50,0,0
43845,-90.9090909090909,4,2,1,72,0,1
53840,-100,4,2,1,65,0,0
58759,-100,4,2,1,5,0,0
58837,-90.9090909090909,4,2,1,72,0,1
68827,312.337324310255,4,2,1,72,1,1
68827,-90.9090909090909,4,2,1,72,0,1
69998,-90.9090909090909,4,2,1,5,0,1
70076,-90.9090909090909,4,2,1,72,0,1
72570,312.337324310255,4,2,1,72,1,1
72570,-90.9090909090909,4,2,1,72,0,1
73340,312.337324310255,4,2,1,72,1,1
73340,-90.9090909090909,4,2,1,72,0,1
73501,312.337324310255,4,2,1,62,1,1
73501,-90.9090909090909,4,2,1,62,0,1
73829,312.337324310255,4,2,1,72,1,0
73829,-90.9090909090909,4,2,1,72,0,0
83667,-95.2380952380952,4,2,1,72,0,0
83979,-95.2380952380952,4,2,1,65,0,0
84292,-95.2380952380952,4,2,1,60,0,0
84604,-95.2380952380952,4,2,1,55,0,0
84916,-95.2380952380952,4,2,1,50,0,0
85229,-95.2380952380952,4,2,1,45,0,0
85541,-95.2380952380952,4,2,1,40,0,0
85853,-95.2380952380952,4,2,1,30,0,0
86166,-95.2380952380952,4,2,1,20,0,0
86322,-95.2380952380952,4,2,1,20,0,0
86478,-95.2380952380952,4,2,1,10,0,0
86790,-95.2380952380952,4,2,1,5,0,0

[Colours]
Combo1 : 225,0,113
Combo2 : 9,255,132
Combo3 : 140,140,140

[HitObjects]
121,51,118,6,0,P|131:92|123:128,1,66.4999982242585,2|2,0:0|0:0,0:0:0:0:
65,166,430,1,2,0:0:0:0:
40,323,742,2,0,P|91:328|170:278,1,132.999996448517,2|2,0:0|0:0,0:0:0:0:
278,181,1367,6,0,L|351:188,1,66.4999982242585,2|2,0:0|0:0,0:0:0:0:
417,156,1679,1,2,0:0:0:0:
330,21,1992,2,0,L|188:32,1,132.999996448517,2|2,0:0|0:0,0:0:0:0:
49,91,2616,6,0,P|39:129|41:164,1,66.4999982242585,2|2,0:0|0:0,0:0:0:0:
74,228,2929,1,2,0:0:0:0:
227,185,3241,2,0,P|286:184|344:243,1,132.999996448517,2|2,0:0|0:0,0:0:0:0:
322,308,3709,6,0,L|418:208,1,132.999996448517,2|2,0:0|0:0,0:0:0:0:
414,52,4334,2,0,P|352:28|288:55,1,132.999996448517,2|2,0:0|0:0,0:0:0:0:
96,188,5115,6,0,P|101:152|100:117,1,66.4999982242585,2|2,0:0|0:0,0:0:0:0:
56,55,5427,1,2,0:0:0:0:
214,79,5740,2,0,P|192:142|191:209,1,132.999996448517,2|2,0:0|0:0,0:0:0:0:
299,323,6364,6,0,P|338:309|366:308,1,66.4999982242585,2|2,0:0|0:0,0:0:0:0:
436,340,6677,1,2,0:0:0:0:
498,193,6989,2,0,L|359:201,1,132.999996448517,2|2,0:0|0:0,0:0:0:0:
216,142,7614,6,0,P|170:101|259:54,1,199.499994672775,2|2,0:0|0:0,0:0:0:0:
325,94,8238,2,0,P|389:102|447:61,1,132.999996448517,2|2,0:0|0:0,0:0:0:0:
384,213,8863,2,0,P|320:205|262:246,1,132.999996448517,2|2,0:0|0:0,0:0:0:0:
302,308,9331,2,0,B|250:269|250:269|98:292,1,199.499994672775,2|2,0:0|0:0,0:0:0:0:
2,134,10112,6,0,P|-2:89|66:50,1,132.999996448517,2|0,0:0|1:0,0:0:0:0:
138,109,10581,1,0,1:0:0:0:
188,30,10737,1,8,0:0:0:0:
254,109,10893,1,8,0:0:0:0:
254,109,10971,1,8,0:0:0:0:
254,109,11049,2,0,L|247:167,3,35,8|8|8|8,0:0|0:0|0:0|0:0,0:0:0:0:
241,179,11362,6,0,P|278:197|325:198,1,73.4999977569581,6|2,1:0|0:0,0:0:0:0:
397,187,11674,1,8,0:0:0:0:
448,258,11830,2,0,L|442:337,2,73.4999977569581,2|2|2,0:0|1:0|1:0,0:0:0:0:
505,190,12299,1,8,0:0:0:0:
497,102,12455,6,0,B|446:67|446:67|341:90,1,146.999995513916,2|2,0:0|1:0,0:0:0:0:
315,11,12923,2,0,P|285:41|272:76,1,73.4999977569581,10|2,0:0|0:0,0:0:0:0:
192,105,13236,2,0,P|222:135|235:170,1,73.4999977569581,2|2,1:0|1:0,0:0:0:0:
165,218,13548,1,10,0:0:0:0:
165,218,13704,1,2,0:0:0:0:
191,301,13860,6,0,L|276:297,1,73.4999977569581,2|2,1:0|0:0,0:0:0:0:
340,252,14173,1,8,0:0:0:0:
288,180,14329,2,0,B|280:148|280:148|289:102,2,73.4999977569581,2|2|2,0:0|1:0|1:0,0:0:0:0:
371,151,14797,1,8,0:0:0:0:
442,203,14954,6,0,B|410:117|472:142|434:43,1,146.999995513916,2|2,0:0|0:0,0:0:0:0:
371,4,15422,1,8,0:0:0:0:
317,74,15578,1,2,0:0:0:0:
317,74,15656,1,8,0:0:0:0:
317,74,15734,2,0,B|239:68,1,73.4999977569581,0|2,1:0|1:0,0:0:0:0:
172,16,16047,1,8,0:0:0:0:
135,96,16203,1,2,0:0:0:0:
50,72,16359,6,0,P|31:109|33:161,1,73.4999977569581,6|2,1:0|0:0,0:0:0:0:
71,218,16671,1,8,0:0:0:0:
42,301,16828,1,2,0:0:0:0:
42,301,16984,2,0,B|80:314|80:314|126:306,2,73.4999977569581,2|2|8,1:0|1:0|0:0,0:0:0:0:
71,218,17452,6,0,B|127:207|127:207|169:223|169:223|241:214,1,146.999995513916,2|2,0:0|1:0,0:0:0:0:
274,153,17921,2,0,P|298:185|301:238,1,73.4999977569581,10|2,0:0|0:0,0:0:0:0:
378,264,18233,2,0,P|385:228|408:199,1,73.4999977569581,2|2,1:0|1:0,0:0:0:0:
464,133,18545,1,10,0:0:0:0:
464,133,18702,1,2,0:0:0:0:
493,50,18858,5,6,1:0:0:0:
405,42,19014,2,0,P|360:47|319:40,1,73.4999977569581,2|8,0:0|0:0,0:0:0:0:
254,84,19326,2,0,L|262:186,1,73.4999977569581,2|0,0:0|1:0,0:0:0:0:
189,210,19639,2,0,L|181:312,2,73.4999977569581,0|10|0,1:0|0:0|0:0,0:0:0:0:
270,242,20107,5,2,1:0:0:0:
355,222,20263,1,0,0:0:0:0:
355,222,20419,2,0,P|359:186|344:142,1,73.4999977569581,12|2,0:0|0:0,0:0:0:0:
368,64,20732,1,0,1:0:0:0:
287,70,20888,1,8,0:0:0:0:
287,70,20966,1,8,0:0:0:0:
287,70,21044,2,0,L|289:18,3,36.749998878479,8|8|10|8,0:0|0:0|0:0|0:0,0:0:0:0:
265,5,21356,6,0,P|218:-12|118:29,1,140,4|10,1:0|0:0,0:0:0:0:
89,84,21825,2,0,L|97:251,1,140,2|0,0:0|1:0,0:0:0:0:
151,286,22293,2,0,P|189:292|229:280,1,70,8|0,0:0|0:0,0:0:0:0:
286,233,22606,6,0,L|279:93,1,140,0|8,1:0|0:0,0:0:0:0:
211,43,23074,1,2,0:0:0:0:
292,13,23230,1,2,1:0:0:0:
292,13,23387,2,0,B|332:29|332:29|432:22,1,140,2|2,1:0|0:0,0:0:0:0:
477,90,23855,6,0,P|503:156|454:230,1,140,2|10,1:0|0:0,0:0:0:0:
391,221,24324,2,0,P|365:287|414:361,1,140,2|0,0:0|1:0,0:0:0:0:
313,373,24792,2,0,L|236:365,1,70,8|2,0:0|0:0,0:0:0:0:
192,298,25104,6,0,L|179:152,1,140,0|10,1:0|0:0,0:0:0:0:
124,94,25573,2,0,L|120:49,2,35,0|8|2,0:0|0:0|1:0,0:0:0:0:
207,82,25885,1,0,1:0:0:0:
269,26,26041,2,0,P|327:17|344:71,1,105,10|0,0:0|0:0,0:0:0:0:
338,92,26354,6,0,P|406:99|483:109,1,140,2|10,1:0|0:0,0:0:0:0:
477,192,26822,1,2,0:0:0:0:
461,275,26979,2,0,P|425:280|383:263,1,70,2|2,1:0|1:0,0:0:0:0:
314,242,27291,2,0,P|278:237|236:254,1,70,8|0,0:0|0:0,0:0:0:0:
182,301,27603,6,0,P|153:236|116:177,1,140,2|10,1:0|0:0,0:0:0:0:
39,143,28072,1,0,0:0:0:0:
52,63,28228,1,2,1:0:0:0:
52,63,28384,2,0,P|88:29|182:37,1,140,2|2,1:0|0:0,0:0:0:0:
258,16,28853,5,0,1:0:0:0:
225,93,29009,2,0,P|236:139|239:171,1,70,2|8,0:0|0:0,0:0:0:0:
203,237,29321,2,0,P|253:245|321:186,1,140,2|0,0:0|1:0,0:0:0:0:
359,115,29790,2,0,P|383:139|398:174,1,70,8|2,0:0|0:0,0:0:0:0:
438,242,30102,6,0,P|412:291|316:298,1,140,2|10,1:0|0:0,0:0:0:0:
260,266,30570,1,2,0:0:0:0:
215,337,30727,2,0,L|141:348,1,70,8|8,0:0|0:0,0:0:0:0:
104,273,31039,2,0,L|173:262,1,70,8|2,0:0|0:0,0:0:0:0:
207,185,31351,6,0,P|226:131|149:65,2,140,6|8|0,1:0|0:0|0:0,0:0:0:0:
280,226,32132,1,0,1:0:0:0:
363,219,32288,2,0,P|411:222|451:269,1,105,10|0,0:0|0:0,0:0:0:0:
473,295,32601,6,0,P|414:305|338:339,1,140,2|8,1:0|0:0,0:0:0:0:
266,376,33069,2,0,P|207:366|131:332,1,140,2|0,1:0|1:0,0:0:0:0:
78,272,33538,2,0,L|68:196,1,70,10|0,0:0|0:0,0:0:0:0:
15,137,33850,6,0,B|62:171|62:171|165:162,1,140,6|8,1:2|0:0,0:0:0:0:
206,108,34318,1,0,0:0:0:0:
271,55,34475,2,0,P|321:52|345:66,1,70,0|0,0:0|1:0,0:0:0:0:
387,128,34787,1,10,0:0:0:0:
466,100,34943,6,0,B|427:151|427:151|439:239,1,140,2|0,1:0|1:0,0:0:0:0:
387,294,35412,2,0,P|344:306|298:294,1,70,8|2,0:0|0:0,0:0:0:0:
255,248,35724,1,2,0:0:0:0:
255,248,35880,1,0,1:0:0:0:
299,176,36036,2,0,P|307:123|267:69,1,105,8|0,0:0|0:0,0:0:0:0:
246,56,36349,6,0,B|207:87|207:87|103:81,1,132.999996448517,6|8,1:0|0:0,0:0:0:0:
46,98,36817,1,0,0:0:0:0:
12,170,36973,2,0,P|9:223|14:256,1,66.4999982242585,2|0,0:0|1:0,0:0:0:0:
82,271,37286,2,0,P|85:324|80:357,1,66.4999982242585,10|0,0:0|0:0,0:0:0:0:
153,374,37598,6,0,L|292:343,1,132.999996448517,2|8,1:0|0:0,0:0:0:0:
357,373,38066,2,0,B|312:332|312:332|319:241,1,132.999996448517,2|0,0:0|1:0,0:0:0:0:
383,214,38535,2,0,P|354:190|277:192,1,99.7499973363877,10|0,0:0|0:0,0:0:0:0:
255,194,38847,6,0,P|249:132|224:60,1,132.999996448517,6|8,1:0|0:0,0:0:0:0:
68,38,39472,2,0,P|50:86|55:116,1,66.4999982242585,2|2,0:0|1:0,0:0:0:0:
15,171,39784,2,0,P|33:219|28:249,1,66.4999982242585,10|2,0:0|0:0,0:0:0:0:
79,298,40097,6,0,P|130:270|212:282,1,132.999996448517,2|10,0:0|0:0,0:0:0:0:
274,310,40565,1,2,0:0:0:0:
328,251,40721,2,0,L|319:175,2,66.4999982242585,0|2|10,1:0|1:0|0:0,0:0:0:0:
417,350,41346,5,2,0:0:0:0:
91,61,43845,6,0,L|76:156,1,77.0000023498536,4|2,1:0|0:0,0:0:0:0:
135,209,44157,2,0,P|176:214|220:199,1,77.0000023498536,10|0,0:0|0:0,0:0:0:0:
292,162,44469,2,0,B|345:162|345:162|377:197|377:197|435:197,1,154.000004699707,2|10,1:0|0:0,0:0:0:0:
488,269,44938,1,0,0:0:0:0:
391,368,45094,6,0,L|314:368,1,77.0000023498536,0|2,1:0|0:0,0:0:0:0:
221,366,45406,2,0,P|214:327|225:288,1,77.0000023498536,10|0,0:0|0:0,0:0:0:0:
290,226,45719,2,0,L|132:244,1,154.000004699707,2|10,1:0|0:0,0:0:0:0:
59,193,46187,1,0,0:0:0:0:
128,72,46343,6,0,B|161:61|161:61|206:69,1,77.0000023498536,0|2,1:0|0:0,0:0:0:0:
287,105,46656,2,0,B|320:116|320:116|365:108,1,77.0000023498536,10|0,0:0|0:0,0:0:0:0:
402,25,46968,2,0,L|431:183,1,154.000004699707,2|10,1:0|0:0,0:0:0:0:
505,293,47437,6,0,B|469:259|428:257|428:257|400:278|408:331,1,154.000004699707,2|2,0:0|0:0,0:0:0:0:
330,369,47905,1,8,0:0:0:0:
256,312,48061,2,0,B|220:346|179:348|179:348|151:327|159:274,1,154.000004699707,2|2,0:0|1:0,0:0:0:0:
92,221,48530,2,0,P|43:210|8:212,1,77.0000023498536,8|0,0:0|0:0,0:0:0:0:
17,72,48842,6,0,P|66:83|101:81,1,77.0000023498536,4|2,1:0|0:0,0:0:0:0:
175,41,49154,2,0,P|184:93|170:140,1,77.0000023498536,10|0,0:0|0:0,0:0:0:0:
235,190,49467,2,0,B|279:169|279:169|392:185,1,154.000004699707,2|10,1:0|0:0,0:0:0:0:
445,251,49935,1,0,0:0:0:0:
502,124,50091,6,0,P|499:82|506:42,1,77.0000023498536,0|2,1:0|0:0,0:0:0:0:
419,10,50404,2,0,P|382:28|343:21,1,77.0000023498536,10|0,0:0|0:0,0:0:0:0:
257,3,50716,2,0,B|269:51|269:51|254:91|254:91|266:155,1,154.000004699707,2|10,1:0|0:0,0:0:0:0:
201,218,51185,1,0,0:0:0:0:
79,151,51341,6,0,P|14:154|18:233,1,154.000004699707,6|8,1:0|0:0,0:0:0:0:
80,291,51809,1,0,0:0:0:0:
170,273,51965,2,0,P|226:284|264:302,1,77.0000023498536,2|0,1:0|1:0,0:0:0:0:
323,339,52278,2,0,P|379:328|417:310,1,77.0000023498536,10|0,0:0|0:0,0:0:0:0:
484,212,52590,6,0,P|475:129|484:51,1,154.000004699707,2|8,1:0|0:0,0:0:0:0:
399,16,53059,1,2,0:0:0:0:
346,88,53215,1,0,1:0:0:0:
260,48,53371,1,8,0:0:0:0:
260,48,53449,1,8,0:0:0:0:
260,48,53527,2,0,L|210:43,3,38.5000011749268,10|8|8|8,0:0|0:0|0:0|0:0,0:0:0:0:
186,78,53840,6,0,P|192:114|190:150,1,70,4|2,1:0|1:0,0:0:0:0:
118,207,54152,2,0,L|32:201,1,70,10|0,0:0|0:0,0:0:0:0:
4,290,54464,2,0,L|162:300,1,140,2|10,0:0|0:0,0:0:0:0:
217,262,54933,1,0,0:0:0:0:
315,337,55089,6,0,P|351:336|396:312,1,70,0|2,1:0|1:0,0:0:0:0:
440,262,55401,2,0,P|443:218|455:180,1,70,10|0,0:0|0:0,0:0:0:0:
484,116,55714,2,0,B|446:131|420:149|420:149|384:131|346:126,1,140,2|10,0:0|0:0,0:0:0:0:
275,102,56182,1,0,0:0:0:0:
178,182,56338,6,0,P|163:218|160:256,1,70,0|2,1:0|1:0,0:0:0:0:
240,272,56651,2,0,P|255:236|258:198,1,70,10|0,0:0|0:0,0:0:0:0:
186,162,56963,2,0,L|41:151,1,140,2|10,0:0|0:0,0:0:0:0:
2,33,57431,6,0,L|141:22,1,140,2|2,0:0|1:0,0:0:0:0:
209,72,57900,1,8,0:0:0:0:
289,49,58056,2,0,B|328:57|360:38|360:38|358:78|401:102,1,140,2|10,0:0|0:0,0:0:0:0:
449,153,58525,1,12,0:0:0:0:
378,197,58681,1,2,0:0:0:0:
248,147,58837,6,0,L|260:314,1,154.000004699707,4|8,1:0|0:0,0:0:0:0:
182,351,59305,1,0,0:0:0:0:
96,315,59462,2,0,L|87:206,1,77.0000023498536,0|0,1:0|1:0,0:0:0:0:
26,170,59774,2,0,L|35:61,1,77.0000023498536,10|0,0:0|0:0,0:0:0:0:
156,31,60086,6,0,P|234:26|280:89,1,154.000004699707,6|10,1:0|0:0,0:0:0:0:
362,120,60555,2,0,P|286:114|230:172,1,154.000004699707,2|2,0:0|1:0,0:0:0:0:
195,248,61023,2,0,P|213:283|220:326,1,77.0000023498536,8|2,0:0|0:0,0:0:0:0:
349,369,61336,6,0,B|377:347|404:339|404:339|448:365|504:323,1,154.000004699707,4|8,1:0|0:0,0:0:0:0:
504,241,61804,2,0,P|510:165|488:87,1,154.000004699707,0|0,0:0|1:0,0:0:0:0:
407,47,62273,2,0,P|355:62|323:55,1,77.0000023498536,10|2,0:0|0:0,0:0:0:0:
196,37,62585,6,0,P|175:110|181:187,1,154.000004699707,6|10,1:0|0:0,0:0:0:0:
166,278,63053,2,0,P|139:331|37:319,1,154.000004699707,2|10,0:0|0:0,0:0:0:0:
26,295,63444,1,8,0:0:0:0:
26,295,63522,2,0,P|18:246|9:225,3,38.5000011749268,8|8|8|8,0:0|0:0|0:0|0:0,0:0:0:0:
5,213,63834,6,0,P|60:199|93:174,1,77.0000023498536,4|2,1:0|0:0,0:0:0:0:
133,114,64147,2,0,P|188:128|221:153,1,77.0000023498536,10|0,0:0|0:0,0:0:0:0:
231,226,64459,2,0,P|230:166|311:122,1,154.000004699707,2|10,1:0|0:0,0:0:0:0:
390,154,64927,1,0,0:0:0:0:
502,72,65084,6,0,L|511:160,1,77.0000023498536,4|2,1:0|0:0,0:0:0:0:
460,226,65396,2,0,L|451:314,1,77.0000023498536,10|0,0:0|0:0,0:0:0:0:
502,380,65708,2,0,P|436:336|371:367,1,154.000004699707,2|10,1:0|0:0,0:0:0:0:
283,383,66177,1,0,0:0:0:0:
189,280,66333,6,0,P|194:239|234:192,1,77.0000023498536,4|2,1:0|0:0,0:0:0:0:
298,175,66645,2,0,P|317:142|321:104,1,77.0000023498536,10|0,0:0|0:0,0:0:0:0:
259,34,66958,2,0,P|208:19|111:74,1,154.000004699707,2|10,1:0|0:0,0:0:0:0:
1,131,67426,6,0,P|60:180|76:263,1,154.000004699707,2|2,0:0|0:0,0:0:0:0:
29,332,67895,1,8,0:0:0:0:
116,360,68051,2,0,P|196:354|231:282,1,154.000004699707,2|2,0:0|1:0,0:0:0:0:
202,207,68519,2,0,P|209:160|214:126,1,77.0000023498536,8|0,0:0|0:0,0:0:0:0:
298,20,68827,6,0,P|336:28|375:23,1,77.0000023498536,4|2,1:0|0:0,0:0:0:0:
438,88,69139,2,0,P|432:126|426:164,1,77.0000023498536,10|0,0:0|0:0,0:0:0:0:
418,209,69373,1,8,0:0:0:0:
418,209,69451,1,2,1:0:0:0:
454,294,69607,1,0,1:0:0:0:
375,341,69764,2,0,P|318:334|258:366,1,115.50000352478,10|0,0:0|0:0,0:0:0:0:
220,360,70076,6,0,P|171:364|138:352,1,77.0000023498536,4|2,1:0|0:0,0:0:0:0:
74,296,70388,2,0,P|83:254|78:215,1,77.0000023498536,10|8,0:0|0:0,0:0:0:0:
61,177,70622,1,8,0:0:0:0:
61,177,70701,1,2,1:0:0:0:
22,93,70857,1,0,1:0:0:0:
93,34,71013,2,0,P|135:38|182:29,1,77.0000023498536,10|0,0:0|0:0,0:0:0:0:
303,66,71325,6,0,P|239:80|236:170,1,154.000004699707,6|8,1:0|0:0,0:0:0:0:
304,210,71794,1,0,0:0:0:0:
390,178,71950,2,0,P|431:174|471:184,1,77.0000023498536,2|0,1:0|1:0,0:0:0:0:
501,266,72262,2,0,L|491:356,1,77.0000023498536,10|0,0:0|0:0,0:0:0:0:
357,374,72570,6,0,P|275:375|207:331,1,154.000004699707,2|12,1:0|0:0,0:0:0:0:
182,264,73038,2,0,P|128:246|101:250,1,77.0000023498536,0|0,0:0|1:0,0:0:0:0:
25,329,73340,1,8,0:0:0:0:
25,329,73501,2,0,P|12:280|5:228,1,77.0000023498536,10|8,0:0|0:0,0:0:0:0:
87,170,73829,6,0,P|97:132|104:95,1,77.0000023498536,12|2,0:0|1:0,0:0:0:0:
181,44,74141,2,0,P|187:81|198:118,1,77.0000023498536,10|0,0:0|1:0,0:0:0:0:
281,161,74453,2,0,L|449:148,1,154.000004699707,10|10,0:0|0:0,0:0:0:0:
486,225,74922,1,0,1:0:0:0:
404,337,75078,6,0,B|359:351|359:351|312:339,1,77.0000023498536,12|2,0:0|1:0,0:0:0:0:
244,306,75390,2,0,B|199:292|199:292|152:304,1,77.0000023498536,10|0,0:0|1:0,0:0:0:0:
93,351,75703,2,0,P|29:355|36:270,1,154.000004699707,10|10,0:0|0:0,0:0:0:0:
56,194,76171,1,0,1:0:0:0:
192,216,76327,6,0,P|238:216|281:202,1,77.0000023498536,12|2,0:0|1:0,0:0:0:0:
343,154,76640,2,0,P|389:154|432:168,1,77.0000023498536,10|0,0:0|1:0,0:0:0:0:
472,87,76952,2,0,P|420:69|313:68,1,154.000004699707,10|10,0:0|0:0,0:0:0:0:
192,14,77420,6,0,P|140:31|33:32,1,154.000004699707,2|2,1:0|1:0,0:0:0:0:
20,124,77889,1,8,0:0:0:0:
94,179,78045,2,0,L|86:258,1,77.0000023498536,2|8,1:0|0:0,0:0:0:0:
43,340,78357,1,10,0:0:0:0:
43,340,78435,1,8,0:0:0:0:
43,340,78514,2,0,L|95:353,3,38.5000011749268,8|8|10|8,0:0|0:0|0:0|0:0,0:0:0:0:
124,334,78826,6,0,B|177:315|177:315|222:340|222:340|298:330,1,154.000004699707,4|8,1:0|0:0,0:0:0:0:
348,289,79294,1,0,0:0:0:0:
430,330,79451,2,0,P|473:326|499:305,1,77.0000023498536,0|0,1:0|1:0,0:0:0:0:
499,212,79763,2,0,P|456:216|430:237,1,77.0000023498536,10|0,0:0|0:0,0:0:0:0:
292,222,80075,6,0,L|257:152,1,77.0000023498536,6|0,1:0|1:0,0:0:0:0:
212,72,80388,1,10,0:0:0:0:
123,44,80544,2,0,P|68:56|40:90,1,77.0000023498536,2|4,0:0|1:0,0:0:0:0:
20,155,80856,2,0,L|37:245,1,77.0000023498536,2|8,1:0|0:0,0:0:0:0:
119,266,81168,1,2,0:0:0:0:
24,367,81325,6,0,B|68:351|68:351|178:363,1,154.000004699707,4|8,1:0|0:0,0:0:0:0:
254,314,81793,1,8,0:0:0:0:
254,314,81871,1,8,0:0:0:0:
254,314,81949,2,0,L|248:232,1,77.0000023498536,8|8,0:0|0:0,0:0:0:0:
241,145,82262,1,10,0:0:0:0:
325,182,82418,1,8,0:0:0:0:
446,114,82574,6,0,B|496:96|496:96|480:221,1,154.000004699707,10|10,0:0|0:0,0:0:0:0:
471,287,83042,2,0,P|395:284|346:341,1,154.000004699707,10|8,0:0|3:0,0:0:0:0:
255,356,83511,1,8,3:0:0:0:
255,356,83589,1,8,3:0:0:0:
255,356,83667,1,6,1:0:0:0:
256,192,83745,12,0,88665,0:0:0:0:
