osu file format v14

[General]
AudioFilename: audio.mp3
AudioLeadIn: 0
PreviewTime: 151329
Countdown: 0
SampleSet: Soft
StackLeniency: 0.7
Mode: 0
LetterboxInBreaks: 0
WidescreenStoryboard: 0

[Editor]
DistanceSpacing: 2
BeatDivisor: 4
GridSize: 16
TimelineZoom: 2.5

[Metadata]
Title:Rain
TitleUnicode:レイン
Artist:SID
ArtistUnicode:シド
Creator:Yudragen
Version:Solace
Source:鋼の錬金術師 FULLMETAL ALCHEMIST
Tags:Hagane no Renkinjutsushi Brotherhood ED opening FMAB anime japanese chaoticred agatsu fixxis black man harepascals
BeatmapID:2131688
BeatmapSetID:1018700

[Difficulty]
HPDrainRate:6
CircleSize:4.8
OverallDifficulty:8.5
ApproachRate:9.2
SliderMultiplier:2
SliderTickRate:1

[Events]
//Background and Video events
0,0,"red.jpg",0,0
//Break Periods
2,192534,199548
//Storyboard Layer 0 (Background)
//Storyboard Layer 1 (Fail)
//Storyboard Layer 2 (Pass)
//Storyboard Layer 3 (Foreground)
//Storyboard Layer 4 (Overlay)
//Storyboard Sound Samples

[TimingPoints]
540,631.578947368421,4,2,1,35,1,0
1171,-166.666666666667,4,2,1,35,0,0
7329,-166.666666666667,4,2,1,45,0,0
8118,-66.6666666666667,4,2,1,60,0,0
18224,-100,4,2,1,50,0,0
20434,-333.333333333333,4,2,1,50,0,0
23276,-142.857142857143,4,2,1,40,0,0
43487,-111.111111111111,4,2,1,40,0,0
61171,-166.666666666667,4,2,1,50,0,0
62118,-133.333333333333,4,2,1,50,0,0
63697,-125,4,2,1,45,0,0
73803,-100,4,2,1,50,0,0
78855,-133.333333333333,4,2,1,50,0,0
81382,-200,4,2,1,50,0,0
83908,-333.333333333333,4,2,1,50,0,0
84382,-76.9230769230769,4,2,1,50,0,0
84855,-333.333333333333,4,2,1,50,0,0
85329,-58.8235294117647,4,2,1,50,0,0
86434,-54.054054054054,4,2,1,75,0,1
100961,-54.054054054054,4,2,1,70,0,0
101592,-50,4,2,1,85,0,1
106645,-666.666666666667,4,2,1,70,0,0
110750,-100,4,2,1,50,0,0
111697,-83.3333333333333,4,2,1,50,0,0
131276,-66.6666666666667,4,2,1,50,0,0
131908,-200,4,2,1,50,0,0
133961,-83.3333333333333,4,2,1,50,0,0
134434,-71.4285714285714,4,2,1,50,0,0
136961,-83.3333333333333,4,2,1,60,0,0
142013,-200,4,2,1,60,0,0
143908,-100,4,2,1,60,0,0
144540,-200,4,2,1,60,0,0
147066,-76.9230769230769,4,2,1,60,0,0
151487,-100,4,2,1,50,0,0
152118,-54.054054054054,4,2,1,75,0,1
166645,-54.054054054054,4,2,1,70,0,0
167276,-50,4,2,1,85,0,1
172329,-57.1428571428571,4,2,1,65,0,0
187487,-52.6315789473684,4,2,1,70,0,0
200118,-58.8235294117647,4,2,1,60,0,0
202645,-54.054054054054,4,2,1,75,0,1
207066,-54.054054054054,4,2,1,70,0,0
207697,-47.6190476190476,4,2,1,85,0,1
212118,-47.6190476190476,4,2,1,70,0,0
212750,-51.2820512820513,4,2,1,75,0,1
227276,-54.054054054054,4,2,1,70,0,0
227908,-45.4545454545455,4,2,1,85,0,1
232013,-58.8235294117647,4,2,1,85,0,1
232961,-200,4,2,1,50,0,0
234224,-66.6666666666667,4,2,1,60,0,0
244329,-100,4,2,1,50,0,0

[Colours]
Combo1 : 170,192,163
Combo2 : 187,198,208
Combo3 : 222,214,177
Combo4 : 215,204,209

[HitObjects]
131,201,540,5,2,0:2:0:0:
121,133,697,1,0,0:0:0:0:
111,65,855,1,0,0:0:0:0:
120,60,1171,6,0,L|13:45,2,89.9999972534181,2|2|2,0:2|0:2|0:2,0:0:0:0:
372,123,3066,5,2,0:2:0:0:
299,104,3224,1,0,0:0:0:0:
226,118,3382,1,0,0:0:0:0:
221,126,3697,6,0,P|213:82|249:36,2,89.9999972534181,2|2|2,0:2|0:2|0:2,0:0:0:0:
340,332,5592,5,2,0:2:0:0:
375,270,5750,1,0,0:0:0:0:
314,225,5908,1,0,0:0:0:0:
305,228,6224,6,0,P|310:187|315:136,1,89.9999972534181,2|2,0:2|0:2,0:0:0:0:
70,293,7329,5,0,3:0:0:0:
66,298,7408,1,0,3:0:0:0:
62,304,7487,1,8,0:2:0:0:
18,236,7645,1,8,0:2:0:0:
71,177,7803,1,8,0:2:0:0:
10,125,7961,1,8,0:2:0:0:
143,292,8118,6,0,P|201:303|280:212,1,187.500007152558,6|0,3:2|0:0,0:0:0:0:
272,201,8592,2,0,P|204:193|187:206,1,75.0000028610231,10|0,0:2|0:0,0:0:0:0:
336,152,8908,1,2,0:2:0:0:
244,53,9066,5,6,3:2:0:0:
244,53,9224,2,0,L|318:41,1,75.0000028610231,2|0,0:2|0:0,0:0:0:0:
503,141,9540,2,0,P|458:142|396:231,1,150.000005722046,10|2,0:2|3:2,0:0:0:0:
318,176,10013,6,0,P|310:218|318:248,1,75.0000028610231,10|2,0:2|3:2,0:0:0:0:
369,312,10329,1,2,0:2:0:0:
369,312,10487,1,2,0:2:0:0:
83,371,10645,6,0,B|193:364|132:288|235:278,1,187.500007152558,6|0,3:2|0:0,0:0:0:0:
237,284,11118,2,0,P|259:333|253:368,1,75.0000028610231,10|0,0:2|0:0,0:0:0:0:
89,291,11434,1,2,0:2:0:0:
158,180,11592,5,6,3:2:0:0:
86,122,11750,2,0,L|71:218,1,75.0000028610231,2|0,0:2|0:0,0:0:0:0:
51,47,12066,2,0,L|82:248,1,150.000005722046,10|2,0:2|3:2,0:0:0:0:
253,104,12539,5,14,0:2:0:0:
253,104,12697,2,0,P|216:110|183:92,1,75.0000028610231,2|2,0:2|3:2,0:0:0:0:
307,50,13013,1,2,0:2:0:0:
469,169,13171,6,0,L|267:199,1,187.500007152558,6|0,3:2|0:0,0:0:0:0:
278,203,13645,2,0,L|203:191,1,75.0000028610231,10|0,0:2|0:0,0:0:0:0:
365,267,13961,1,2,0:2:0:0:
248,365,14118,5,6,3:2:0:0:
108,303,14276,2,0,P|110:267|132:237,1,75.0000028610231,2|0,0:2|0:0,0:0:0:0:
312,334,14592,2,0,P|258:285|187:300,1,150.000005722046,10|8,0:2|3:2,0:0:0:0:
70,105,15066,5,10,0:2:0:0:
0,134,15224,1,2,3:2:0:0:
42,187,15382,1,2,0:2:0:0:
105,170,15539,1,2,0:2:0:0:
224,39,15697,6,0,P|212:105|323:112,1,187.500007152558,6|0,3:2|0:0,0:0:0:0:
319,113,16171,2,0,L|330:30,1,75.0000028610231,10|0,0:2|0:0,0:0:0:0:
419,123,16487,1,2,0:2:0:0:
384,212,16645,5,6,3:2:0:0:
384,212,16803,2,0,L|263:232,1,112.500004291535,2|0,0:2|0:0,0:0:0:0:
263,241,17118,2,0,L|167:223,2,75.0000028610231,10|0|2,0:2|0:0|0:2,0:0:0:0:
130,341,17592,5,10,0:2:0:0:
111,273,17750,1,10,0:2:0:0:
92,207,17908,1,4,0:3:0:0:
84,201,18224,6,0,B|202:189|128:128|248:116,1,175,6|0,3:2|0:0,0:0:0:0:
225,127,18855,2,0,P|225:108|264:105,1,50,10|0,0:2|0:0,0:0:0:0:
327,186,19171,2,0,P|314:264|300:368,1,175,6|0,3:2|0:0,0:0:0:0:
298,367,19803,2,0,P|287:339|304:318,1,50,2|0,3:2|0:0,0:0:0:0:
418,209,20118,1,8,0:2:0:0:
418,209,20171,2,0,L|434:275,1,66.6666666666667,8|0,0:2|0:0,0:0:0:0:
428,282,20434,6,0,P|424:233|502:297,1,239.999992675781,6|2,3:2|0:2,0:0:0:0:
158,119,23276,6,0,P|215:125|237:152,1,69.9999978637696,6|2,3:2|0:2,0:0:0:0:
262,189,23750,1,0,0:0:0:0:
262,189,23908,2,0,P|250:255|244:293,2,104.999996795654,2|2|2,0:2|0:2|0:2,0:0:0:0:
327,140,25171,1,0,0:0:0:0:
277,80,25487,1,0,0:0:0:0:
388,36,25803,6,0,B|308:48|340:-6|254:6,1,139.999995727539,2|2,0:2|0:2,0:0:0:0:
369,211,26750,1,0,0:0:0:0:
369,211,26908,2,0,P|400:185|403:116,1,104.999996795654,2|2,0:2|0:2,0:0:0:0:
488,282,28329,6,0,L|408:273,1,69.9999978637696,2|2,0:2|0:2,0:0:0:0:
335,368,28961,2,0,P|322:324|336:281,1,69.9999978637696,2|0,0:2|0:0,0:0:0:0:
290,242,29434,2,0,P|239:244|216:311,1,104.999996795654,2|2,0:2|0:2,0:0:0:0:
153,351,30224,1,0,0:0:0:0:
81,310,30540,1,0,0:0:0:0:
134,246,30855,6,0,B|58:251|87:198|-2:199,1,139.999995727539,2|2,0:2|0:2,0:0:0:0:
153,65,31961,2,0,L|126:198,1,104.999996795654,2|2,0:2|0:2,0:0:0:0:
226,30,33066,1,0,0:0:0:0:
226,30,33382,6,0,P|277:38|300:75,1,69.9999978637696,2|2,0:2|0:2,0:0:0:0:
361,189,34013,2,0,P|368:146|375:103,1,69.9999978637696,2|0,0:2|0:0,0:0:0:0:
421,78,34487,2,0,P|457:99|453:185,1,104.999996795654,2|2,0:2|0:2,0:0:0:0:
358,296,35592,1,0,0:0:0:0:
358,296,35908,6,0,P|307:288|284:251,1,69.9999978637696,2|2,0:2|0:2,0:0:0:0:
223,137,36539,2,0,P|216:180|209:223,1,69.9999978637696,2|0,0:2|0:0,0:0:0:0:
163,248,37013,2,0,P|127:227|131:141,1,104.999996795654,2|2,0:2|0:2,0:0:0:0:
102,45,38434,5,2,0:2:0:0:
51,101,38750,1,2,0:2:0:0:
106,157,39066,2,0,P|96:200|87:245,1,69.9999978637696,2|0,0:2|0:0,0:0:0:0:
45,273,39540,2,0,P|75:261|139:321,1,104.999996795654,2|2,0:2|0:2,0:0:0:0:
266,330,40329,2,0,P|218:334|189:360,1,69.9999978637696,0|0,0:0|0:0,0:0:0:0:
344,384,40961,6,0,P|347:335|353:219,1,139.999995727539,2|2,0:2|0:2,0:0:0:0:
400,190,41908,1,2,0:2:0:0:
354,127,42224,2,0,P|364:93|376:46,1,69.9999978637696,2|2,0:2|0:2,0:0:0:0:
464,132,42855,2,0,P|472:165|482:199,1,69.9999978637696,2|2,0:2|0:2,0:0:0:0:
366,46,43487,6,0,P|312:45|269:98,1,89.9999972534181,2|0,3:2|0:0,0:0:0:0:
248,121,43961,2,0,P|288:134|313:120,2,44.999998626709,2|0|0,0:2|0:0|0:0,0:0:0:0:
201,71,44434,2,0,P|172:68|127:99,1,44.999998626709,2|0,0:2|0:0,0:0:0:0:
113,123,44750,2,0,P|121:185|127:234,1,89.9999972534181,2|2,0:2|0:2,0:0:0:0:
74,253,45224,1,0,0:0:0:0:
74,253,45382,2,0,P|137:258|153:290,1,89.9999972534181,2|2,0:2|0:2,0:0:0:0:
147,352,45855,1,0,0:0:0:0:
147,352,46013,6,0,B|252:339|186:263|286:252,1,179.999994506836,2|2,0:2|0:2,0:0:0:0:
341,316,46961,1,0,0:0:0:0:
341,316,47118,2,0,P|327:256|312:171,1,134.999995880127,2|2,0:2|0:2,0:0:0:0:
419,130,48540,6,0,P|422:185|380:218,1,89.9999972534181,2|0,3:2|0:0,0:0:0:0:
269,96,49171,2,0,L|366:83,1,89.9999972534181,2|2,0:2|0:2,0:0:0:0:
418,41,49645,2,0,P|403:16|402:-3,2,44.999998626709,2|0|0,0:2|0:0|0:0,0:0:0:0:
479,78,50118,2,0,L|463:141,1,44.999998626709,2|0,0:2|0:0,0:0:0:0:
512,170,50434,2,0,P|466:163|421:198,1,89.9999972534181,2|2,0:2|0:2,0:0:0:0:
395,243,50908,1,0,0:0:0:0:
395,243,51066,6,0,P|349:250|303:201,1,89.9999972534181,2|0,0:2|0:0,0:0:0:0:
277,164,51540,1,2,0:2:0:0:
277,164,51697,2,0,L|296:316,2,134.999995880127,2|2|2,0:2|0:2|0:2,0:0:0:0:
100,48,53276,1,2,0:2:0:0:
100,48,53592,6,0,P|73:95|76:123,1,44.999998626709,2|0,3:2|0:0,0:0:0:0:
149,101,53908,2,0,P|158:121|174:137,1,44.999998626709,2|0,0:2|0:0,0:0:0:0:
223,82,54224,2,0,P|244:89|312:57,1,89.9999972534181,2|2,0:2|0:2,0:0:0:0:
344,8,54697,1,2,0:2:0:0:
406,87,55171,1,2,0:2:0:0:
335,212,55803,1,2,0:2:0:0:
335,212,56118,6,0,L|351:290,1,44.999998626709,2|0,3:2|0:0,0:0:0:0:
389,306,56434,2,0,L|373:384,1,44.999998626709,2|0,0:2|0:0,0:0:0:0:
317,373,56750,2,0,P|279:358|264:324,1,44.999998626709,2|0,0:2|0:0,0:0:0:0:
239,298,57066,1,2,0:2:0:0:
239,298,57224,2,0,P|190:275|111:314,1,134.999995880127,2|2,0:2|0:2,0:0:0:0:
8,154,58329,1,2,0:2:0:0:
62,117,58487,1,2,0:2:0:0:
103,173,58645,6,0,L|202:155,1,89.9999972534181,2|2,3:2|0:2,0:0:0:0:
243,113,59118,2,0,L|299:125,2,44.999998626709,2|0|0,0:2|0:0|0:0,0:0:0:0:
184,164,59592,2,0,P|210:213|211:236,1,44.999998626709,2|0,0:2|0:0,0:0:0:0:
173,266,59908,2,0,P|149:324|162:389,2,89.9999972534181,2|2|2,0:2|0:2|0:2,0:0:0:0:
361,244,61013,1,2,0:2:0:0:
361,244,61092,1,0,0:0:0:0:
361,244,61171,6,0,P|302:233|251:276,1,119.999996337891,2|0,0:2|0:0,0:0:0:0:
443,138,62118,5,2,0:3:0:0:
490,191,62276,1,2,0:3:0:0:
455,247,62434,2,0,L|466:303,1,37.5000014305115,2|0,0:3|0:0,0:0:0:0:
420,337,62750,1,2,0:3:0:0:
420,337,63066,2,0,L|282:313,1,131.25000500679,6|0,0:3|0:0,0:0:0:0:
280,323,63697,6,0,L|212:332,2,40,2|2|2,3:2|0:2|0:2,0:0:0:0:
330,259,64171,2,0,P|339:217|303:162,1,80,2|2,0:2|0:2,0:0:0:0:
274,136,64645,1,0,3:0:0:0:
274,136,64803,2,0,P|252:87|356:13,1,200,2|8,0:2|0:3,0:0:0:0:
405,61,65750,1,2,0:2:0:0:
372,120,65908,1,0,0:0:0:0:
422,168,66066,1,2,0:2:0:0:
501,103,66224,6,0,P|465:112|452:144,1,40,2|0,3:2|0:0,0:0:0:0:
417,179,66539,1,2,0:2:0:0:
416,180,66697,2,0,L|431:234,1,40,2|0,0:2|0:0,0:0:0:0:
378,271,67013,2,0,L|363:325,1,40,2|0,0:2|3:0,0:0:0:0:
313,354,67329,2,0,P|262:336|214:353,1,80,2|2,0:2|0:2,0:0:0:0:
161,378,67803,2,0,P|170:344|165:274,1,80,2|8,0:2|0:3,0:0:0:0:
170,299,68434,1,2,0:2:0:0:
123,247,68592,1,2,0:2:0:0:
181,200,68750,6,0,P|132:211|76:135,2,120,2|2|2,3:2|0:2|3:2,0:0:0:0:
229,151,69855,1,0,0:0:0:0:
229,151,70013,2,0,P|274:147|294:161,1,40,2|0,0:2|0:0,0:0:0:0:
323,183,70329,2,0,P|368:187|388:173,1,40,2|0,0:2|0:0,0:0:0:0:
415,145,70645,2,0,P|426:81|434:31,1,80,8|2,0:3|0:2,0:0:0:0:
473,193,71276,6,0,P|462:269|508:309,1,120,2|2,3:2|0:2,0:0:0:0:
458,358,71908,2,0,L|405:350,1,40,2|2,0:2|0:2,0:0:0:0:
375,302,72224,1,2,3:0:0:0:
280,373,72539,2,0,P|306:313|243:227,1,160,2|4,0:3|0:3,0:0:0:0:
37,100,73803,5,2,3:2:0:0:
108,130,73961,1,2,0:2:0:0:
160,74,74118,1,2,0:2:0:0:
228,157,74276,2,0,P|194:149|174:123,1,50,2|0,0:2|0:0,0:0:0:0:
224,41,74592,2,0,P|236:73|227:104,1,50,2|0,0:2|3:0,0:0:0:0:
178,221,74908,2,0,P|226:196|293:336,1,250,2|8,0:2|0:3,0:0:0:0:
361,365,75855,1,2,0:2:0:0:
429,324,76013,1,2,0:2:0:0:
403,262,76171,1,2,0:2:0:0:
491,230,76329,6,0,P|457:217|440:192,1,50,2|2,3:2|0:2,0:0:0:0:
422,144,76645,1,2,0:2:0:0:
422,144,76803,2,0,L|440:95,1,50,2|0,0:2|0:0,0:0:0:0:
339,138,77118,2,0,L|356:184,1,50,2|0,0:2|3:0,0:0:0:0:
279,93,77434,2,0,P|211:93|188:128,1,100,2|2,0:2|0:2,0:0:0:0:
154,172,77908,2,0,P|86:172|63:137,1,100,2|8,0:2|0:3,0:0:0:0:
69,152,78539,1,2,0:2:0:0:
24,219,78697,1,0,0:0:0:0:
24,219,78776,1,0,0:0:0:0:
24,219,78855,6,0,P|69:253|59:354,1,150.000005722046,2|0,3:2|0:0,0:0:0:0:
129,382,79803,1,2,3:2:0:0:
186,334,80118,2,0,P|237:340|265:378,2,75.0000028610231,0|0|12,0:0|0:0|0:3,0:0:0:0:
137,280,80908,1,2,0:2:0:0:
206,239,81066,1,2,0:2:0:0:
163,176,81224,1,2,0:2:0:0:
197,81,81382,5,2,0:2:0:0:
197,81,81855,1,2,0:2:0:0:
197,81,82329,1,2,0:2:0:0:
220,156,83908,6,0,L|256:163,1,37.4999988555909,4|0,3:1|0:1,0:1:0:0:
264,156,84382,6,0,B|291:223|291:223|283:249|283:249|307:309,1,162.499992561341,6|0,3:1|0:1,0:1:0:0:
300,312,84855,6,0,L|336:319,1,37.4999988555909,4|0,3:1|0:1,0:1:0:0:
345,324,85329,6,0,B|374:255|374:255|361:231|361:231|390:153,1,170.000003242493,6|0,3:1|0:1,0:1:0:0:
398,84,86434,6,0,B|297:74|332:151|229:141,1,184.999999294281,6|0,3:2|3:0,0:0:0:0:
173,91,86908,1,0,0:2:0:0:
409,103,87066,6,0,P|350:107|324:133,1,92.4999996471405,10|0,0:2|0:0,0:0:0:0:
471,163,87382,2,0,P|437:193|430:238,1,92.4999996471405,2|0,0:2|0:0,0:0:0:0:
306,355,87697,6,0,L|397:373,1,92.4999996471405,2|8,3:2|0:2,0:0:0:0:
297,344,88012,1,2,3:2:0:0:
406,384,88170,1,2,0:2:0:0:
247,197,88329,2,0,P|331:205|369:297,1,184.999999294281,10|2,0:2|0:2,0:0:0:0:
200,369,88803,1,8,0:2:0:0:
200,369,88882,1,8,0:2:0:0:
200,369,88961,5,2,3:2:0:0:
178,300,89118,1,8,0:2:0:0:
156,231,89276,1,0,3:0:0:0:
36,328,89434,5,0,3:0:0:0:
75,274,89592,2,0,P|65:212|52:127,1,138.749999470711,8|0,0:2|0:0,0:0:0:0:
61,129,89908,1,2,3:2:0:0:
179,82,90066,6,0,P|125:75|94:9,1,92.4999996471405,0|0,3:0|0:0,0:0:0:0:
258,157,90382,1,8,0:2:0:0:
305,106,90539,2,0,P|359:113|390:179,1,92.4999996471405,0|0,3:0|0:0,0:0:0:0:
478,247,90855,6,0,P|467:140|460:69,1,138.749999470711,10|0,0:2|0:0,0:0:0:0:
474,103,91171,2,0,P|507:146|482:214,1,92.4999996471405,2|0,0:2|0:0,0:0:0:0:
421,302,91487,6,0,P|332:285|247:268,1,138.749999470711,6|0,3:2|0:0,0:0:0:0:
276,268,91803,2,0,L|178:279,1,92.4999996471405,0|0,3:0|0:0,0:0:0:0:
103,369,92118,6,0,P|118:294|75:249,1,138.749999470711,10|0,0:2|0:0,0:0:0:0:
71,255,92434,1,2,0:2:0:0:
140,107,92592,1,2,0:2:0:0:
81,148,92750,6,0,P|20:134|-6:101,1,92.4999996471405,2|8,3:2|0:2,0:0:0:0:
153,119,93066,2,0,P|186:172|181:213,1,92.4999996471405,2|0,3:2|0:0,0:0:0:0:
198,53,93382,2,0,B|241:14|285:42|290:44|294:45|337:76|378:41,1,184.999999294281,10|2,0:2|0:2,0:0:0:0:
446,88,93855,1,0,0:0:0:0:
308,259,94013,5,2,3:2:0:0:
331,190,94171,1,8,0:2:0:0:
354,121,94329,1,0,3:0:0:0:
315,269,94487,5,0,3:0:0:0:
408,185,94645,2,0,P|474:191|504:274,1,138.749999470711,10|0,0:2|0:0,0:0:0:0:
502,260,94961,1,2,3:2:0:0:
477,168,95118,2,0,P|503:196|505:252,1,92.4999996471405,0|0,3:0|0:0,0:0:0:0:
460,328,95434,5,8,0:2:0:0:
318,183,95592,2,0,P|331:127|341:71,1,92.4999996471405,0|0,3:0|3:0,0:0:0:0:
289,333,95908,5,10,0:2:0:0:
289,333,96224,1,10,0:2:0:0:
145,255,96382,1,8,0:2:0:0:
318,253,96539,6,0,P|223:275|209:352,1,184.999999294281,6|0,3:2|3:0,0:0:0:0:
148,380,97013,1,0,0:0:0:0:
318,267,97171,6,0,P|254:268|229:297,1,92.4999996471405,10|0,0:2|0:0,0:0:0:0:
395,241,97487,2,0,P|358:188|320:183,1,92.4999996471405,2|8,0:2|0:2,0:0:0:0:
227,28,97803,5,2,3:2:0:0:
272,93,97961,2,0,P|257:151|245:199,1,92.4999996471405,8|2,0:2|3:2,0:0:0:0:
108,46,98276,1,2,0:2:0:0:
23,189,98434,2,0,B|119:196|83:108|182:115,1,184.999999294281,10|2,0:2|0:2,0:0:0:0:
97,52,98908,1,0,0:2:0:0:
217,249,99066,5,2,3:2:0:0:
156,280,99224,1,8,0:2:0:0:
95,311,99382,1,0,3:0:0:0:
215,235,99539,5,0,3:0:0:0:
261,384,99697,2,0,L|272:292,1,92.4999996471405,10|0,0:2|0:0,0:0:0:0:
465,188,100013,5,10,0:2:0:0:
410,240,100171,2,0,P|344:234|314:151,1,138.749999470711,0|0,3:0|0:0,0:0:0:0:
316,165,100487,1,8,0:2:0:0:
341,257,100645,2,0,P|315:229|313:173,1,92.4999996471405,0|0,3:0|3:0,0:0:0:0:
358,97,100960,5,8,0:2:0:0:
358,97,101276,1,2,3:2:0:0:
421,253,101434,1,0,0:0:0:0:
306,47,101592,5,6,3:2:0:0:
450,123,101750,2,0,L|319:99,1,100,8|0,0:2|0:0,0:0:0:0:
178,189,102066,5,2,3:2:0:0:
191,45,102224,2,0,P|227:104|201:155,1,100,8|0,0:2|0:0,0:0:0:0:
86,292,102539,5,6,3:2:0:0:
44,236,102697,2,0,P|125:213|180:300,1,200,8|0,0:2|3:0,0:0:0:0:
339,239,103171,5,10,0:2:0:0:
289,295,103329,1,0,3:0:0:0:
287,300,103408,1,0,3:0:0:0:
285,305,103487,1,0,3:0:0:0:
359,355,103645,1,8,0:2:0:0:
305,169,103803,5,2,3:2:0:0:
171,309,103961,1,8,0:2:0:0:
469,344,104118,5,6,3:2:0:0:
479,181,104276,2,0,P|508:223|501:303,1,100,8|0,0:2|0:0,0:0:0:0:
238,163,104592,5,2,3:2:0:0:
367,156,104750,2,0,B|277:138|332:96|241:83,1,150,8|0,0:2|0:0,0:0:0:0:
230,88,105066,5,6,3:2:0:0:
391,224,105224,2,0,P|407:117|421:16,1,200,8|0,0:2|3:0,0:0:0:0:
214,365,105697,5,8,0:2:0:0:
355,341,105855,1,0,3:0:0:0:
355,341,105934,1,0,3:0:0:0:
355,341,106013,1,4,3:0:0:0:
265,244,106171,1,0,3:0:0:0:
400,236,106329,5,8,0:2:0:0:
145,316,106487,1,0,3:2:0:0:
145,316,106566,1,0,3:2:0:0:
145,316,106645,6,0,L|161:187,1,119.999996337891,6|0,3:2|0:0,0:0:0:0:
101,191,110750,5,2,0:2:0:0:
71,125,110908,1,0,3:0:0:0:
212,184,111066,5,10,0:2:0:0:
167,243,111224,1,0,3:0:0:0:
167,243,111382,6,0,P|214:254|235:280,1,75,2|0,0:2|0:0,0:0:0:0:
226,280,111697,6,0,P|300:267|355:258,1,119.999996337891,6|0,3:2|0:0,0:0:0:0:
408,135,112171,2,0,P|395:177|413:217,1,89.9999972534181,10|0,0:2|0:0,0:0:0:0:
422,219,112487,1,2,0:3:0:0:
350,256,112645,2,0,P|375:283|412:286,1,59.9999981689454,2|0,3:2|0:0,0:0:0:0:
325,77,112961,5,2,0:2:0:0:
325,77,113118,1,0,0:0:0:0:
274,134,113276,2,0,P|283:171|291:212,1,59.9999981689454,2|0,3:2|0:0,0:0:0:0:
177,67,113592,2,0,P|137:60|74:116,1,119.999996337891,10|2,0:2|0:2,0:0:0:0:
189,55,114066,1,0,0:0:0:0:
48,184,114224,6,0,P|34:111|20:40,1,119.999996337891,2|0,3:2|0:0,0:0:0:0:
150,140,114697,2,0,P|138:198|127:257,1,119.999996337891,10|2,0:2|0:3,0:0:0:0:
199,65,115171,6,0,P|239:23|297:31,2,119.999996337891,2|2|0,3:2|0:3|3:0,0:0:0:0:
313,104,115961,1,2,0:3:0:0:
373,0,116118,2,0,L|392:77,1,59.9999981689454,8|0,0:2|0:0,0:0:0:0:
449,157,116434,2,0,L|463:98,1,59.9999981689454,2|0,0:3|0:0,0:0:0:0:
512,214,116750,6,0,P|479:196|386:265,1,149.999995422363,0|0,3:0|0:0,0:0:0:0:
390,255,117224,1,8,0:2:0:0:
509,229,117382,2,0,P|480:212|453:214,1,59.9999981689454,2|0,0:2|0:0,0:0:0:0:
314,325,117697,1,2,3:2:0:0:
314,325,117855,6,0,L|281:176,1,149.999995422363,2|0,0:2|0:0,0:0:0:0:
287,169,118329,2,0,P|320:184|328:211,1,59.9999981689454,2|0,3:2|0:0,0:0:0:0:
221,273,118645,2,0,B|153:275|183:236|108:238,1,119.999996337891,10|2,0:2|3:2,0:0:0:0:
61,282,119118,1,0,0:0:0:0:
2,101,119276,6,0,P|50:94|99:158,1,119.999996337891,2|2,3:2|0:3,0:0:0:0:
93,147,119671,1,2,0:3:0:0:
88,152,119750,2,0,P|109:168|136:162,1,29.9999990844727,2|0,0:2|0:3,0:0:0:0:
199,73,119908,2,0,L|218:191,1,119.999996337891,2|0,0:2|3:0,0:0:0:0:
188,67,120382,1,0,0:0:0:0:
331,89,120539,6,0,P|288:95|268:120,1,59.9999981689454,2|0,0:3|0:0,0:0:0:0:
234,0,120855,2,0,P|258:16|288:16,1,59.9999981689454,0|2,3:0|0:3,0:0:0:0:
402,158,121171,2,0,L|424:30,1,119.999996337891,8|2,0:2|0:2,0:0:0:0:
482,197,121645,1,0,0:0:0:0:
482,197,121724,1,0,0:0:0:0:
482,197,121803,6,0,P|429:192|392:270,1,149.999995422363,2|0,3:2|0:0,0:0:0:0:
401,280,122276,1,8,0:2:0:0:
500,318,122434,2,0,P|469:329|447:361,1,59.9999981689454,2|0,0:2|0:0,0:0:0:0:
247,283,122750,1,2,3:2:0:0:
247,283,122908,6,0,P|293:278|326:347,1,119.999996337891,2|0,0:2|0:0,0:0:0:0:
195,384,123382,2,0,L|171:306,1,59.9999981689454,0|0,3:0|0:0,0:0:0:0:
116,278,123697,2,0,L|147:169,1,89.9999972534181,8|0,0:2|0:0,0:0:0:0:
150,184,124013,2,0,L|132:126,1,59.9999981689454,2|0,0:2|0:0,0:0:0:0:
35,78,124329,6,0,P|97:58|168:32,1,119.999996337891,2|2,3:2|0:0,0:0:0:0:
281,144,124803,1,8,0:2:0:0:
310,79,124961,2,0,P|252:68|205:114,1,119.999996337891,2|2,0:2|3:2,0:0:0:0:
336,215,125434,1,2,0:2:0:0:
336,215,125592,6,0,L|442:193,1,89.9999972534181,2|0,0:3|0:0,0:0:0:0:
435,205,125908,2,0,L|506:218,1,59.9999981689454,0|2,3:0|0:3,0:0:0:0:
390,341,126224,2,0,B|324:336|345:296|282:287,1,119.999996337891,8|2,0:2|0:2,0:0:0:0:
402,334,126697,1,2,0:2:0:0:
237,338,126855,6,0,P|214:299|247:229,1,119.999996337891,2|2,3:2|0:2,0:0:0:0:
162,371,127329,2,0,P|94:359|37:348,1,119.999996337891,10|2,0:2|0:3,0:0:0:0:
0,250,127803,2,0,P|48:278|54:305,1,59.9999981689454,2|0,3:2|0:2,0:0:0:0:
178,162,128118,6,0,P|123:159|80:214,1,119.999996337891,2|2,0:2|3:2,0:0:0:0:
186,150,128592,1,2,0:3:0:0:
281,225,128750,2,0,P|265:160|251:88,1,119.999996337891,10|2,0:2|0:3,0:0:0:0:
363,204,129224,1,2,3:2:0:0:
363,204,129303,1,0,3:0:0:0:
363,204,129382,6,0,P|417:191|469:254,1,119.999996337891,0|2,3:0|0:3,0:0:0:0:
336,359,129855,2,0,B|263:346|303:314|231:301,1,119.999996337891,8|2,0:2|0:3,0:0:0:0:
346,350,130329,2,0,P|304:332|286:296,1,59.9999981689454,0|0,3:0|0:0,0:0:0:0:
175,348,130645,5,2,0:3:0:0:
175,348,130961,1,0,3:0:0:0:
114,292,131118,1,2,0:3:0:0:
253,231,131276,2,0,P|186:217|170:149,1,112.500004291535,12|0,0:2|0:0,0:0:0:0:
174,168,131592,1,0,3:0:0:0:
365,282,131750,1,0,3:0:0:0:
365,282,131829,1,0,3:0:0:0:
365,282,131908,6,0,B|393:309|391:345|391:345|413:252|332:269|365:176,1,250,6|4,3:2|0:3,0:0:0:0:
435,215,133961,5,4,0:3:0:0:
461,93,134118,2,0,L|478:157,1,59.9999981689454,4|0,0:3|0:0,0:0:0:0:
355,35,134434,6,0,P|324:18|245:72,1,139.999995727539,6|2,3:2|0:2,0:0:0:0:
274,128,134908,1,2,0:2:0:0:
155,17,135066,6,0,L|140:110,1,69.9999978637696,8|2,0:2|0:2,0:0:0:0:
55,206,135382,1,0,3:2:0:0:
55,206,135461,1,0,3:2:0:0:
55,206,135540,2,0,P|81:202|93:210,1,34.9999989318848,2|0,3:2|3:2,0:0:0:0:
206,243,135697,2,0,B|126:235|163:290|75:279,1,139.999995727539,8|4,0:2|0:3,0:0:0:0:
27,328,136171,1,0,0:0:0:0:
215,233,136329,5,0,3:0:0:0:
243,304,136487,1,4,0:3:0:0:
271,375,136645,1,4,0:3:0:0:
265,381,136803,1,2,0:2:0:0:
430,204,136961,6,0,P|374:202|337:255,1,119.999996337891,6|0,3:2|0:0,0:0:0:0:
478,372,137434,2,0,P|487:300|497:230,1,119.999996337891,2|0,3:2|0:0,0:0:0:0:
425,196,137908,2,0,P|419:155|414:116,1,59.9999981689454,2|0,3:2|0:0,0:0:0:0:
512,68,138224,6,0,P|456:70|419:17,1,119.999996337891,10|2,0:2|0:2,0:0:0:0:
316,149,138697,1,8,0:2:0:0:
271,95,138855,2,0,P|278:44|286:-4,1,89.9999972534181,2|0,0:2|0:0,0:0:0:0:
294,0,139171,2,0,P|317:32|310:62,1,59.9999981689454,2|0,3:2|0:0,0:0:0:0:
189,143,139487,6,0,B|117:136|158:106|78:99,1,119.999996337891,2|0,3:2|0:0,0:0:0:0:
201,136,139961,1,2,3:2:0:0:
137,213,140118,2,0,P|124:266|120:291,1,59.9999981689454,2|0,0:2|0:0,0:0:0:0:
46,282,140434,2,0,P|74:328|89:349,1,59.9999981689454,0|0,3:0|0:0,0:0:0:0:
210,244,140750,6,0,P|260:247|287:299,1,89.9999972534181,8|0,0:2|0:0,0:0:0:0:
286,288,141066,1,0,3:0:0:0:
359,384,141224,2,0,L|375:265,1,119.999996337891,8|0,0:2|3:0,0:0:0:0:
483,177,141697,2,0,P|447:170|427:144,1,59.9999981689454,8|0,3:2|3:0,0:0:0:0:
430,147,141934,1,0,3:0:0:0:
434,141,142013,6,0,B|352:152|410:193|308:204,1,137.5,6|0,3:2|0:0,0:0:0:0:
307,196,142961,5,8,0:2:0:0:
442,132,143118,1,2,3:2:0:0:
435,121,143434,5,8,0:2:0:0:
362,374,143592,1,4,0:3:0:0:
369,366,143908,6,0,P|301:326|222:377,1,175,8|0,0:3|0:0,0:0:0:0:
229,378,144540,6,0,B|243:285|243:285|232:269|232:269|246:179,1,200,6|2,3:2|0:3,0:0:0:0:
0,0,147066,5,6,3:2:0:0:
58,42,147224,2,0,P|130:25|163:20,1,64.9999970245363,2|0,0:0|0:0,0:0:0:0:
241,164,147540,5,14,0:2:0:0:
288,109,147697,2,0,P|295:84|274:34,1,64.9999970245363,2|0,0:0|0:0,0:0:0:0:
102,239,148013,6,0,B|200:225|153:294|258:273,1,162.499992561341,6|0,3:2|0:0,0:0:0:0:
260,267,148487,2,0,P|220:274|209:359,1,129.999994049073,12|2,0:2|3:3,0:0:0:0:
376,249,148961,5,12,0:2:0:0:
351,178,149118,1,2,0:2:0:0:
472,295,149276,5,14,0:2:0:0:
445,360,149434,1,2,0:2:0:0:
461,178,149592,5,2,0:2:0:0:
471,168,149908,1,0,1:0:0:0:
430,110,150224,5,8,0:2:0:0:
503,62,150540,1,10,0:2:0:0:
384,0,150855,5,8,0:2:0:0:
482,284,151171,1,10,0:3:0:0:
257,192,151487,5,2,0:0:0:0:
322,162,151645,1,2,0:0:0:0:
227,127,151803,5,2,0:0:0:0:
351,229,151961,1,2,0:0:0:0:
204,282,152118,6,0,B|103:292|149:212|32:226,1,184.999999294281,6|0,3:2|3:0,0:0:0:0:
0,283,152592,1,0,0:0:0:0:
209,268,152750,6,0,P|140:255|119:226,1,92.4999996471405,10|0,0:2|0:0,0:0:0:0:
251,200,153066,2,0,P|227:133|242:101,1,92.4999996471405,2|0,0:2|0:0,0:0:0:0:
401,268,153382,6,0,P|355:265|307:315,1,92.4999996471405,2|8,3:2|0:2,0:0:0:0:
411,259,153697,1,2,3:2:0:0:
310,304,153855,1,2,0:2:0:0:
484,384,154013,6,0,P|494:316|506:233,1,138.749999470711,10|0,0:2|0:0,0:0:0:0:
512,238,154329,2,0,P|503:179|493:107,1,92.4999996471405,2|8,0:2|0:2,0:0:0:0:
299,88,154645,5,2,3:2:0:0:
369,64,154803,1,8,0:2:0:0:
439,40,154961,1,0,3:0:0:0:
266,212,155118,5,0,3:0:0:0:
337,245,155276,2,0,P|256:249|226:296,1,138.749999470711,8|0,0:2|0:0,0:0:0:0:
231,302,155592,1,2,3:2:0:0:
72,186,155750,6,0,P|110:242|102:286,1,92.4999996471405,0|0,3:0|0:0,0:0:0:0:
118,86,156066,1,8,0:2:0:0:
175,132,156224,2,0,P|213:76|205:32,1,92.4999996471405,0|0,3:0|0:0,0:0:0:0:
490,104,156540,6,0,B|409:94|447:154|346:142,1,138.749999470711,10|0,0:2|0:0,0:0:0:0:
361,136,156855,2,0,P|400:162|388:218,1,92.4999996471405,2|0,0:2|0:0,0:0:0:0:
296,383,157171,6,0,L|270:240,1,138.749999470711,6|0,3:2|0:0,0:0:0:0:
261,237,157487,2,0,L|281:126,1,92.4999996471405,0|0,3:0|0:0,0:0:0:0:
90,29,157803,6,0,P|22:96|27:130,1,138.749999470711,10|0,0:2|0:0,0:0:0:0:
37,142,158118,1,2,0:2:0:0:
188,18,158276,1,2,0:2:0:0:
237,73,158434,6,0,P|297:86|346:50,1,92.4999996471405,2|8,3:2|0:2,0:0:0:0:
360,147,158750,2,0,P|401:101|394:41,1,92.4999996471405,2|0,3:2|0:0,0:0:0:0:
512,182,159066,2,0,P|446:186|402:290,1,184.999999294281,10|2,0:2|0:2,0:0:0:0:
459,332,159540,1,2,0:3:0:0:
240,209,159697,5,2,3:2:0:0:
262,279,159855,1,8,0:2:0:0:
284,349,160013,1,0,3:0:0:0:
248,195,160171,5,0,3:0:0:0:
137,321,160329,2,0,P|71:315|41:232,1,138.749999470711,10|0,0:2|0:0,0:0:0:0:
43,246,160645,1,2,3:2:0:0:
66,336,160803,2,0,P|40:308|38:252,1,92.4999996471405,2|0,3:2|0:0,0:0:0:0:
97,183,161118,5,8,0:2:0:0:
273,378,161276,2,0,L|382:361,1,92.4999996471405,0|0,3:0|3:0,0:0:0:0:
462,170,161592,5,10,0:2:0:0:
462,170,161908,1,10,0:2:0:0:
318,228,162066,1,8,0:2:0:0:
464,253,162224,6,0,B|355:232|423:171|317:149,1,184.999999294281,6|0,3:2|3:0,0:0:0:0:
254,173,162697,1,0,0:0:0:0:
467,265,162855,6,0,P|416:255|385:230,1,92.4999996471405,10|0,0:2|0:0,0:0:0:0:
261,345,163171,2,0,P|297:317|342:310,1,92.4999996471405,2|8,0:2|0:2,0:0:0:0:
188,118,163487,6,0,L|166:247,1,92.4999996471405,2|8,3:2|0:2,0:0:0:0:
177,105,163803,1,2,3:2:0:0:
183,221,163961,1,2,0:2:0:0:
393,55,164118,6,0,P|325:45|268:137,1,184.999999294281,10|2,0:2|0:2,0:0:0:0:
317,185,164592,1,0,0:0:0:0:
47,65,164750,5,2,3:2:0:0:
118,46,164908,1,8,0:2:0:0:
190,27,165066,1,0,3:0:0:0:
33,55,165224,5,0,3:0:0:0:
117,278,165382,2,0,L|133:104,1,138.749999470711,10|0,0:2|0:0,0:0:0:0:
138,128,165697,1,10,0:2:0:0:
131,296,165855,2,0,L|141:197,1,92.4999996471405,0|0,3:0|0:0,0:0:0:0:
306,142,166171,5,8,0:2:0:0:
224,215,166329,1,0,3:0:0:0:
336,328,166487,1,0,3:0:0:0:
413,88,166645,5,8,0:2:0:0:
413,88,166961,1,2,3:2:0:0:
459,233,167118,1,0,0:0:0:0:
347,35,167276,5,6,3:2:0:0:
224,121,167434,2,0,P|290:124|331:79,1,100,8|0,0:2|0:0,0:0:0:0:
132,234,167750,5,2,3:2:0:0:
103,74,167908,2,0,P|93:123|84:172,1,100,8|0,0:2|0:0,0:0:0:0:
330,364,168224,5,6,3:2:0:0:
177,342,168382,2,0,B|287:369|237:257|359:286,1,200,8|0,0:2|3:0,0:0:0:0:
502,186,168855,5,10,0:2:0:0:
438,232,169013,1,0,3:0:0:0:
434,237,169092,1,0,3:0:0:0:
429,244,169171,1,0,3:0:0:0:
380,174,169329,1,8,0:2:0:0:
512,316,169487,5,2,3:2:0:0:
444,94,169645,1,8,0:2:0:0:
320,350,169803,5,6,3:2:0:0:
291,190,169961,2,0,P|281:239|270:295,1,100,8|0,0:2|0:0,0:0:0:0:
43,107,170276,5,2,3:2:0:0:
195,136,170434,2,0,P|121:142|91:191,1,100,8|0,0:2|0:0,0:0:0:0:
315,69,170750,5,6,3:2:0:0:
263,295,170908,1,8,3:2:0:0:
301,0,171066,5,0,3:2:0:0:
301,0,171171,2,0,P|313:40|344:67,1,66.6666666666667,8|8,0:2|0:2,0:0:0:0:
429,33,171382,5,10,3:2:0:0:
429,33,171487,2,0,P|409:70|412:111,1,66.6666666666667,8|8,0:2|0:2,0:0:0:0:
512,133,171697,5,4,3:0:0:0:
512,133,171803,2,0,P|471:145|444:176,1,66.6666666666667,8|8,0:2|0:2,0:0:0:0:
491,258,172013,5,2,3:2:0:0:
491,258,172118,2,0,P|454:238|413:241,1,66.6666666666667,8|8,0:2|0:2,0:0:0:0:
346,311,172329,6,0,P|254:291|201:279,1,131.250001251698,6|0,3:2|0:0,0:0:0:0:
210,289,172645,2,0,P|236:270|221:208,1,87.500000834465,0|0,3:0|0:0,0:0:0:0:
124,131,172961,2,0,P|191:127|229:34,1,175.00000166893,8|0,0:2|3:0,0:0:0:0:
173,0,173434,1,0,3:0:0:0:
339,149,173592,5,0,3:0:0:0:
379,89,173750,2,0,P|369:47|355:-14,1,87.500000834465,8|0,0:2|3:0,0:0:0:0:
475,236,174066,1,0,3:0:0:0:
512,179,174224,2,0,P|416:175|386:248,1,175.00000166893,8|2,0:2|0:2,0:0:0:0:
427,299,174697,1,2,0:2:0:0:
267,172,174855,6,0,L|254:259,1,87.500000834465,2|0,3:2|0:0,0:0:0:0:
76,310,175171,1,0,3:0:0:0:
142,357,175329,1,0,3:0:0:0:
97,220,175487,2,0,P|71:254|81:333,1,87.500000834465,8|0,0:2|0:0,0:0:0:0:
168,154,175803,1,2,3:2:0:0:
107,103,175961,1,2,3:2:0:0:
167,60,176118,5,2,0:2:0:0:
167,60,176276,2,0,L|273:80,1,87.500000834465,8|0,0:2|3:0,0:0:0:0:
394,0,176592,1,0,3:0:0:0:
454,41,176750,2,0,P|393:39|351:154,1,175.00000166893,8|2,0:2|0:2,0:0:0:0:
389,185,177224,1,0,0:0:0:0:
506,254,177382,6,0,L|370:275,1,131.250001251698,6|0,3:2|0:0,0:0:0:0:
371,285,177697,2,0,L|257:267,1,87.500000834465,0|0,3:0|0:0,0:0:0:0:
173,330,178013,2,0,P|186:293|152:227,1,87.500000834465,10|2,0:2|0:2,0:0:0:0:
166,244,178250,1,2,0:0:0:0:
158,240,178329,1,2,0:0:0:0:
276,266,178487,1,2,0:2:0:0:
107,172,178645,5,2,3:2:0:0:
175,124,178803,1,2,0:2:0:0:
227,189,178961,1,2,0:2:0:0:
51,251,179118,1,2,0:2:0:0:
0,194,179276,2,0,P|9:133|22:39,1,131.250001251698,8|0,0:2|0:0,0:0:0:0:
26,58,179592,2,0,P|49:85|39:136,1,87.500000834465,2|2,0:2|0:2,0:0:0:0:
134,14,179908,5,2,3:2:0:0:
204,46,180066,1,2,0:2:0:0:
312,139,180224,5,2,3:2:0:0:
240,167,180382,1,2,3:2:0:0:
140,285,180540,6,0,B|238:273|201:353|304:337,1,175.00000166893,10|2,0:2|3:2,0:0:0:0:
391,195,181013,6,0,P|366:232|378:287,1,87.500000834465,2|0,3:2|0:0,0:0:0:0:
459,138,181329,2,0,P|484:175|472:230,1,87.500000834465,10|2,0:2|3:2,0:0:0:0:
430,340,181645,1,2,3:2:0:0:
339,115,181803,2,0,L|243:92,1,87.500000834465,8|2,0:2|0:2,0:0:0:0:
40,185,182118,5,2,3:2:0:0:
120,25,182276,1,2,3:2:0:0:
191,204,182434,6,0,P|134:191|115:151,1,87.500000834465,6|2,0:2|0:2,0:0:0:0:
266,88,182750,2,0,P|279:148|287:183,1,87.500000834465,2|2,3:2|0:2,0:0:0:0:
353,325,183066,2,0,P|362:282|371:239,1,87.500000834465,10|2,0:2|0:2,0:0:0:0:
376,237,183303,1,2,0:2:0:0:
380,234,183382,1,2,0:2:0:0:
507,304,183540,5,2,0:2:0:0:
435,157,183697,1,2,3:2:0:0:
509,129,183855,5,2,0:2:0:0:
444,354,184013,1,2,3:2:0:0:
293,169,184171,5,2,0:2:0:0:
293,169,184250,1,2,0:2:0:0:
293,169,184329,2,0,P|239:155|175:239,1,175.00000166893,10|2,0:2|0:2,0:0:0:0:
223,292,184803,1,2,0:2:0:0:
401,159,184961,6,0,L|372:9,1,131.250001251698,2|0,3:2|0:0,0:0:0:0:
382,21,185276,1,2,3:2:0:0:
393,171,185434,1,2,3:2:0:0:
271,41,185592,2,0,B|172:24|203:96|104:80,1,175.00000166893,10|2,0:2|0:2,0:0:0:0:
26,246,186066,5,2,0:2:0:0:
92,220,186224,1,2,0:2:0:0:
0,175,186382,5,10,0:2:0:0:
214,222,186540,1,2,3:2:0:0:
173,152,186697,5,2,3:2:0:0:
67,367,186855,2,0,L|205:343,1,131.250001251698,10|0,0:2|0:0,0:0:0:0:
208,334,187171,2,0,L|327:354,1,87.500000834465,2|2,3:2|0:2,0:0:0:0:
387,149,187487,5,6,3:2:0:0:
398,307,187645,2,0,P|406:261|424:217,1,94.9999974632264,0|0,0:0|0:0,0:0:0:0:
209,112,187961,5,10,0:2:0:0:
291,81,188118,1,2,0:2:0:0:
317,214,188276,5,2,3:2:0:0:
116,120,188434,1,10,0:2:0:0:
195,45,188592,6,0,L|169:228,1,142.49999619484,2|0,0:2|0:0,0:0:0:0:
178,197,188908,1,10,0:2:0:0:
0,47,189066,5,0,0:0:0:0:
108,128,189224,1,2,3:2:0:0:
19,263,189382,6,0,L|-2:151,1,94.9999974632264,8|10,0:2|0:2,0:0:0:0:
103,241,189618,1,10,0:2:0:0:
103,241,189697,2,0,L|85:334,1,94.9999974632264,10|2,0:2|0:2,0:0:0:0:
174,186,190013,5,2,0:2:0:0:
335,376,190171,1,8,0:2:0:0:
320,159,190329,6,0,P|264:224|274:265,1,94.9999974632264,4|4,0:3|0:3,0:0:0:0:
267,233,190566,1,4,0:3:0:0:
272,238,190645,5,4,0:3:0:0:
161,56,190803,1,0,3:0:0:0:
234,105,191118,5,0,3:0:0:0:
295,34,191434,5,4,3:3:0:0:
98,118,191592,1,4,3:3:0:0:
248,49,200118,6,0,B|149:38|195:111|80:95,1,170.000003242493,6|0,3:2|0:0,0:0:0:0:
182,257,200592,2,0,P|249:205|231:129,1,170.000003242493,4|0,3:2|0:0,0:0:0:0:
0,214,201066,5,6,3:2:0:0:
43,271,201224,2,0,L|26:354,1,85.0000016212464,2|0,0:0|0:0,0:0:0:0:
167,176,201540,6,0,B|96:154|96:154|76:163|76:163|-9:137,1,170.000003242493,4|0,3:2|0:0,0:0:0:0:
316,99,202013,5,6,3:2:0:0:
316,99,202329,1,6,3:2:0:0:
316,99,202645,6,0,P|381:127|370:254,1,184.999999294281,6|0,3:2|3:0,0:0:0:0:
335,278,203118,1,0,0:0:0:0:
305,118,203276,6,0,P|363:132|388:187,1,92.4999996471405,10|0,0:2|0:0,0:0:0:0:
227,77,203592,2,0,P|268:33|328:39,1,92.4999996471405,2|0,0:2|0:0,0:0:0:0:
142,164,203908,6,0,L|38:138,1,92.4999996471405,2|8,3:2|0:2,0:0:0:0:
158,152,204224,1,2,3:2:0:0:
36,152,204382,1,2,0:2:0:0:
196,273,204540,6,0,B|280:258|227:215|311:201,1,138.749999470711,10|0,0:2|0:0,0:0:0:0:
323,210,204855,2,0,P|361:220|420:194,1,92.4999996471405,2|8,0:2|0:2,0:0:0:0:
447,20,205171,5,2,3:2:0:0:
462,92,205329,1,8,0:2:0:0:
477,164,205487,1,0,3:0:0:0:
281,51,205645,5,0,3:0:0:0:
281,51,205724,1,0,3:0:0:0:
281,51,205803,2,0,P|349:68|366:150,1,138.749999470711,10|0,0:2|0:0,0:0:0:0:
363,141,206118,1,2,3:2:0:0:
197,3,206276,6,0,L|176:123,1,92.4999996471405,2|0,3:2|0:0,0:0:0:0:
0,201,206592,5,8,0:2:0:0:
87,236,206750,2,0,L|71:144,1,92.4999996471405,0|0,3:0|0:0,0:0:0:0:
222,326,207066,5,10,0:2:0:0:
222,326,207382,1,2,0:2:0:0:
386,250,207540,1,0,0:0:0:0:
226,161,207697,5,6,3:2:0:0:
292,225,207855,2,0,P|308:176|294:127,1,104.999996795654,8|0,0:2|3:0,0:0:0:0:
15,208,208171,5,2,3:2:0:0:
52,41,208329,2,0,L|70:149,1,104.999996795654,8|0,0:2|0:0,0:0:0:0:
197,383,208645,5,6,0:2:0:0:
297,235,208803,2,0,P|186:236|149:319,1,209.999993591309,8|8,3:2|0:2,0:0:0:0:
401,182,209276,5,2,3:2:0:0:
447,240,209434,1,8,0:2:0:0:
444,244,209513,1,8,0:2:0:0:
441,248,209592,1,8,0:2:0:0:
367,269,209750,1,8,0:2:0:0:
464,137,209908,5,10,0:2:0:0:
394,340,210066,1,8,0:2:0:0:
226,154,210224,5,6,3:2:0:0:
367,84,210382,2,0,P|287:79|265:101,1,104.999996795654,8|0,0:2|0:0,0:0:0:0:
14,281,210697,5,2,3:2:0:0:
82,217,210855,2,0,L|108:363,1,104.999996795654,8|0,0:2|0:0,0:0:0:0:
362,276,211171,5,6,3:2:0:0:
202,300,211329,2,0,B|323:277|269:374|391:355,1,209.999993591309,8|0,0:2|3:0,0:0:0:0:
500,184,211803,2,0,P|404:211|395:249,1,104.999996795654,8|0,0:2|0:0,0:0:0:0:
253,0,212118,5,2,3:2:0:0:
372,75,212276,1,8,0:2:0:0:
362,79,212355,1,8,0:2:0:0:
352,84,212434,2,0,L|288:63,1,52.4999983978272,10|8,0:2|0:2,0:0:0:0:
169,22,212592,1,8,0:2:0:0:
159,18,212671,1,8,0:2:0:0:
149,13,212750,6,0,L|117:220,1,195.000000743866,6|0,3:2|3:0,0:0:0:0:
134,282,213224,1,0,0:0:0:0:
104,109,213382,2,0,L|124:238,1,97.500000371933,10|0,0:2|0:0,0:0:0:0:
183,353,213697,2,0,P|219:296|193:240,1,97.500000371933,2|0,0:2|0:0,0:0:0:0:
363,189,214013,5,2,3:2:0:0:
288,215,214171,1,8,0:2:0:0:
384,348,214329,5,2,3:2:0:0:
461,260,214487,1,2,0:2:0:0:
332,110,214645,6,0,B|392:100|392:100|405:107|405:107|481:93,1,146.250000557899,10|0,0:2|0:0,0:0:0:0:
481,86,214961,2,0,P|443:100|433:152,1,97.500000371933,2|8,0:2|0:2,0:0:0:0:
203,31,215276,6,0,L|219:148,1,97.500000371933,2|8,3:2|0:2,0:0:0:0:
216,20,215592,1,0,3:0:0:0:
208,139,215750,1,0,3:0:0:0:
17,66,215908,5,8,0:2:0:0:
93,32,216066,1,0,3:0:0:0:
93,32,216145,1,0,3:0:0:0:
93,32,216224,1,2,3:2:0:0:
126,211,216382,6,0,P|79:191|10:217,1,97.500000371933,0|2,3:2|0:0,0:0:0:0:
198,305,216697,1,8,0:2:0:0:
262,262,216855,2,0,P|308:283|378:256,1,97.500000371933,0|0,3:0|0:0,0:0:0:0:
428,77,217171,2,0,L|451:249,1,146.250000557899,10|0,0:2|0:0,0:0:0:0:
457,231,217487,1,2,3:2:0:0:
420,69,217645,1,0,3:0:0:0:
158,144,217803,6,0,P|211:144|243:171,1,97.500000371933,6|0,3:2|0:0,0:0:0:0:
298,112,218118,2,0,P|324:157|317:199,1,97.500000371933,0|0,3:0|0:0,0:0:0:0:
70,382,218434,6,0,P|49:241|37:171,1,195.000000743866,10|2,0:2|0:2,0:0:0:0:
223,288,218908,1,2,3:2:0:0:
223,288,218987,1,0,3:0:0:0:
223,288,219066,6,0,P|161:299|135:332,1,97.500000371933,2|8,3:2|0:2,0:0:0:0:
128,150,219382,2,0,P|163:181|211:184,1,97.500000371933,2|0,3:2|0:0,0:0:0:0:
427,48,219697,2,0,P|356:28|295:68,1,146.250000557899,10|0,0:2|0:0,0:0:0:0:
293,74,220013,2,0,P|233:98|181:72,1,97.500000371933,2|0,0:2|0:0,0:0:0:0:
302,315,220329,5,2,3:2:0:0:
322,239,220487,1,8,0:2:0:0:
343,164,220645,1,0,3:0:0:0:
309,324,220803,5,0,3:0:0:0:
403,229,220961,2,0,P|473:231|510:318,1,146.250000557899,10|0,0:2|0:0,0:0:0:0:
508,305,221277,1,2,3:2:0:0:
476,207,221434,2,0,P|505:235|510:295,1,97.500000371933,0|0,3:0|0:0,0:0:0:0:
467,379,221750,5,8,0:2:0:0:
311,231,221908,2,0,P|238:233|206:281,1,97.500000371933,0|0,3:0|3:0,0:0:0:0:
158,32,222224,5,10,0:2:0:0:
158,32,222540,1,10,0:2:0:0:
24,134,222697,1,8,0:2:0:0:
174,115,222855,6,0,B|64:123|114:40|-6:52,1,195.000000743866,6|0,3:2|3:0,0:0:0:0:
124,249,223329,1,0,0:0:0:0:
52,305,223487,2,0,L|30:188,1,97.500000371933,10|0,0:2|0:0,0:0:0:0:
198,289,223803,2,0,L|179:384,1,97.500000371933,2|8,0:2|0:2,0:0:0:0:
343,189,224118,5,2,3:2:0:0:
272,216,224276,1,8,0:2:0:0:
391,125,224434,5,2,3:2:0:0:
328,297,224592,1,2,0:2:0:0:
212,110,224750,6,0,P|264:101|298:37,1,97.500000371933,10|0,0:2|0:0,0:0:0:0:
431,240,225066,2,0,P|398:205|350:198,1,97.500000371933,2|0,0:2|0:0,0:0:0:0:
100,263,225382,5,2,3:2:0:0:
161,212,225540,1,8,0:2:0:0:
122,143,225697,1,0,3:0:0:0:
34,300,225855,1,0,3:0:0:0:
34,300,226013,6,0,P|107:298|156:360,1,146.250000557899,10|0,0:2|0:0,0:0:0:0:
154,359,226329,1,10,0:2:0:0:
223,120,226487,6,0,L|197:5,1,97.500000371933,0|0,3:0|0:0,0:0:0:0:
459,255,226803,5,8,0:2:0:0:
387,182,226961,2,0,L|364:276,1,97.500000371933,0|0,3:0|3:0,0:0:0:0:
346,32,227276,5,8,0:2:0:0:
346,32,227592,1,2,3:2:0:0:
275,216,227750,1,0,0:0:0:0:
89,54,227908,5,6,3:2:0:0:
232,130,228066,2,0,P|177:142|125:104,1,110.000003356934,8|0,0:2|0:0,0:0:0:0:
0,273,228382,5,2,3:2:0:0:
73,344,228540,2,0,L|100:215,1,110.000003356934,8|0,0:2|0:0,0:0:0:0:
438,248,228855,5,6,3:2:0:0:
266,223,229013,2,0,B|393:241|336:137|477:166,1,220.000006713867,8|0,0:2|3:0,0:0:0:0:
505,291,229408,1,0,3:0:0:0:
512,296,229487,2,0,P|458:294|418:257,1,110.000003356934,10|0,0:2|3:0,0:0:0:0:
292,139,229803,5,8,3:2:0:0:
351,324,229961,1,8,0:2:0:0:
373,86,230118,5,8,0:2:0:0:
266,373,230276,1,10,3:2:0:0:
145,93,230434,5,6,3:2:0:0:
302,126,230592,2,0,P|223:133|198:169,1,110.000003356934,8|0,0:2|0:0,0:0:0:0:
77,313,230908,5,2,3:2:0:0:
40,137,231066,2,0,L|16:274,1,110.000003356934,8|0,0:2|0:0,0:0:0:0:
274,203,231382,5,6,3:2:0:0:
396,298,231540,2,0,P|301:335|226:260,1,220.000006713867,8|0,0:2|3:0,0:0:0:0:
447,73,232013,5,8,0:2:0:0:
447,73,232118,2,0,P|419:99|387:102,1,56.6666677474976,0|0,3:2|3:0,0:0:0:0:
329,22,232329,5,8,3:0:0:0:
329,22,232434,2,0,P|327:60|307:84,1,56.6666677474976,0|0,3:2|3:0,0:0:0:0:
223,93,232645,5,8,3:0:0:0:
223,93,232750,2,0,P|249:121|252:153,1,56.6666677474976,0|0,3:0|3:0,0:0:0:0:
411,0,232961,5,6,3:2:0:0:
458,163,233434,5,0,3:0:0:0:
459,165,233513,1,0,3:0:0:0:
460,167,233592,1,0,3:0:0:0:
460,167,234224,6,0,P|397:160|261:143,1,187.500007152558,6|0,3:2|0:0,0:0:0:0:
264,136,234697,2,0,P|230:139|159:148,1,75.0000028610231,10|0,0:2|0:0,0:0:0:0:
305,233,235013,1,2,0:2:0:0:
148,351,235171,5,6,3:2:0:0:
148,351,235329,2,0,P|126:318|129:275,1,75.0000028610231,2|0,0:2|0:0,0:0:0:0:
200,154,235645,2,0,P|156:199|65:162,1,150.000005722046,10|2,0:2|3:2,0:0:0:0:
22,238,236118,6,0,P|0:179|9:146,1,75.0000028610231,10|2,0:2|3:2,0:0:0:0:
60,103,236434,1,2,0:2:0:0:
60,103,236592,1,2,0:2:0:0:
205,296,236750,6,0,B|308:285|246:225|366:212,1,187.500007152558,6|0,3:2|0:0,0:0:0:0:
376,219,237224,2,0,P|397:249|405:285,1,75.0000028610231,10|0,0:2|0:0,0:0:0:0:
356,349,237539,1,2,0:2:0:0:
120,185,237697,5,6,3:2:0:0:
188,131,237855,2,0,L|205:228,1,75.0000028610231,2|0,0:2|0:0,0:0:0:0:
227,57,238171,2,0,L|195:238,1,150.000005722046,10|2,0:2|3:2,0:0:0:0:
205,210,238566,1,0,3:0:0:0:
209,216,238645,5,14,0:2:0:0:
106,102,238803,2,0,L|93:28,1,75.0000028610231,2|2,0:2|3:2,0:0:0:0:
23,259,239118,1,2,0:2:0:0:
0,188,239276,6,0,P|66:177|114:296,1,187.500007152558,6|0,3:2|0:0,0:0:0:0:
115,276,239750,2,0,P|93:328|102:378,1,75.0000028610231,10|0,0:2|0:0,0:0:0:0:
161,384,240066,1,2,0:2:0:0:
308,174,240224,5,6,3:2:0:0:
344,346,240381,2,0,L|364:219,1,112.500004291535,2|0,0:2|0:0,0:0:0:0:
372,225,240697,2,0,P|394:255|384:300,1,75.0000028610231,10|0,0:2|0:0,0:0:0:0:
437,179,241013,1,2,3:2:0:0:
255,80,241171,5,10,0:2:0:0:
315,159,241329,1,2,3:2:0:0:
230,193,241487,1,2,0:2:0:0:
176,124,241645,1,2,0:2:0:0:
85,343,241802,6,0,L|71:151,1,187.500007152558,6|0,3:2|0:0,0:0:0:0:
80,143,242276,2,0,P|115:187|107:218,1,75.0000028610231,10|0,0:2|0:0,0:0:0:0:
0,260,242592,1,2,0:2:0:0:
165,365,242750,5,6,3:2:0:0:
222,308,242908,2,0,L|229:233,1,75.0000028610231,2|0,0:2|0:0,0:0:0:0:
245,382,243224,2,0,L|228:224,1,150.000005722046,10|2,0:2|0:2,0:0:0:0:
388,195,243697,5,10,0:2:0:0:
325,346,243855,1,10,0:2:0:0:
399,384,244013,5,4,0:3:0:0:
314,154,244171,1,0,0:0:0:0:
158,375,244329,6,0,B|63:357|125:308|10:291,1,175,6|0,3:2|0:0,0:0:0:0:
6,299,244960,2,0,P|30:289|39:247,1,50,10|0,0:2|0:0,0:0:0:0:
145,116,245276,6,0,L|165:294,1,175,6|0,3:2|0:0,0:0:0:0:
160,299,245908,2,0,P|170:275|212:266,1,50,2|0,3:2|0:0,0:0:0:0:
320,363,246224,5,8,0:2:0:0:
320,363,246276,2,0,L|338:273,1,83.3333333333333,8|6,0:2|3:2,0:0:0:0:
