osu file format v14

[General]
AudioFilename: audio.mp3
AudioLeadIn: 0
PreviewTime: 41919
Countdown: 0
SampleSet: Soft
StackLeniency: 0.2
Mode: 0
LetterboxInBreaks: 1
WidescreenStoryboard: 1

[Editor]
Bookmarks: 1578,22419,27472,32614,37667,42709,62840,83051
DistanceSpacing: 1.4
BeatDivisor: 4
GridSize: 32
TimelineZoom: 1.9

[Metadata]
Title:Rain
TitleUnicode:レイン
Artist:SID
ArtistUnicode:シド
Creator:Milan-
Version:pkhg's Insane
Source:鋼の錬金術師 FULLMETAL ALCHEMIST
Tags:pkhg gaia fma
BeatmapID:1393392
BeatmapSetID:655894

[Difficulty]
HPDrainRate:5
CircleSize:3
OverallDifficulty:7
ApproachRate:8.6
SliderMultiplier:1.6
SliderTickRate:2

[Events]
//Background and Video events
0,0,"samE.jpg",0,0
Video,-1150,"fmaop5.avi"
//Break Periods
//Storyboard Layer 0 (Background)
//Storyboard Layer 1 (Fail)
//Storyboard Layer 2 (Pass)
//Storyboard Layer 3 (Foreground)
//Storyboard Sound Samples

[TimingPoints]
2299,631.578947368421,4,2,1,25,1,0
21877,-100,4,2,1,25,0,0
22351,-100,4,2,1,5,0,0
22509,-100,4,2,1,30,0,0
24088,-66.6666666666667,4,2,1,30,0,0
25509,-66.6666666666667,4,2,2,30,0,0
25825,-66.6666666666667,4,2,1,40,0,0
26535,-66.6666666666667,4,2,1,5,0,0
26614,-66.6666666666667,4,2,1,40,0,0
27009,-66.6666666666667,4,2,1,5,0,0
27088,-66.6666666666667,4,2,1,40,0,0
28746,-66.6666666666667,4,2,1,5,0,0
28825,-66.6666666666667,4,2,1,40,0,0
31272,-66.6666666666667,4,2,1,5,0,0
31351,-66.6666666666667,4,2,1,40,0,0
33720,-66.6666666666667,4,2,2,40,0,0
33956,-66.6666666666667,4,2,2,5,0,0
34035,-66.6666666666667,4,2,1,40,0,0
34430,-66.6666666666667,4,2,1,5,0,0
34509,-66.6666666666667,4,2,2,40,0,0
35141,-66.6666666666667,4,2,1,40,0,0
37667,-58.8235294117647,4,2,1,40,0,0
37904,-58.8235294117647,4,2,1,5,0,0
37983,-58.8235294117647,4,2,1,40,0,0
38851,-58.8235294117647,4,2,1,5,0,0
38930,-58.8235294117647,4,2,1,40,0,0
39720,-58.8235294117647,4,2,2,40,0,0
40035,-58.8235294117647,4,2,1,20,0,0
40825,-58.8235294117647,4,2,1,30,0,0
41141,-58.8235294117647,4,2,1,40,0,0
41614,-58.8235294117647,4,2,2,50,0,0
41930,-58.8235294117647,4,2,1,35,0,0
42720,-50,4,2,1,50,0,1
42956,-50,4,2,1,5,0,1
43035,-50,4,2,1,50,0,1
43588,-50,4,2,1,5,0,1
43667,-50,4,2,1,50,0,1
44377,-50,4,2,1,5,0,1
44456,-50,4,2,1,50,0,1
45641,-50,4,2,1,5,0,1
45720,-50,4,2,1,50,0,1
46114,-50,4,2,1,5,0,1
46193,-50,4,2,1,50,0,1
46588,-50,4,2,1,5,0,1
46667,-50,4,2,1,50,0,1
48009,-50,4,2,1,5,0,1
48088,-50,4,2,1,50,0,1
48641,-50,4,2,1,5,0,1
48720,-50,4,2,1,50,0,1
49430,-50,4,2,1,5,0,1
49509,-50,4,2,1,50,0,1
50693,-50,4,2,1,5,0,1
50772,-50,4,2,1,50,0,1
51167,-50,4,2,1,5,0,1
51246,-50,4,2,1,50,0,1
51641,-50,4,2,1,5,0,1
51720,-50,4,2,1,50,0,1
53693,-50,4,2,1,5,0,1
53772,-50,4,2,1,50,0,1
54325,-50,4,2,1,5,0,1
54404,-50,4,2,1,50,0,1
55588,-50,4,2,1,5,0,1
55667,-50,4,2,1,50,0,1
56220,-50,4,2,1,5,0,1
56299,-50,4,2,1,50,0,1
61588,-50,4,2,1,5,0,1
61667,-50,4,2,1,50,0,1
62851,-50,4,2,1,50,0,0
62930,-50,4,2,1,50,0,1
63799,-50,4,2,1,5,0,1
63877,-50,4,2,1,50,0,1
64430,-50,4,2,1,5,0,1
64509,-50,4,2,1,50,0,1
65693,-50,4,2,1,5,0,1
65772,-50,4,2,1,50,0,1
66325,-50,4,2,1,5,0,1
66404,-50,4,2,1,50,0,1
68851,-50,4,2,1,5,0,1
68930,-50,4,2,1,50,0,1
69325,-50,4,2,1,5,0,1
69404,-50,4,2,1,50,0,1
70904,-50,4,2,1,5,0,1
70983,-50,4,2,1,50,0,1
71377,-50,4,2,1,5,0,1
71456,-50,4,2,1,50,0,1
71851,-50,4,2,1,5,0,1
71930,-50,4,2,1,50,0,1
73904,-50,4,2,1,5,0,1
73983,-50,4,2,1,50,0,1
75167,-50,4,2,1,5,0,1
75246,-50,4,2,1,50,0,1
75956,-50,4,2,1,5,0,1
76035,-50,4,2,1,50,0,1
76430,-50,4,2,1,5,0,1
76509,-50,4,2,1,50,0,1
83062,-50,4,2,1,50,0,0
83141,-50,4,2,1,50,0,1
83220,-50,4,2,1,5,0,0

[Colours]
Combo1 : 168,196,159
Combo2 : 187,198,208
Combo3 : 226,215,173
Combo4 : 208,187,198

[HitObjects]
341,131,720,6,0,L|261:125,4,80,0|2|0|2|0,0:0|0:0|0:0|0:0|0:0,0:0:0:0:
341,131,2299,2,0,B|371:115|398:131|398:131|424:146|456:129,1,120,2|2,0:0|0:0,0:0:0:0:
455,130,3246,6,0,L|450:209,4,80,0|2|0|2|0,0:0|0:0|0:0|0:0|0:0,0:0:0:0:
455,130,4825,2,0,B|440:100|455:72|455:72|471:46|455:16,1,120,2|2,0:0|0:0,0:0:0:0:
455,16,5772,2,0,P|393:63|317:47,1,160,2|0,0:0|0:0,0:0:0:0:
318,47,7983,6,0,L|239:42,1,80,2|0,0:0|0:0,0:0:0:0:
238,41,8456,1,2,0:0:0:0:
238,41,8930,2,0,L|159:36,2,80,0|2|2,0:0|0:0|0:0,0:0:0:0:
238,41,9877,2,0,L|364:49,1,120,0|2,0:0|0:0,0:0:0:0:
357,48,12088,5,0,0:0:0:0:
357,48,12404,2,0,L|352:127,1,80,2|0,0:0|0:0,0:0:0:0:
351,127,13035,2,0,P|292:116|239:141,1,120,2|2,0:0|0:0,0:0:0:0:
239,141,14614,5,0,0:0:0:0:
239,141,14930,2,0,P|222:176|225:216,1,80,2|0,0:0|0:0,0:0:0:0:
225,216,15562,2,0,L|351:224,1,120,2|2,0:0|0:0,0:0:0:0:
344,223,17141,5,0,0:0:0:0:
344,223,17456,2,0,B|374:208|401:223|401:223|428:239|458:223,2,120,2|2|0,0:0|0:0|0:0,0:0:0:0:
249,237,18720,5,2,0:0:0:0:
154,251,19035,1,0,0:0:0:0:
59,264,19351,1,2,0:0:0:0:
249,237,19983,5,2,0:0:0:0:
233,240,20930,5,2,0:0:0:0:
213,242,21088,1,0,0:0:0:0:
193,245,21246,1,2,0:0:0:0:
273,234,21562,5,0,0:0:0:0:
154,251,21877,6,2,L|272:234,1,120,2|0,0:0|0:0,0:0:0:0:
273,234,22509,5,12,0:0:0:0:
273,234,24088,6,0,P|330:222|384:247,1,120,8|0,0:3|0:0,0:0:0:0:
426,341,24562,1,4,0:3:0:0:
426,341,24720,1,4,0:3:0:0:
210,315,25035,5,12,0:0:0:0:
340,140,25667,1,2,1:1:0:0:
426,341,26141,5,8,0:0:0:0:
414,340,26220,1,8,0:0:0:0:
402,338,26299,2,0,L|313:326,1,90.0000034332277,0|0,1:0|0:0,0:0:0:0:
299,322,26614,1,8,0:3:0:0:
331,229,26772,2,0,L|242:241,1,90.0000034332277,8|0,0:3|0:0,0:0:0:0:
229,244,27087,1,4,0:3:0:0:
272,147,27246,1,4,0:3:0:0:
272,147,27562,6,0,L|153:130,1,120.000004577637,4|0,0:0|0:0,0:0:0:0:
97,202,28035,2,0,L|170:107,1,120.000004577637,8|0,0:0|0:0,0:0:0:0:
136,23,28509,2,0,L|170:106,1,90.0000034332277,8|0,0:0|0:0,0:0:0:0:
181,134,28825,1,8,0:1:0:0:
181,134,29141,5,8,0:0:0:0:
276,121,29299,1,8,0:1:0:0:
371,107,29456,1,8,0:0:0:0:
181,134,29772,1,8,0:0:0:0:
300,286,30088,6,0,P|243:274|189:299,1,120,8|0,0:0|0:0,0:0:0:0:
139,368,30562,2,0,P|177:324|183:265,1,120,8|0,0:0|0:0,0:0:0:0:
142,188,31035,2,0,P|159:242|208:276,1,90.0000034332277,8|0,0:0|0:0,0:0:0:0:
215,277,31351,1,8,0:1:0:0:
215,277,31667,5,8,0:0:0:0:
310,291,31824,1,8,0:1:0:0:
405,304,31982,1,8,0:0:0:0:
215,277,32299,1,8,0:0:0:0:
334,126,32614,5,12,0:0:0:0:
334,126,33562,1,8,0:1:0:0:
252,184,33720,2,0,L|240:95,1,90.0000034332277,10|0,0:1|0:0,0:0:0:0:
237,83,34035,1,8,0:1:0:0:
143,114,34193,2,0,L|155:25,1,90.0000034332277,8|0,0:3|0:0,0:0:0:0:
158,12,34508,1,6,1:0:0:0:
118,291,35141,5,12,0:0:0:0:
118,291,36404,5,2,3:2:0:0:
118,291,37667,6,0,L|219:277,1,102.000001945496,12|0,0:0|0:0,0:0:0:0:
232,274,37983,1,0,0:0:0:0:
160,183,38141,1,8,0:1:0:0:
274,166,38299,1,0,0:0:0:0:
274,166,38614,6,0,L|260:64,1,102.000001945496,8|0,0:0|0:0,0:0:0:0:
257,52,38930,1,0,0:0:0:0:
365,95,39088,1,8,0:1:0:0:
365,95,39404,5,8,0:0:0:0:
345,257,39562,1,8,0:1:0:0:
376,1,39877,1,2,1:0:0:0:
333,350,40193,5,8,0:1:0:0:
239,338,40509,1,8,0:1:0:0:
333,350,40825,1,8,0:1:0:0:
145,326,41141,1,8,0:1:0:0:
427,362,41457,1,8,0:1:0:0:
51,314,41772,1,6,1:0:0:0:
356,178,42088,5,2,3:2:0:0:
305,100,42246,1,2,3:2:0:0:
207,100,42404,1,2,3:2:0:0:
156,178,42562,1,2,3:2:0:0:
256,331,42720,6,0,L|256:211,1,120,4|0,0:0|0:0,0:0:0:0:
256,199,43035,1,8,0:0:0:0:
256,199,43351,6,0,L|374:183,1,120,10|0,0:1|0:0,0:0:0:0:
387,180,43667,2,0,L|466:169,1,80,8|2,0:0|0:0,0:0:0:0:
409,82,43983,1,8,0:0:0:0:
486,186,44141,6,0,L|368:202,1,120,10|0,0:1|0:0,0:0:0:0:
355,205,44456,1,0,0:0:0:0:
382,312,44614,2,0,L|275:297,1,80,10|0,0:1|0:0,0:0:0:0:
256,199,44930,2,0,L|149:213,1,80,2|0,0:0|0:0,0:0:0:0:
103,282,45246,1,8,0:0:0:0:
98,161,45404,6,0,P|123:214|111:272,1,120,10|0,0:0|0:0,0:0:0:0:
103,282,45720,1,8,0:0:0:0:
175,375,45877,2,0,P|208:326|264:308,1,120,10|0,0:1|0:0,0:0:0:0:
277,310,46193,1,8,0:0:0:0:
322,202,46351,6,0,P|262:195|219:154,1,120,10|0,0:0|0:0,0:0:0:0:
212,141,46667,2,0,L|226:34,1,80,10|8,0:1|0:0,0:0:0:0:
125,202,46983,1,0,0:0:0:0:
125,202,47141,2,0,P|125:162|114:124,1,80,10|0,0:1|0:0,0:0:0:0:
276,226,47456,2,0,P|286:186|307:153,1,80,2|0,0:0|0:0,0:0:0:0:
230,23,47772,6,0,L|210:145,1,120,12|0,0:0|0:0,0:0:0:0:
210,154,48087,1,8,0:0:0:0:
210,154,48404,6,0,L|190:276,1,120,10|0,0:1|0:0,0:0:0:0:
190,285,48719,1,0,0:0:0:0:
293,245,48877,1,2,0:0:0:0:
281,354,49035,1,8,0:0:0:0:
424,264,49193,6,0,L|306:248,1,120,10|0,0:1|0:0,0:0:0:0:
293,245,49508,1,0,0:0:0:0:
375,170,49667,2,0,L|454:158,1,80,10|0,0:1|0:0,0:0:0:0:
280,242,49983,2,0,L|173:228,1,80,2|0,0:0|0:0,0:0:0:0:
125,170,50299,1,8,0:0:0:0:
144,301,50456,6,0,L|128:183,1,120,10|0,0:1|0:0,0:0:0:0:
125,170,50772,1,0,0:0:0:0:
69,51,50930,2,0,L|179:96,1,120,10|0,0:1|0:0,0:0:0:0:
191,100,51246,1,8,0:0:0:0:
323,111,51404,6,0,L|228:183,1,120,10|0,0:0|0:0,0:0:0:0:
219,192,51720,1,10,0:1:0:0:
219,192,52035,1,8,0:0:0:0:
341,241,52193,1,10,0:1:0:0:
341,241,52509,1,8,0:0:0:0:
323,111,52667,1,8,0:0:0:0:
423,275,52825,6,0,P|345:262|274:297,1,160,12|8,0:0|0:0,0:0:0:0:
274,297,53456,6,0,L|156:281,1,120,10|0,0:1|0:0,0:0:0:0:
143,278,53772,1,0,0:0:0:0:
50,312,53930,1,2,0:0:0:0:
160,180,54088,6,0,L|144:62,1,120,8|0,0:0|0:0,0:0:0:0:
141,49,54404,1,10,0:0:0:0:
243,106,54562,1,0,0:0:0:0:
243,106,54720,2,0,L|253:26,1,80,10|0,0:1|0:0,0:0:0:0:
317,189,55035,2,0,L|347:115,1,80,2|0,0:0|0:0,0:0:0:0:
479,260,55351,6,0,L|361:276,1,120,10|0,0:0|0:0,0:0:0:0:
348,279,55667,1,0,0:0:0:0:
290,365,55825,1,10,0:0:0:0:
262,221,55983,2,0,P|209:194|150:200,1,120,10|0,0:1|0:0,0:0:0:0:
142,209,56299,1,8,0:0:0:0:
65,118,56456,6,0,L|43:276,1,160,10|10,0:0|0:1,0:0:0:0:
44,277,57088,1,8,0:0:0:0:
65,118,57246,1,10,0:1:0:0:
65,118,57562,1,8,0:0:0:0:
142,209,57720,1,0,0:0:0:0:
233,132,57877,5,12,0:0:0:0:
219,300,58035,1,8,0:1:0:0:
236,313,58351,5,8,0:0:0:0:
222,145,58509,1,8,0:1:0:0:
233,132,58825,5,12,0:0:0:0:
219,300,58983,1,8,0:1:0:0:
236,313,59299,5,8,0:0:0:0:
222,145,59457,1,8,0:1:0:0:
233,132,59772,5,8,0:1:0:0:
359,236,59930,1,8,0:1:0:0:
319,78,60088,1,4,0:3:0:0:
398,142,60246,1,8,0:1:0:0:
258,227,60404,5,12,0:0:0:0:
386,330,60562,1,8,0:1:0:0:
388,347,60878,5,8,0:0:0:0:
275,221,61036,1,8,0:1:0:0:
266,336,61193,1,8,0:0:0:0:
392,223,61351,6,0,L|376:105,1,120,12|0,0:1|0:0,0:0:0:0:
357,15,61667,6,0,P|346:39|340:65,2,53.3333333333333,8|8|8,0:0|0:1|0:1,0:0:0:0:
314,99,61983,2,0,P|317:125|325:150,2,53.3333333333333,8|8|8,0:1|0:1|0:1,0:0:0:0:
318,193,62299,2,0,P|334:214|353:232,2,53.3333333333333,8|8|8,0:0|0:1|0:1,0:0:0:0:
368,272,62614,2,0,P|392:282|418:288,2,53.3333333333333,8|8|8,0:0|0:1|0:1,0:0:0:0:
476,306,62930,6,0,B|439:287|402:308|402:308|365:330|323:308,1,160,12|8,0:0|0:0,0:0:0:0:
323,308,63562,6,0,L|205:324,1,120,10|0,0:1|0:0,0:0:0:0:
192,327,63878,1,0,0:0:0:0:
249,226,64035,1,2,0:0:0:0:
118,245,64193,2,0,L|236:229,1,120,8|0,0:0|0:0,0:0:0:0:
249,226,64509,1,10,0:0:0:0:
375,210,64667,5,0,0:0:0:0:
240,127,64825,2,0,P|279:128|318:140,1,80,10|0,0:1|0:0,0:0:0:0:
258,323,65141,2,0,P|297:313|331:292,1,80,2|0,0:0|0:0,0:0:0:0:
158,169,65456,6,0,P|142:226|159:282,1,120,10|0,0:0|0:0,0:0:0:0:
170,289,65772,1,2,0:0:0:0:
249,226,65930,1,8,0:0:0:0:
223,366,66088,2,0,L|105:350,1,120,10|0,0:1|0:0,0:0:0:0:
92,347,66404,1,10,0:0:0:0:
235,368,66562,6,0,P|305:333|383:346,1,160,10|10,0:0|0:1,0:0:0:0:
383,346,67193,5,0,0:0:0:0:
454,254,67351,2,0,L|440:147,1,80,10|0,0:1|0:0,0:0:0:0:
361,98,67667,1,2,0:0:0:0:
336,207,67825,1,0,0:0:0:0:
445,78,67983,6,0,L|286:56,1,160,12|0,0:0|0:0,0:0:0:0:
286,56,68614,6,0,P|233:83|174:77,1,120,10|0,0:1|0:0,0:0:0:0:
166,68,68930,1,2,0:0:0:0:
57,20,69088,2,0,L|73:138,1,120,2|0,0:0|0:0,0:0:0:0:
76,151,69404,1,10,0:1:0:0:
169,130,69562,2,0,L|158:209,1,80,8|0,0:0|0:0,0:0:0:0:
268,308,69877,5,10,0:1:0:0:
268,308,70193,1,8,0:0:0:0:
354,210,70351,1,8,0:1:0:0:
268,308,70509,1,8,0:0:0:0:
464,362,70667,6,0,L|346:378,1,120,10|0,0:1|0:0,0:0:0:0:
333,381,70983,1,8,0:0:0:0:
405,281,71141,2,0,L|287:265,1,120,10|0,0:1|0:0,0:0:0:0:
274,262,71457,1,8,0:0:0:0:
369,186,71614,2,0,L|259:138,1,120,10|0,0:0|0:0,0:0:0:0:
249,132,71930,1,10,0:1:0:0:
336,78,72088,1,0,0:0:0:0:
246,30,72246,1,8,0:0:0:0:
201,223,72404,5,10,0:1:0:0:
201,223,72720,1,8,0:0:0:0:
246,30,72877,1,8,0:1:0:0:
291,271,73035,6,0,P|212:264|144:304,1,160,12|0,0:0|0:0,0:0:0:0:
144,303,73667,6,0,P|171:250|165:191,1,120,10|0,0:1|0:0,0:0:0:0:
156,183,73983,1,0,0:0:0:0:
64,230,74141,1,2,0:0:0:0:
144,303,74299,2,0,L|223:292,1,80,8|10,0:0|0:1,0:0:0:0:
416,264,74614,5,8,0:0:0:0:
320,277,74773,1,0,0:0:0:0:
483,317,74930,2,0,L|467:199,1,120,10|0,0:1|0:0,0:0:0:0:
464,186,75246,1,0,0:0:0:0:
451,90,75404,1,2,0:0:0:0:
365,209,75562,5,8,0:0:0:0:
346,78,75720,2,0,L|362:196,1,120,10|0,0:1|0:0,0:0:0:0:
365,209,76036,1,8,0:0:0:0:
250,286,76193,2,0,L|266:168,1,120,10|0,0:1|0:0,0:0:0:0:
269,155,76509,1,8,0:0:0:0:
326,324,76667,6,0,B|289:343|252:322|252:322|215:300|173:322,1,160,10|10,0:0|0:1,0:0:0:0:
173,321,77299,1,8,0:0:0:0:
326,324,77456,1,10,0:1:0:0:
326,324,77772,5,8,0:0:0:0:
203,226,77930,1,10,0:0:0:0:
349,168,78088,5,12,0:0:0:0:
186,74,78246,1,8,0:1:0:0:
177,95,78562,5,8,0:0:0:0:
357,146,78720,1,8,0:1:0:0:
220,136,78877,1,4,0:3:0:0:
310,110,79035,1,4,0:0:0:0:
250,286,79193,5,8,0:1:0:0:
250,286,79509,1,8,0:0:0:0:
416,264,79667,1,8,0:1:0:0:
428,262,79983,5,8,0:1:0:0:
237,287,80141,1,8,0:1:0:0:
394,282,80299,1,4,0:3:0:0:
273,266,80457,1,4,0:3:0:0:
177,95,80614,5,12,0:0:0:0:
361,79,80772,1,8,0:1:0:0:
376,98,81088,5,8,0:0:0:0:
191,82,81246,1,8,0:1:0:0:
177,95,81562,5,12,0:0:0:0:
361,79,81720,1,8,0:1:0:0:
376,98,82036,5,8,0:2:0:0:
219,224,82193,2,0,P|238:206|261:191,2,53.3333333333333,8|8|0,0:3|0:3|0:3,0:0:0:0:
301,201,82509,2,0,P|327:195|353:194,2,53.3333333333333,8|4|4,0:3|0:3|0:3,0:0:0:0:
384,225,82824,2,0,P|409:232|432:245,2,53.3333333333333,4|8|4,0:3|0:0|0:3,0:0:0:0:
446,286,83140,1,12,0:0:0:0:
256,192,83220,12,2,88588,0:0:0:0:
