osu file format v14

[General]
AudioFilename: audio.mp3
AudioLeadIn: 0
PreviewTime: 41919
Countdown: 0
SampleSet: Soft
StackLeniency: 0.7
Mode: 0
LetterboxInBreaks: 1
WidescreenStoryboard: 1

[Editor]
Bookmarks: 1578,22419,27472,42709,62840,83051
DistanceSpacing: 1.1
BeatDivisor: 4
GridSize: 32
TimelineZoom: 1.9

[Metadata]
Title:Rain
TitleUnicode:レイン
Artist:SID
ArtistUnicode:シド
Creator:Milan-
Version:Normal
Source:鋼の錬金術師 FULLMETAL ALCHEMIST
Tags:pkhg gaia fma
BeatmapID:1394419
BeatmapSetID:655894

[Difficulty]
HPDrainRate:2
CircleSize:3
OverallDifficulty:3
ApproachRate:4
SliderMultiplier:1.6
SliderTickRate:2

[Events]
//Background and Video events
0,0,"samE.jpg",0,0
Video,-1150,"fmaop5.avi"
//Break Periods
//Storyboard Layer 0 (Background)
//Storyboard Layer 1 (Fail)
//Storyboard Layer 2 (Pass)
//Storyboard Layer 3 (Foreground)
//Storyboard Sound Samples

[TimingPoints]
2299,631.578947368421,4,2,1,25,1,0
22351,-100,4,2,1,5,0,0
22509,-100,4,2,1,30,0,0
25509,-100,4,2,2,30,0,0
25825,-100,4,2,1,40,0,0
26535,-100,4,2,1,5,0,0
26614,-100,4,2,1,40,0,0
27009,-100,4,2,1,5,0,0
27088,-100,4,2,1,40,0,0
28746,-100,4,2,1,5,0,0
28825,-100,4,2,1,40,0,0
31272,-100,4,2,1,5,0,0
31351,-100,4,2,1,40,0,0
33720,-100,4,2,2,40,0,0
33956,-100,4,2,2,5,0,0
34035,-100,4,2,1,40,0,0
34430,-100,4,2,1,5,0,0
34509,-100,4,2,2,40,0,0
35141,-100,4,2,1,40,0,0
37904,-100,4,2,1,5,0,0
37983,-100,4,2,1,40,0,0
38851,-100,4,2,1,5,0,0
38930,-100,4,2,1,40,0,0
39720,-100,4,2,2,40,0,0
40035,-100,4,2,1,20,0,0
40825,-100,4,2,1,30,0,0
41141,-100,4,2,1,40,0,0
41614,-100,4,2,2,50,0,0
41930,-100,4,2,1,35,0,0
42720,-83.3333333333333,4,2,1,50,0,0
42956,-83.3333333333333,4,2,1,5,0,0
43035,-83.3333333333333,4,2,1,50,0,0
43588,-83.3333333333333,4,2,1,5,0,0
43667,-83.3333333333333,4,2,1,50,0,0
44377,-83.3333333333333,4,2,1,5,0,0
44456,-83.3333333333333,4,2,1,50,0,0
45641,-83.3333333333333,4,2,1,5,0,0
45720,-83.3333333333333,4,2,1,50,0,0
46114,-83.3333333333333,4,2,1,5,0,0
46193,-83.3333333333333,4,2,1,50,0,0
46588,-83.3333333333333,4,2,1,5,0,0
46667,-83.3333333333333,4,2,1,50,0,0
48009,-83.3333333333333,4,2,1,5,0,0
48088,-83.3333333333333,4,2,1,50,0,0
48641,-83.3333333333333,4,2,1,5,0,0
48720,-83.3333333333333,4,2,1,50,0,0
49430,-83.3333333333333,4,2,1,5,0,0
49509,-83.3333333333333,4,2,1,50,0,0
50693,-83.3333333333333,4,2,1,5,0,0
50772,-83.3333333333333,4,2,1,50,0,0
51167,-83.3333333333333,4,2,1,5,0,0
51246,-83.3333333333333,4,2,1,50,0,0
51641,-83.3333333333333,4,2,1,5,0,0
51720,-83.3333333333333,4,2,1,50,0,0
53693,-83.3333333333333,4,2,1,5,0,0
53772,-83.3333333333333,4,2,1,50,0,0
54325,-83.3333333333333,4,2,1,5,0,0
54404,-83.3333333333333,4,2,1,50,0,0
55588,-83.3333333333333,4,2,1,5,0,0
55667,-83.3333333333333,4,2,1,50,0,0
56220,-83.3333333333333,4,2,1,5,0,0
56299,-83.3333333333333,4,2,1,50,0,0
61588,-83.3333333333333,4,2,1,5,0,0
61667,-83.3333333333333,4,2,1,50,0,0
63799,-83.3333333333333,4,2,1,5,0,0
63877,-83.3333333333333,4,2,1,50,0,0
64430,-83.3333333333333,4,2,1,5,0,0
64509,-83.3333333333333,4,2,1,50,0,0
65693,-83.3333333333333,4,2,1,5,0,0
65772,-83.3333333333333,4,2,1,50,0,0
66325,-83.3333333333333,4,2,1,5,0,0
66404,-83.3333333333333,4,2,1,50,0,0
68851,-83.3333333333333,4,2,1,5,0,0
68930,-83.3333333333333,4,2,1,50,0,0
69325,-83.3333333333333,4,2,1,5,0,0
69404,-83.3333333333333,4,2,1,50,0,0
70904,-83.3333333333333,4,2,1,5,0,0
70983,-83.3333333333333,4,2,1,50,0,0
71377,-83.3333333333333,4,2,1,5,0,0
71456,-83.3333333333333,4,2,1,50,0,0
71851,-83.3333333333333,4,2,1,5,0,0
71930,-83.3333333333333,4,2,1,50,0,0
73904,-83.3333333333333,4,2,1,5,0,0
73983,-83.3333333333333,4,2,1,50,0,0
75167,-83.3333333333333,4,2,1,5,0,0
75246,-83.3333333333333,4,2,1,50,0,0
75956,-83.3333333333333,4,2,1,5,0,0
76035,-83.3333333333333,4,2,1,50,0,0
76430,-83.3333333333333,4,2,1,5,0,0
76509,-83.3333333333333,4,2,1,50,0,0
83220,-83.3333333333333,4,2,1,5,0,0

[Colours]
Combo1 : 168,196,159
Combo2 : 187,198,208
Combo3 : 226,215,173
Combo4 : 208,187,198

[HitObjects]
498,108,2299,5,2,0:0:0:0:
370,228,2930,2,0,L|387:350,2,120,2|2|0,0:0|0:0|0:0,0:0:0:0:
14,108,4825,5,2,0:0:0:0:
142,228,5456,2,0,L|125:350,2,120,2|2|0,0:0|0:0|0:0,0:0:0:0:
498,108,7351,6,0,P|457:132|414:140,1,80,0|0,0:0|0:0,0:0:0:0:
342,110,7983,2,0,P|301:90|211:92,2,120,2|2|0,0:0|0:0|0:0,0:0:0:0:
14,276,9877,6,0,P|55:252|98:244,1,80,0|0,0:0|0:0,0:0:0:0:
170,274,10509,2,0,P|211:294|301:292,2,120,2|2|0,0:0|0:0|0:0,0:0:0:0:
498,108,12404,6,0,P|457:132|442:211,1,120,2|0,0:0|0:0,0:0:0:0:
412,234,13035,2,0,P|442:279|438:350,2,120,2|2|0,0:0|0:0|0:0,0:0:0:0:
14,276,14930,6,0,P|55:252|70:173,1,120,2|0,0:0|0:0,0:0:0:0:
100,150,15562,2,0,P|70:105|74:34,2,120,2|2|0,0:0|0:0|0:0,0:0:0:0:
498,108,17456,5,2,0:0:0:0:
417,143,17772,1,0,0:0:0:0:
337,180,18088,1,0,0:0:0:0:
86,186,18720,5,2,0:0:0:0:
167,221,19035,1,0,0:0:0:0:
247,258,19351,1,2,0:0:0:0:
427,54,19983,5,2,0:0:0:0:
427,54,22509,5,12,0:0:0:0:
427,54,24088,2,0,B|379:88|379:88|309:83,1,120,8|4,0:3|0:3,0:0:0:0:
280,60,24720,2,0,L|226:74,1,40,4|0,0:3|0:0,0:0:0:0:
200,87,25035,5,12,0:0:0:0:
52,183,25667,2,0,B|113:188|113:188|154:229,1,120,2|8,1:1|0:0,0:0:0:0:
196,242,26299,2,0,L|206:329,1,80,0|8,1:0|0:3,0:0:0:0:
323,262,27088,2,0,L|313:314,2,40,4|4|0,0:3|0:3|0:0,0:0:0:0:
353,229,27562,6,0,P|389:201|428:190,1,80,4|0,0:0|0:0,0:0:0:0:
464,198,28035,2,0,P|496:159|487:86,1,120,8|8,0:0|0:0,0:0:0:0:
419,40,28825,2,0,L|334:50,1,80,8|8,0:1|0:0,0:0:0:0:
312,84,29299,2,0,L|178:69,1,120,8|8,0:1|0:0,0:0:0:0:
108,46,30088,6,0,P|57:66|33:91,1,80,8|0,0:0|0:0,0:0:0:0:
61,121,30562,2,0,P|41:178|63:240,1,120,8|8,0:0|0:0,0:0:0:0:
124,290,31351,2,0,L|215:270,1,80,8|8,0:1|0:0,0:0:0:0:
221,232,31825,2,0,L|340:251,1,120,8|8,0:1|0:0,0:0:0:0:
405,309,32614,5,12,0:0:0:0:
438,46,33562,5,8,0:1:0:0:
438,46,33720,2,0,P|454:73|458:136,1,80,10|8,0:1|0:1,0:0:0:0:
483,159,34193,2,0,P|475:201|454:233,1,80,8|6,0:3|1:0,0:0:0:0:
282,194,35141,5,12,0:0:0:0:
33,354,36404,5,2,3:2:0:0:
246,109,37667,6,0,P|205:128|156:131,1,80,12|0,0:0|0:0,0:0:0:0:
127,121,38141,2,0,P|85:108|38:112,1,80,8|0,0:1|0:0,0:0:0:0:
14,136,38614,2,0,L|33:266,1,120,8|8,0:0|0:1,0:0:0:0:
114,304,39404,1,8,0:0:0:0:
114,304,39562,2,0,L|136:228,1,80,8|2,0:1|1:0,0:0:0:0:
256,192,40193,12,6,41772,1:0:0:0:
472,105,42720,6,0,P|447:75|387:55,1,95.9999970703126,4|8,0:0|0:0,0:0:0:0:
394,151,43351,2,0,P|355:147|292:180,1,95.9999970703126,10|8,0:1|0:0,0:0:0:0:
242,242,43983,1,8,0:0:0:0:
242,242,44141,2,0,P|180:208|112:226,1,143.999995605469,10|10,0:1|0:1,0:0:0:0:
26,182,44930,1,2,0:0:0:0:
84,105,45246,6,0,L|63:-4,2,95.9999970703126,8|0|10,0:0|0:0|0:1,0:0:0:0:
169,61,46193,1,8,0:0:0:0:
169,61,46351,2,0,P|215:62|271:49,1,95.9999970703126,10|10,0:0|0:1,0:0:0:0:
306,29,46825,2,0,P|354:32|400:53,1,95.9999970703126,8|10,0:0|0:1,0:0:0:0:
441,136,47456,1,2,0:0:0:0:
354,180,47772,6,0,P|328:219|322:266,1,95.9999970703126,12|8,0:0|0:0,0:0:0:0:
271,349,48404,2,0,P|236:309|225:257,1,95.9999970703126,10|0,0:1|0:0,0:0:0:0:
222,220,48877,2,0,P|187:250|120:272,1,95.9999970703126,2|10,0:0|0:1,0:0:0:0:
92,266,49351,1,0,0:0:0:0:
35,187,49667,2,0,L|27:83,1,95.9999970703126,10|2,0:1|0:0,0:0:0:0:
110,41,50299,6,0,L|111:-7,2,47.9999985351563,8|10|0,0:0|0:1|0:0,0:0:0:0:
143,75,50772,1,0,0:0:0:0:
143,75,50930,2,0,B|186:60|186:60|247:57,1,95.9999970703126,10|8,0:1|0:0,0:0:0:0:
280,77,51404,2,0,B|324:94|324:94|386:86,1,95.9999970703126,10|10,0:0|0:1,0:0:0:0:
412,61,51877,1,0,0:0:0:0:
482,126,52193,1,10,0:1:0:0:
471,221,52509,1,8,0:0:0:0:
422,303,52825,6,0,P|385:333|339:340,1,95.9999970703126,12|8,0:0|0:0,0:0:0:0:
347,244,53456,2,0,P|310:213|264:206,1,95.9999970703126,10|0,0:1|0:0,0:0:0:0:
196,275,54088,1,8,0:0:0:0:
196,275,54246,2,0,P|134:309|66:291,1,143.999995605469,8|10,0:1|0:1,0:0:0:0:
11,212,55035,1,2,0:0:0:0:
65,132,55351,6,0,L|44:23,2,95.9999970703126,10|0|10,0:0|0:0|0:1,0:0:0:0:
153,170,56299,1,8,0:0:0:0:
153,170,56456,2,0,P|179:100|256:72,1,143.999995605469,10|0,0:0|0:0,0:0:0:0:
328,36,57246,2,0,L|435:47,1,95.9999970703126,10|8,0:1|0:0,0:0:0:0:
465,132,57877,5,12,0:0:0:0:
465,132,58035,2,0,B|410:171|410:171|403:262,1,143.999995605469,8|8,0:1|0:1,0:0:0:0:
371,338,58825,1,12,0:0:0:0:
371,338,58983,2,0,B|316:299|316:299|309:208,1,143.999995605469,8|8,0:1|0:1,0:0:0:0:
260,140,59772,2,0,L|222:176,1,47.9999985351563,8|8,0:1|0:1,0:0:0:0:
177,168,60088,2,0,L|157:226,1,47.9999985351563,4|8,0:3|0:1,0:0:0:0:
121,240,60404,5,12,0:0:0:0:
121,240,60562,2,0,B|56:266|56:266|-12:233,1,143.999995605469,8|8,0:1|0:1,0:0:0:0:
17,141,61351,2,0,P|89:107|95:-9,1,191.999994140625,12|8,0:1|0:1,0:0:0:0:
198,11,62299,2,0,P|226:39|245:99,1,95.9999970703126,8|8,0:0|0:0,0:0:0:0:
187,168,62930,6,0,P|159:196|140:256,1,95.9999970703126,12|8,0:0|0:0,0:0:0:0:
111,340,63562,2,0,P|150:344|213:311,1,95.9999970703126,10|0,0:1|0:0,0:0:0:0:
257,243,64193,1,8,0:0:0:0:
257,243,64351,2,0,P|319:277|387:259,1,143.999995605469,8|10,0:1|0:1,0:0:0:0:
476,224,65141,1,2,0:0:0:0:
399,165,65456,6,0,L|420:67,2,95.9999970703126,10|2|10,0:0|0:0|0:1,0:0:0:0:
303,158,66404,1,10,0:0:0:0:
303,158,66562,2,0,P|254:174|201:170,1,95.9999970703126,10|10,0:0|0:1,0:0:0:0:
190,216,67035,2,0,P|146:218|96:192,1,95.9999970703126,0|10,0:0|0:1,0:0:0:0:
60,108,67667,1,2,0:0:0:0:
155,94,67983,6,0,P|183:52|186:-1,1,95.9999970703126,12|0,0:0|0:0,0:0:0:0:
283,7,68614,2,0,P|318:47|329:99,1,95.9999970703126,10|2,0:1|0:0,0:0:0:0:
355,127,69088,2,0,P|390:97|457:75,1,95.9999970703126,2|10,0:0|0:1,0:0:0:0:
485,81,69562,1,8,0:0:0:0:
464,174,69877,2,0,L|472:278,1,95.9999970703126,10|8,0:1|0:0,0:0:0:0:
410,344,70509,5,8,0:0:0:0:
410,344,70667,2,0,B|355:300|355:300|272:306,1,143.999995605469,10|10,0:1|0:1,0:0:0:0:
193,344,71456,1,8,0:0:0:0:
193,344,71614,2,0,B|144:348|144:348|87:319,1,95.9999970703126,10|10,0:0|0:1,0:0:0:0:
57,308,72088,2,0,L|70:196,1,95.9999970703126,0|10,0:0|0:1,0:0:0:0:
45,118,72720,2,0,L|72:68,1,47.9999985351563,8|8,0:0|0:1,0:0:0:0:
94,36,73035,6,0,P|141:40|184:20,1,95.9999970703126,12|0,0:0|0:0,0:0:0:0:
275,52,73667,2,0,P|318:64|356:113,1,95.9999970703126,10|0,0:1|0:0,0:0:0:0:
303,184,74299,1,8,0:0:0:0:
303,184,74456,2,0,P|365:150|433:168,1,143.999995605469,10|10,0:1|0:1,0:0:0:0:
511,221,75246,1,0,0:0:0:0:
424,262,75562,6,0,L|445:371,2,95.9999970703126,8|0|10,0:0|0:0|0:1,0:0:0:0:
333,294,76509,1,8,0:0:0:0:
333,294,76667,2,0,P|271:328|203:310,1,143.999995605469,10|0,0:0|0:0,0:0:0:0:
113,345,77456,2,0,L|93:245,1,95.9999970703126,10|8,0:1|0:0,0:0:0:0:
26,182,78088,5,12,0:0:0:0:
26,182,78246,2,0,B|81:143|81:143|88:52,1,143.999995605469,8|8,0:1|0:1,0:0:0:0:
161,5,79035,1,4,0:0:0:0:
161,5,79193,2,0,B|216:44|216:44|223:135,1,143.999995605469,8|8,0:1|0:1,0:0:0:0:
299,177,79983,2,0,L|280:231,1,47.9999985351563,8|8,0:1|0:1,0:0:0:0:
242,248,80299,2,0,L|260:299,1,47.9999985351563,4|4,0:3|0:3,0:0:0:0:
275,338,80614,5,12,0:0:0:0:
275,338,80772,2,0,B|340:312|340:312|408:345,1,143.999995605469,8|8,0:1|0:1,0:0:0:0:
476,277,81562,1,12,0:0:0:0:
476,277,81720,2,0,B|443:210|443:210|469:145,1,143.999995605469,8|8,0:1|0:3,0:0:0:0:
493,52,82509,1,8,0:3:0:0:
400,77,82825,1,4,0:3:0:0:
315,31,83141,5,12,0:0:0:0:
256,192,83299,12,2,88588,0:0:0:0:
