osu file format v14

[General]
AudioFilename: audio.mp3
AudioLeadIn: 0
PreviewTime: 41919
Countdown: 0
SampleSet: Soft
StackLeniency: 0.7
Mode: 0
LetterboxInBreaks: 1
WidescreenStoryboard: 1

[Editor]
Bookmarks: 1578,22419,27472,42709,62840,83051
DistanceSpacing: 1.5
BeatDivisor: 4
GridSize: 32
TimelineZoom: 1.9

[Metadata]
Title:Rain
TitleUnicode:レイン
Artist:SID
ArtistUnicode:シド
Creator:Milan-
Version:Gaia's Hard
Source:鋼の錬金術師 FULLMETAL ALCHEMIST
Tags:pkhg gaia fma
BeatmapID:1398480
BeatmapSetID:655894

[Difficulty]
HPDrainRate:4
CircleSize:4
OverallDifficulty:5
ApproachRate:6.5
SliderMultiplier:2.2
SliderTickRate:2

[Events]
//Background and Video events
0,0,"samE.jpg",0,0
Video,-1150,"fmaop5.avi"
//Break Periods
//Storyboard Layer 0 (Background)
//Storyboard Layer 1 (Fail)
//Storyboard Layer 2 (Pass)
//Storyboard Layer 3 (Foreground)
//Storyboard Sound Samples

[TimingPoints]
2299,631.578947368421,4,2,1,25,1,0
3877,-125,4,2,1,25,0,0
4825,-100,4,2,1,25,0,0
8930,-125,4,2,1,25,0,0
9877,-100,4,2,1,25,0,0
19983,-125,4,2,1,25,0,0
21088,-111.111111111111,4,2,1,25,0,0
22351,-111.111111111111,4,2,1,5,0,0
22509,-100,4,2,1,30,0,0
25509,-100,4,2,2,30,0,0
25825,-100,4,2,1,40,0,0
33720,-100,4,2,2,40,0,0
33956,-100,4,2,2,5,0,0
34035,-100,4,2,1,40,0,0
34430,-100,4,2,1,5,0,0
34509,-100,4,2,2,40,0,0
35141,-100,4,2,1,40,0,0
39720,-100,4,2,2,40,0,0
40035,-100,4,2,1,20,0,0
40193,-125,4,2,1,20,0,0
40825,-100,4,2,1,30,0,0
41141,-100,4,2,1,40,0,0
41614,-100,4,2,2,50,0,0
41930,-100,4,2,1,35,0,0
42088,-125,4,2,1,35,0,0
42720,-83.3333333333333,4,2,1,50,0,0
42956,-83.3333333333333,4,2,1,5,0,0
43035,-83.3333333333333,4,2,1,50,0,0
43588,-83.3333333333333,4,2,1,5,0,0
43667,-83.3333333333333,4,2,1,50,0,0
44377,-83.3333333333333,4,2,1,5,0,0
44456,-83.3333333333333,4,2,1,50,0,0
45641,-83.3333333333333,4,2,1,5,0,0
45720,-83.3333333333333,4,2,1,50,0,0
46114,-83.3333333333333,4,2,1,5,0,0
46193,-83.3333333333333,4,2,1,50,0,0
46588,-83.3333333333333,4,2,1,5,0,0
46667,-83.3333333333333,4,2,1,50,0,0
48009,-83.3333333333333,4,2,1,5,0,0
48088,-83.3333333333333,4,2,1,50,0,0
48641,-83.3333333333333,4,2,1,5,0,0
48720,-83.3333333333333,4,2,1,50,0,0
49430,-83.3333333333333,4,2,1,5,0,0
49509,-83.3333333333333,4,2,1,50,0,0
50693,-83.3333333333333,4,2,1,5,0,0
50772,-83.3333333333333,4,2,1,50,0,0
51167,-83.3333333333333,4,2,1,5,0,0
51246,-83.3333333333333,4,2,1,50,0,0
51641,-83.3333333333333,4,2,1,5,0,0
51720,-83.3333333333333,4,2,1,50,0,0
53693,-83.3333333333333,4,2,1,5,0,0
53772,-83.3333333333333,4,2,1,50,0,0
54325,-83.3333333333333,4,2,1,5,0,0
54404,-83.3333333333333,4,2,1,50,0,0
55588,-83.3333333333333,4,2,1,5,0,0
55667,-83.3333333333333,4,2,1,50,0,0
56220,-83.3333333333333,4,2,1,5,0,0
56299,-83.3333333333333,4,2,1,50,0,0
61588,-83.3333333333333,4,2,1,5,0,0
61667,-83.3333333333333,4,2,1,50,0,0
63799,-83.3333333333333,4,2,1,5,0,0
63877,-83.3333333333333,4,2,1,50,0,0
64430,-83.3333333333333,4,2,1,5,0,0
64509,-83.3333333333333,4,2,1,50,0,0
65693,-83.3333333333333,4,2,1,5,0,0
65772,-83.3333333333333,4,2,1,50,0,0
66325,-83.3333333333333,4,2,1,5,0,0
66404,-83.3333333333333,4,2,1,50,0,0
68851,-83.3333333333333,4,2,1,5,0,0
68930,-83.3333333333333,4,2,1,50,0,0
69325,-83.3333333333333,4,2,1,5,0,0
69404,-83.3333333333333,4,2,1,50,0,0
70904,-83.3333333333333,4,2,1,5,0,0
70983,-83.3333333333333,4,2,1,50,0,0
71377,-83.3333333333333,4,2,1,5,0,0
71456,-83.3333333333333,4,2,1,50,0,0
71851,-83.3333333333333,4,2,1,5,0,0
71930,-83.3333333333333,4,2,1,50,0,0
73904,-83.3333333333333,4,2,1,5,0,0
73983,-83.3333333333333,4,2,1,50,0,0
75167,-83.3333333333333,4,2,1,5,0,0
75246,-83.3333333333333,4,2,1,50,0,0
75956,-83.3333333333333,4,2,1,5,0,0
76035,-83.3333333333333,4,2,1,50,0,0
76430,-83.3333333333333,4,2,1,5,0,0
76509,-83.3333333333333,4,2,1,50,0,0
83220,-83.3333333333333,4,2,1,5,0,0

[Colours]
Combo1 : 168,196,159
Combo2 : 187,198,208
Combo3 : 226,215,173
Combo4 : 208,187,198

[HitObjects]
137,48,2299,6,0,L|155:180,1,110,2|2,0:0|0:0,0:0:0:0:
104,329,2930,2,0,P|148:301|214:302,1,110,2|0,0:0|0:0,0:0:0:0:
282,246,3404,2,0,P|332:265|399:268,1,110,2|0,0:0|0:0,0:0:0:0:
454,202,3877,2,0,B|464:156|494:130|494:130|455:118|431:79|431:79|412:102|425:140,1,220,2|0,0:0|0:0,0:0:0:0:
322,119,4825,6,0,P|276:105|194:91,1,110,2|2,0:0|0:0,0:0:0:0:
57,194,5456,2,0,P|111:200|166:167,1,110,2|2,0:0|0:0,0:0:0:0:
215,93,5930,2,0,P|198:159|217:220,1,110,2|0,0:0|0:0,0:0:0:0:
256,278,6404,2,0,B|339:312|338:250|427:278,1,165,2|0,0:0|0:0,0:0:0:0:
498,228,7035,2,0,P|506:260|508:285,1,55,0|0,0:0|0:0,0:0:0:0:
411,238,7351,6,0,L|423:115,1,110,2|2,0:0|0:0,0:0:0:0:
270,11,7983,2,0,P|238:64|269:122,1,110,2|0,0:0|0:0,0:0:0:0:
312,176,8456,2,0,P|259:187|181:193,1,110,2|0,0:0|0:0,0:0:0:0:
101,146,8930,2,0,B|53:125|26:182|26:182|45:214|45:214|11:254|40:294,1,220,2|0,0:0|0:0,0:0:0:0:
111,354,9877,6,0,P|141:337|224:332,1,110,2|2,0:0|0:0,0:0:0:0:
402,321,10509,2,0,B|332:307|332:307|323:286|312:265,1,110,2|0,0:0|0:0,0:0:0:0:
279,184,10983,2,0,P|286:133|287:54,1,110,2|0,0:0|0:0,0:0:0:0:
192,3,11456,2,0,P|147:23|171:129,1,165,2|0,0:0|0:0,0:0:0:0:
68,150,12088,2,0,P|32:160|7:173,1,55,0|0,0:0|0:0,0:0:0:0:
82,237,12404,6,0,P|131:253|196:257,1,110,2|2,0:0|0:0,0:0:0:0:
309,114,13035,2,0,P|292:171|285:237,1,110,2|0,0:0|0:0,0:0:0:0:
336,300,13509,2,0,P|386:317|432:291,1,110,2|0,0:0|0:0,0:0:0:0:
503,185,13983,2,0,P|447:199|381:204,1,110,2|0,0:0|0:0,0:0:0:0:
433,118,14456,1,0,0:0:0:0:
433,118,14614,2,0,P|440:89|442:46,1,55,0|0,0:0|0:0,0:0:0:0:
335,21,14930,6,0,L|344:151,1,110,2|2,0:0|0:0,0:0:0:0:
189,257,15562,2,0,P|157:201|191:145,1,110,2|0,0:0|0:0,0:0:0:0:
239,97,16035,2,0,B|131:122|131:122|119:97|95:77,2,165,2|2|0,0:0|0:0|0:0,0:0:0:0:
329,135,17141,2,0,P|338:158|337:207,1,55
389,288,17456,6,0,P|349:278|260:265,1,110,2|2,0:0|0:0,0:0:0:0:
123,214,18088,2,0,B|136:275|133:305|133:305|98:339|48:324,1,165,2|0,0:0|0:0,0:0:0:0:
11,251,18720,2,0,L|-2:120,1,110,2|2,0:0|0:0,0:0:0:0:
156,37,19351,2,0,B|238:24|242:97|318:63,1,165,2|2,0:0|0:0,0:0:0:0:
353,43,19904,1,2,0:0:0:0:
353,43,19983,6,0,B|326:97|364:140|364:140|390:128|420:125|420:125|478:159|463:213,1,264,2|2,0:0|0:0,0:0:0:0:
458,301,21088,1,0,0:0:0:0:
458,301,21246,2,0,P|411:290|342:281,1,98.9999969787599,2|0,0:0|0:0,0:0:0:0:
290,333,21720,1,0,0:0:0:0:
290,333,21877,2,0,P|243:343|174:353,1,98.9999969787599,2|0,0:0|0:0,0:0:0:0:
17,255,22509,6,0,P|8:290|7:330,2,55,12|0|0,0:0|0:0|0:0,0:0:0:0:
85,199,22983,2,0,P|78:142|63:80,1,110,0|0,0:0|0:0,0:0:0:0:
221,35,23614,2,0,P|283:48|333:52,1,110
434,28,24088,2,0,P|392:27|361:144,1,165,8|4,0:3|0:3,0:0:0:0:
426,180,24720,2,0,L|489:166,1,55,4|0,0:3|0:0,0:0:0:0:
484,261,25035,6,0,P|481:288|473:333,2,55,12|0|0,0:0|0:0|0:0,0:0:0:0:
388,282,25509,1,0,0:0:0:0:
388,282,25667,2,0,P|331:295|261:303,1,110,2|0,1:1|0:0,0:0:0:0:
199,264,26141,1,8,0:0:0:0:
199,264,26299,2,0,L|76:247,1,110,0|8,1:0|0:3,0:0:0:0:
8,282,26772,2,0,P|43:225|16:171,1,110,8|4,0:3|0:3,0:0:0:0:
61,104,27246,2,0,P|95:117|128:121,1,55,4|0,0:3|0:0,0:0:0:0:
224,67,27562,6,0,B|187:148|258:147|204:251,2,165,4|8|8,0:0|0:0|0:0,0:0:0:0:
310,49,28667,1,0,0:0:0:0:
310,49,28825,2,0,P|361:66|432:76,1,110,8|8,0:1|0:0,0:0:0:0:
490,124,29299,1,8,0:1:0:0:
490,124,29456,2,0,P|466:149|458:184,1,55,8|0,0:0|0:0,0:0:0:0:
395,228,29772,2,0,P|401:265|414:299,1,55,8|0,0:0|0:0,0:0:0:0:
446,372,30088,6,0,P|397:362|312:352,1,110,8|0,0:0|0:0,0:0:0:0:
254,324,30562,2,0,B|191:330|146:352|146:352|137:325|112:302,1,165,8|8,0:0|0:0,0:0:0:0:
47,254,31193,1,0,0:0:0:0:
47,254,31351,2,0,L|60:133,1,110,8|8,0:1|0:0,0:0:0:0:
97,41,31825,1,8,0:1:0:0:
97,41,31983,2,0,L|18:51,2,55,0|0|8,0:0|0:0|0:0,0:0:0:0:
270,11,32614,6,0,P|257:47|257:81,1,55,12|0,0:0|0:0,0:0:0:0:
207,137,32930,1,0,0:0:0:0:
207,137,33088,2,0,P|241:183|314:189,1,110,0|0,0:0|0:0,0:0:0:0:
364,146,33562,1,8,0:1:0:0:
436,222,33720,2,0,P|421:281|416:348,1,110,10|8,0:1|0:1,0:0:0:0:
334,360,34193,2,0,P|322:338|315:298,1,55,8|0,0:3|0:0,0:0:0:0:
290,194,34509,2,0,P|271:237|156:258,1,165,6|0,1:0|0:0,0:0:0:0:
70,190,35141,5,12,0:0:0:0:
70,190,36404,1,2,3:2:0:0:
70,190,37667,6,0,P|126:185|200:172,1,110,12|0,0:0|0:0,0:0:0:0:
245,118,38141,2,0,P|232:60|273:19,1,110,8|0,0:1|0:0,0:0:0:0:
362,95,38614,2,0,P|374:144|384:228,1,110,12|0,0:0|0:0,0:0:0:0:
468,224,39088,2,0,P|465:254|443:349,1,110,8|8,0:1|0:0,0:0:0:0:
367,368,39562,2,0,P|343:366|302:350,1,55,8|0,0:1|0:0,0:0:0:0:
225,349,39877,2,0,P|199:357|171:360,1,55,2|0,1:0|0:0,0:0:0:0:
67,361,40193,6,0,P|72:313|74:263,1,88,8|8,0:1|0:1,0:0:0:0:
15,67,40825,2,0,P|21:105|32:139,1,55,8|0,0:1|0:0,0:0:0:0:
88,182,41141,2,0,L|156:163,1,55,8|0,0:1|0:0,0:0:0:0:
211,114,41456,2,0,L|286:130,1,55,8|0,0:1|0:0,0:0:0:0:
349,150,41772,1,6,1:0:0:0:
349,150,42088,6,0,L|358:208,1,44,2|2,3:2|3:2,0:0:0:0:
378,208,42404,2,0,L|387:266,1,44,2|2,3:2|3:2,0:0:0:0:
353,362,42720,6,0,P|415:338|492:376,2,131.99999597168,4|8|10,0:0|0:0|0:1,0:0:0:0:
168,347,43667,2,0,P|138:359|87:364,1,65.9999979858399,8|2,0:0|0:0,0:0:0:0:
39,298,43983,1,8,0:0:0:0:
124,263,44141,2,0,P|131:207|129:106,1,131.99999597168,10|0,0:1|0:0,0:0:0:0:
29,44,44614,2,0,P|0:99|64:150,1,131.99999597168,10|2,0:1|0:0,0:0:0:0:
131,131,45088,1,0,0:0:0:0:
219,105,45246,6,0,P|284:116|378:122,1,131.99999597168,8|0,0:0|0:0,0:0:0:0:
431,214,45720,1,8,0:0:0:0:
431,214,45877,2,0,P|365:219|300:230,1,131.99999597168,10|8,0:1|0:0,0:0:0:0:
264,315,46351,2,0,P|210:307|191:224,1,131.99999597168,10|10,0:0|0:1,0:0:0:0:
87,245,46825,2,0,P|93:284|92:328,1,65.9999979858399,8|0,0:0|0:0,0:0:0:0:
6,220,47141,2,0,P|11:157|21:73,1,131.99999597168,10|2,0:1|0:0,0:0:0:0:
95,36,47614,1,0,0:0:0:0:
180,87,47772,6,0,B|249:75|253:121|328:99,2,131.99999597168,12|0|10,0:0|0:0|0:1,0:0:0:0:
117,261,48720,1,0,0:0:0:0:
195,309,48877,1,2,0:0:0:0:
263,247,49035,2,0,P|296:238|328:237,1,65.9999979858399,8|10,0:0|0:1,0:0:0:0:
420,293,49351,2,0,P|409:249|442:167,1,131.99999597168,0|10,0:0|0:1,0:0:0:0:
455,78,49825,1,0,0:0:0:0:
456,78,49983,2,0,P|422:86|391:88,1,65.9999979858399,2|0,0:0|0:0,0:0:0:0:
316,32,50299,5,12,0:0:0:0:
287,169,50456,2,0,P|294:234|300:325,1,131.99999597168,10|0,0:1|0:0,0:0:0:0:
200,355,50930,2,0,P|161:314|75:337,1,131.99999597168,10|8,0:1|0:0,0:0:0:0:
0,248,51404,2,0,P|55:234|78:148,1,131.99999597168,10|10,0:0|0:1,0:0:0:0:
133,92,51877,2,0,P|106:76|54:70,1,65.9999979858399,0|8,0:0|0:0,0:0:0:0:
129,194,52193,2,0,P|196:185|285:171,1,131.99999597168,10|8,0:1|0:0,0:0:0:0:
319,104,52667,1,8,0:1:0:0:
273,199,52825,6,0,P|251:276|267:340,2,131.99999597168,12|8|10,0:0|0:0|0:1,0:0:0:0:
411,76,53772,2,0,P|374:90|330:99,1,65.9999979858399,0|2,0:0|0:0,0:0:0:0:
268,49,54088,1,8,0:0:0:0:
176,38,54246,1,8,0:1:0:0:
84,24,54404,2,0,P|65:66|69:101,1,65.9999979858399,10|0,0:0|0:0,0:0:0:0:
22,167,54720,2,0,P|31:235|34:321,1,131.99999597168,10|2,0:1|0:0,0:0:0:0:
99,363,55193,1,0,0:0:0:0:
99,363,55351,6,0,P|157:326|231:333,1,131.99999597168,10|0,0:0|0:0,0:0:0:0:
331,259,55825,1,10,0:0:0:0:
244,291,55983,2,0,P|178:291|124:255,1,131.99999597168,10|8,0:1|0:0,0:0:0:0:
210,194,56456,2,0,B|296:178|296:178|316:193|331:231,1,131.99999597168,10|10,0:0|0:1,0:0:0:0:
415,273,56930,2,0,P|417:240|427:208,1,65.9999979858399,0|8,0:0|0:0,0:0:0:0:
481,65,57246,2,0,P|456:112|367:111,1,131.99999597168,10|8,0:1|0:0,0:0:0:0:
320,52,57720,1,0,0:0:0:0:
320,52,57877,5,12,0:0:0:0:
199,39,58035,2,0,P|210:99|221:178,1,131.99999597168,8|8,0:1|0:0,0:0:0:0:
159,239,58509,2,0,P|119:236|95:215,1,65.9999979858399,8|0,0:1|0:0,0:0:0:0:
11,191,58825,1,12,0:0:0:0:
88,312,58983,2,0,P|147:295|239:289,1,131.99999597168,8|8,0:1|0:0,0:0:0:0:
306,265,59456,2,0,L|300:346,1,65.9999979858399,8|0,0:1|0:0,0:0:0:0:
390,374,59772,1,8,0:1:0:0:
467,322,59930,1,8,0:1:0:0:
471,229,60088,2,0,P|448:216|400:212,1,65.9999979858399,4|8,0:3|0:1,0:0:0:0:
315,233,60404,5,12,0:0:0:0:
393,179,60562,2,0,P|403:125|405:40,1,131.99999597168,8|8,0:1|0:0,0:0:0:0:
304,42,61035,2,0,P|269:54|229:62,1,65.9999979858399,8|8,0:1|0:0,0:0:0:0:
167,117,61351,2,0,L|62:104,1,98.9999969787599,12|0,0:1|0:0,0:0:0:0:
40,101,61667,6,0,L|15:42,2,43.9999986572266,8|8|8,0:0|0:1|0:1,0:0:0:0:
23,183,61983,2,0,L|4:238,2,43.9999986572266,8|8|8,0:1|0:1|0:1,0:0:0:0:
96,221,62299,2,0,L|158:229,2,43.9999986572266,8|8|8,0:0|0:1|0:1,0:0:0:0:
66,298,62614,2,0,L|4:306,2,43.9999986572266,8|8|8,0:0|0:1|0:1,0:0:0:0:
192,335,62930,6,0,P|244:327|325:378,2,131.99999597168,12|8|10,0:0|0:0|0:1,0:0:0:0:
368,279,63877,2,0,P|405:274|447:255,1,65.9999979858399,0|2,0:0|0:0,0:0:0:0:
496,197,64193,1,8,0:0:0:0:
379,182,64351,2,0,P|346:123|346:32,1,131.99999597168,8|0,0:1|0:0,0:0:0:0:
251,32,64825,2,0,P|244:65|244:113,1,65.9999979858399,10|0,0:1|0:0,0:0:0:0:
252,189,65141,2,0,P|221:180|172:179,1,65.9999979858399,2|0,0:0|0:0,0:0:0:0:
75,140,65456,6,0,P|44:173|66:268,1,131.99999597168,10|2,0:0|0:0,0:0:0:0:
57,347,65930,1,8,0:0:0:0:
57,347,66088,2,0,P|109:327|197:335,1,131.99999597168,10|10,0:1|0:0,0:0:0:0:
269,294,66562,2,0,P|321:314|409:306,1,131.99999597168,10|10,0:0|0:1,0:0:0:0:
440,229,67035,2,0,L|436:153,1,65.9999979858399,0|0,0:0|0:0,0:0:0:0:
457,72,67351,2,0,B|412:72|373:98|373:98|357:78|314:56,1,131.99999597168,10|2,0:1|0:0,0:0:0:0:
267,12,67825,1,0,0:0:0:0:
267,12,67983,6,0,P|291:54|249:140,1,131.99999597168,12|0,0:0|0:0,0:0:0:0:
86,248,68614,2,0,P|59:189|84:131,1,131.99999597168,10|2,0:1|0:0,0:0:0:0:
176,117,69088,1,2,0:0:0:0:
212,202,69246,2,0,L|200:268,1,65.9999979858399,0|10,0:0|0:1,0:0:0:0:
155,356,69562,2,0,P|217:342|299:337,1,131.99999597168,8|10,0:0|0:1,0:0:0:0:
358,280,70035,1,0,0:0:0:0:
358,280,70193,2,0,P|401:288|440:299,1,65.9999979858399,8|8,0:0|0:1,0:0:0:0:
476,369,70509,5,8,0:0:0:0:
437,267,70667,2,0,P|416:184|427:109,1,131.99999597168,10|8,0:1|0:0,0:0:0:0:
424,45,71141,2,0,P|389:63|354:70,1,65.9999979858399,10|0,0:1|0:0,0:0:0:0:
279,31,71456,1,8,0:0:0:0:
216,117,71614,2,0,P|152:102|71:104,1,131.99999597168,10|10,0:0|0:1,0:0:0:0:
4,145,72088,2,0,P|14:175|16:221,1,65.9999979858399,0|8,0:0|0:0,0:0:0:0:
16,318,72404,2,0,B|81:308|81:358|163:333,1,131.99999597168,10|8,0:1|0:0,0:0:0:0:
223,290,72877,1,8,0:1:0:0:
291,367,73035,6,0,P|325:313|310:237,2,131.99999597168,12|0|10,0:0|0:0|0:1,0:0:0:0:
243,187,73983,2,0,L|236:106,1,65.9999979858399,0|2,0:0|0:0,0:0:0:0:
300,53,74299,1,8,0:0:0:0:
221,101,74456,2,0,P|142:126|75:120,1,131.99999597168,10|0,0:1|0:0,0:0:0:0:
6,155,74930,2,0,P|17:184|21:230,1,65.9999979858399,10|0,0:1|0:0,0:0:0:0:
102,266,75246,2,0,P|90:296|86:329,1,65.9999979858399,0|2,0:0|0:0,0:0:0:0:
164,379,75562,5,8,0:0:0:0:
244,302,75720,2,0,P|315:288|390:280,1,131.99999597168,10|8,0:1|0:0,0:0:0:0:
409,195,76193,2,0,P|343:186|278:174,1,131.99999597168,10|8,0:1|0:0,0:0:0:0:
217,60,76667,2,0,P|256:43|318:116,1,131.99999597168,10|10,0:0|0:1,0:0:0:0:
404,72,77141,2,0,P|413:39|410:3,1,65.9999979858399,0|8,0:0|0:0,0:0:0:0:
488,107,77456,2,0,L|505:264,1,131.99999597168,10|8,0:1|0:0,0:0:0:0:
500,331,77930,1,2,0:0:0:0:
500,331,78088,5,12,0:0:0:0:
418,275,78246,2,0,P|347:277|275:317,1,131.99999597168,8|8,0:1|0:0,0:0:0:0:
210,343,78720,2,0,L|135:332,1,65.9999979858399,8|4,0:1|0:3,0:0:0:0:
38,308,79035,1,4,0:0:0:0:
123,246,79193,2,0,P|140:178|98:109,1,131.99999597168,8|8,0:1|0:0,0:0:0:0:
83,36,79667,2,0,P|133:84|214:82,1,131.99999597168,8|8,0:1|0:1,0:0:0:0:
263,29,80141,1,8,0:1:0:0:
353,47,80299,2,0,P|375:76|379:127,1,65.9999979858399,4|4,0:3|0:3,0:0:0:0:
334,183,80614,5,12,0:0:0:0:
418,129,80772,2,0,P|469:141|502:219,1,131.99999597168,8|8,0:1|0:0,0:0:0:0:
506,331,81246,2,0,P|473:324|435:311,1,65.9999979858399,8|0,0:1|0:0,0:0:0:0:
403,228,81562,1,12,0:0:0:0:
321,311,81720,2,0,P|248:326|167:335,1,131.99999597168,8|8,0:1|0:2,0:0:0:0:
90,308,82193,6,0,L|97:367,2,43.9999986572266,8|8|8,0:3|0:3|0:3,0:0:0:0:
142,247,82509,2,0,P|150:187|136:147,1,87.9999973144532,8|8,0:3|0:3,0:0:0:0:
158,83,82825,2,0,P|192:99|240:102,1,65.9999979858399,4|0,0:3|0:0,0:0:0:0:
289,41,83141,5,12,0:0:0:0:
256,192,83220,12,2,88588,0:0:0:0:
