osu file format v14

[General]
AudioFilename: audio.mp3
AudioLeadIn: 0
PreviewTime: 41919
Countdown: 0
SampleSet: Soft
StackLeniency: 0.7
Mode: 0
LetterboxInBreaks: 1
WidescreenStoryboard: 1

[Editor]
Bookmarks: 1578,22419,27472,42709,62840,83051
DistanceSpacing: 1.5
BeatDivisor: 4
GridSize: 32
TimelineZoom: 3.099999

[Metadata]
Title:Rain
TitleUnicode:レイン
Artist:SID
ArtistUnicode:シド
Creator:Milan-
Version:Insane
Source:鋼の錬金術師 FULLMETAL ALCHEMIST
Tags:pkhg gaia fma
BeatmapID:1389839
BeatmapSetID:655894

[Difficulty]
HPDrainRate:6
CircleSize:4
OverallDifficulty:8
ApproachRate:9
SliderMultiplier:3.2
SliderTickRate:2

[Events]
//Background and Video events
0,0,"samE.jpg",0,0
Video,-1150,"fmaop5.avi"
//Break Periods
//Storyboard Layer 0 (Background)
//Storyboard Layer 1 (Fail)
//Storyboard Layer 2 (Pass)
//Storyboard Layer 3 (Foreground)
//Storyboard Sound Samples

[TimingPoints]
2299,631.578947368421,4,2,1,25,1,0
2299,-200,4,2,1,25,0,0
22351,-100,4,2,1,5,0,0
22509,-166.666666666667,4,2,1,30,0,0
25509,-166.666666666667,4,2,2,30,0,0
25825,-166.666666666667,4,2,1,40,0,0
27562,-133.333333333333,4,2,1,40,0,0
29772,-200,4,2,1,40,0,0
30009,-200,4,2,1,10,0,0
30088,-133.333333333333,4,2,1,40,0,0
32299,-200,4,2,1,40,0,0
32614,-133.333333333333,4,2,1,40,0,0
33720,-133.333333333333,4,2,2,40,0,0
33956,-133.333333333333,4,2,2,5,0,0
34035,-133.333333333333,4,2,1,40,0,0
34430,-133.333333333333,4,2,1,5,0,0
34509,-133.333333333333,4,2,2,40,0,0
35141,-133.333333333333,4,2,1,40,0,0
39720,-133.333333333333,4,2,2,40,0,0
39877,-83.3333333333333,4,2,2,40,0,0
40035,-83.3333333333333,4,2,1,20,0,0
40509,-200,4,2,1,20,0,0
40825,-166.666666666667,4,2,1,30,0,0
41141,-142.857142857143,4,2,1,40,0,0
41456,-125,4,2,1,40,0,0
41614,-125,4,2,2,50,0,0
41930,-125,4,2,1,35,0,0
42088,-200,4,2,1,35,0,0
42720,-100,4,2,1,50,0,0
42956,-100,4,2,1,5,0,0
43035,-100,4,2,1,50,0,0
43588,-100,4,2,1,5,0,0
43667,-100,4,2,1,50,0,0
44377,-100,4,2,1,5,0,0
44456,-100,4,2,1,50,0,0
45641,-100,4,2,1,5,0,0
45720,-100,4,2,1,50,0,0
46114,-100,4,2,1,5,0,0
46193,-100,4,2,1,50,0,0
46588,-100,4,2,1,5,0,0
46667,-100,4,2,1,50,0,0
48009,-100,4,2,1,5,0,0
48088,-100,4,2,1,50,0,0
48641,-100,4,2,1,5,0,0
48720,-100,4,2,1,50,0,0
49430,-100,4,2,1,5,0,0
49509,-100,4,2,1,50,0,0
50693,-100,4,2,1,5,0,0
50772,-100,4,2,1,50,0,0
51167,-100,4,2,1,5,0,0
51246,-100,4,2,1,50,0,0
51641,-100,4,2,1,5,0,0
51720,-100,4,2,1,50,0,0
53693,-100,4,2,1,5,0,0
53772,-100,4,2,1,50,0,0
54325,-100,4,2,1,5,0,0
54404,-100,4,2,1,50,0,0
55588,-100,4,2,1,5,0,0
55667,-100,4,2,1,50,0,0
56220,-100,4,2,1,5,0,0
56299,-100,4,2,1,50,0,0
58035,-133.333333333333,4,2,1,50,0,0
58509,-100,4,2,1,50,0,0
58983,-133.333333333333,4,2,1,50,0,0
59456,-100,4,2,1,50,0,0
60562,-133.333333333333,4,2,1,50,0,0
61035,-100,4,2,1,50,0,0
61351,-133.333333333333,4,2,1,50,0,0
61588,-133.333333333333,4,2,1,5,0,0
61667,-100,4,2,1,50,0,0
61983,-90.9090909090909,4,2,1,50,0,0
62299,-83.3333333333333,4,2,1,50,0,0
62614,-76.9230769230769,4,2,1,50,0,0
62930,-100,4,2,1,50,0,0
63799,-100,4,2,1,5,0,0
63877,-100,4,2,1,50,0,0
64430,-100,4,2,1,5,0,0
64509,-100,4,2,1,50,0,0
65693,-100,4,2,1,5,0,0
65772,-100,4,2,1,50,0,0
66325,-100,4,2,1,5,0,0
66404,-100,4,2,1,50,0,0
68851,-100,4,2,1,5,0,0
68930,-100,4,2,1,50,0,0
69325,-100,4,2,1,5,0,0
69404,-100,4,2,1,50,0,0
70904,-100,4,2,1,5,0,0
70983,-100,4,2,1,50,0,0
71377,-100,4,2,1,5,0,0
71456,-100,4,2,1,50,0,0
71851,-100,4,2,1,5,0,0
71930,-100,4,2,1,50,0,0
73904,-100,4,2,1,5,0,0
73983,-100,4,2,1,50,0,0
75167,-100,4,2,1,5,0,0
75246,-100,4,2,1,50,0,0
75956,-100,4,2,1,5,0,0
76035,-100,4,2,1,50,0,0
76430,-100,4,2,1,5,0,0
76509,-100,4,2,1,50,0,0
78246,-133.333333333333,4,2,1,50,0,0
78720,-100,4,2,1,50,0,0
79193,-133.333333333333,4,2,1,50,0,0
79667,-100,4,2,1,50,0,0
80772,-133.333333333333,4,2,1,50,0,0
81246,-100,4,2,1,50,0,0
81562,-133.333333333333,4,2,1,50,0,0
82193,-100,4,2,1,50,0,0
82509,-83.3333333333333,4,2,1,50,0,0
82825,-71.4285714285714,4,2,1,50,0,0
83220,-71.4285714285714,4,2,1,5,0,0

[Colours]
Combo1 : 168,196,159
Combo2 : 187,198,208
Combo3 : 226,215,173
Combo4 : 208,187,198

[HitObjects]
121,70,720,5,0,0:0:0:0:
121,70,1035,1,0,0:0:0:0:
121,70,1351,1,0,0:0:0:0:
121,70,1667,1,0,0:0:0:0:
121,70,1983,1,0,0:0:0:0:
121,70,2299,6,0,P|115:105|110:158,1,80,2|0,0:0|0:0,0:0:0:0:
192,181,2772,2,0,P|195:141|202:101,1,80,2|0,0:0|0:0,0:0:0:0:
280,60,3246,1,0,0:0:0:0:
280,60,3562,1,0,0:0:0:0:
280,60,3877,1,0,0:0:0:0:
280,60,4193,1,0,0:0:0:0:
280,60,4509,1,0,0:0:0:0:
280,60,4825,6,0,P|319:64|359:62,1,80,2|0,0:0|0:0,0:0:0:0:
393,144,5299,2,0,P|353:148|313:146,1,80,2|0,0:0|0:0,0:0:0:0:
278,227,5772,2,0,P|317:231|357:229,1,80,2|0,0:0|0:0,0:0:0:0:
202,145,6404,1,0,0:0:0:0:
202,145,7351,5,0,0:0:0:0:
223,319,7667,1,0,0:0:0:0:
60,251,7983,2,0,P|96:243|147:234,1,80,2|0,0:0|0:0,0:0:0:0:
117,149,8456,2,0,P|77:145|37:143,1,80,2|0,0:0|0:0,0:0:0:0:
65,38,8930,2,0,P|103:50|140:63,1,80,0|2,0:0|0:0,0:0:0:0:
317,52,9562,1,2,0:0:0:0:
140,63,9877,6,0,P|183:56|221:47,1,80
317,52,10351,2,0,P|328:88|339:137,1,80,2|0,0:0|0:0,0:0:0:0:
247,132,10825,1,0,0:0:0:0:
413,191,10983,2,0,P|421:131|432:72,1,120,2|0,0:0|0:0,0:0:0:0:
407,361,12088,5,0,0:0:0:0:
407,361,12404,2,0,P|368:357|312:347,1,80,2|0,0:0|0:0,0:0:0:0:
249,309,12877,1,0,0:0:0:0:
147,233,13035,2,0,P|187:229|227:223,1,80,2|0,0:0|0:0,0:0:0:0:
294,120,13509,2,0,P|305:179|314:239,1,120,2|0,0:0|0:0,0:0:0:0:
206,81,14614,5,0,0:0:0:0:
206,81,14930,2,0,P|201:114|183:163,1,80,2|0,0:0|0:0,0:0:0:0:
98,143,15404,1,0,0:0:0:0:
43,265,15562,2,0,P|29:228|23:189,1,80,2|0,0:0|0:0,0:0:0:0:
134,280,16035,2,0,P|194:272|260:278,1,120,2|0,0:0|0:0,0:0:0:0:
488,239,17141,6,0,L|470:280,1,40,0|0,0:0|0:0,0:0:0:0:
389,245,17456,2,0,P|385:287|391:325,1,80,2|0,0:0|0:0,0:0:0:0:
396,157,17930,1,2,0:0:0:0:
297,261,18088,2,0,P|301:221|315:184,1,80,0|0,0:0|0:0,0:0:0:0:
488,86,18720,5,2,0:0:0:0:
488,86,19035,1,0,0:0:0:0:
488,86,19351,2,0,P|450:78|355:65,1,120,2|2,0:0|0:0,0:0:0:0:
369,66,19904,1,2,0:0:0:0:
369,66,19983,1,2,0:0:0:0:
94,65,20930,6,0,P|122:59|144:54,1,40,2|0,0:0|0:0,0:0:0:0:
211,16,21246,2,0,P|236:48|252:95,1,80,2|0,0:0|0:0,0:0:0:0:
64,196,21877,2,0,P|106:158|182:173,1,140,2|0,0:0|0:0,0:0:0:0:
182,173,22509,5,12,0:0:0:0:
243,328,24088,2,0,P|249:283|261:233,1,95.9999970703126,8|0,0:3|0:0,0:0:0:0:
439,183,24562,1,4,0:3:0:0:
368,247,24720,1,4,0:3:0:0:
273,232,24877,1,0,0:0:0:0:
238,142,25035,6,0,P|199:151|143:156,1,95.9999970703126,12|0,0:0|0:0,0:0:0:0:
365,346,25667,2,0,P|404:355|460:360,1,95.9999970703126,2|0,1:1|0:0,0:0:0:0:
273,232,26141,1,8,0:0:0:0:
273,232,26220,1,8,0:0:0:0:
273,232,26299,6,0,P|308:223|335:212,1,47.9999985351563,0|0,1:0|0:0,0:0:0:0:
446,149,26614,2,0,P|403:155|317:89,1,143.999995605469,8|4,0:3|0:3,0:0:0:0:
458,58,27246,2,0,P|431:61|402:65,1,47.9999985351563,4|0,0:3|0:0,0:0:0:0:
241,29,27562,6,0,P|232:83|226:169,1,120.000004577637,4|0,0:0|0:0,0:0:0:0:
141,230,28035,2,0,P|136:170|126:111,1,120.000004577637,8|0,0:0|0:0,0:0:0:0:
32,205,28509,2,0,P|37:173|45:139,1,60.0000022888184,8|0,0:0|0:0,0:0:0:0:
140,20,28825,6,0,P|86:27|18:22,1,120.000004577637,8|8,0:1|0:0,0:0:0:0:
225,61,29299,1,8,0:1:0:0:
151,111,29456,1,8,0:0:0:0:
149,201,29614,1,0,0:0:0:0:
198,276,29772,2,0,P|208:310|211:338,1,60,8|0,0:0|0:0,0:0:0:0:
210,334,30088,6,0,P|268:319|333:307,1,120.000004577637,8|0,0:0|0:0,0:0:0:0:
421,230,30562,2,0,P|363:214|298:202,1,120.000004577637,8|0,0:0|0:0,0:0:0:0:
371,63,31035,2,0,P|393:117|397:128,1,60.0000022888184,8|0,0:0|0:0,0:0:0:0:
275,39,31351,6,0,P|243:86|223:158,1,120.000004577637,8|8,0:1|0:0,0:0:0:0:
133,100,31825,2,0,P|128:156|147:229,1,120.000004577637,8|0,0:1|0:0,0:0:0:0:
42,310,32299,2,0,P|78:312|107:303,1,60,8|0,0:0|0:0,0:0:0:0:
100,305,32614,5,12,0:0:0:0:
100,305,33562,1,8,0:1:0:0:
204,384,33720,2,0,P|199:331|198:270,1,90.0000034332277,10|0,0:1|0:0,0:0:0:0:
209,278,34035,1,8,0:1:0:0:
311,157,34193,2,0,P|306:210|305:271,1,90.0000034332277,8|0,0:3|0:0,0:0:0:0:
316,263,34508,1,6,1:0:0:0:
100,305,35141,5,12,0:0:0:0:
419,207,36404,5,2,3:2:0:0:
105,176,37667,6,0,P|168:184|232:187,1,120.000004577637,12|0,0:0|0:0,0:0:0:0:
150,295,38141,2,0,P|212:286|275:272,1,120.000004577637,8|0,0:1|0:0,0:0:0:0:
243,384,38614,2,0,P|301:359|358:330,1,120.000004577637,8|0,0:0|0:0,0:0:0:0:
374,183,39088,6,0,P|367:213|355:254,1,60.0000022888184,8|0,0:1|0:0,0:0:0:0:
360,100,39404,1,8,0:0:0:0:
285,182,39562,2,0,P|283:153|277:120,1,60.0000022888184,8|0,0:1|0:0,0:0:0:0:
54,24,39877,6,0,P|134:77|193:152,1,191.999994140625,2|8,1:0|0:1,0:0:0:0:
193,152,40509,2,0,P|177:169|158:197,1,40,8|0,0:1|0:0,0:0:0:0:
319,282,40825,2,0,P|344:270|384:256,1,47.9999985351563,8|0,0:1|0:0,0:0:0:0:
288,192,41141,2,0,P|267:204|231:245,1,55.9999982910157,8|0,0:1|0:0,0:0:0:0:
375,352,41456,2,0,P|406:346|438:345,1,64,8|0,0:1|0:0,0:0:0:0:
282,367,41772,1,6,1:0:0:0:
478,121,42088,6,0,P|480:150|485:173,1,40,2|2,3:2|3:2,0:0:0:0:
463,135,42404,2,0,P|472:162|483:183,1,40,2|2,3:2|3:2,0:0:0:0:
449,148,42720,6,0,P|385:190|305:177,1,160,4|8,0:0|0:0,0:0:0:0:
180,52,43193,1,0,0:0:0:0:
328,170,43351,2,0,P|276:130|177:143,1,160,10|8,0:1|0:0,0:0:0:0:
130,318,43825,1,2,0:0:0:0:
189,253,43983,1,8,0:0:0:0:
79,154,44141,2,0,P|94:190|102:229,1,80,10|0,0:1|0:0,0:0:0:0:
441,253,44456,1,0,0:0:0:0:
439,53,44614,2,0,P|389:115|374:193,1,160,10|2,0:1|0:0,0:0:0:0:
126,0,45088,1,0,0:0:0:0:
126,0,45167,1,0,0:0:0:0:
126,0,45246,6,0,P|175:62|190:140,1,160,8|0,0:0|0:0,0:0:0:0:
292,325,45720,1,8,0:0:0:0:
130,318,45877,2,0,P|169:311|207:298,1,80,10|0,0:1|0:0,0:0:0:0:
500,134,46193,1,8,0:0:0:0:
273,94,46351,2,0,P|336:141|414:157,1,160,10|10,0:0|0:1,0:0:0:0:
164,156,46825,2,0,P|151:216|150:254,1,80,8|0,0:0|0:0,0:0:0:0:
487,384,47141,2,0,P|486:315|473:215,1,160,10|2,0:1|0:0,0:0:0:0:
241,282,47614,1,0,0:0:0:0:
241,282,47693,1,0,0:0:0:0:
241,282,47773,6,0,B|325:248|317:317|395:278,1,160,12|0,0:0|0:0,0:0:0:0:
149,234,48246,1,0,0:0:0:0:
395,279,48404,2,0,B|315:244|326:312|241:282,1,160,10|0,0:1|0:0,0:0:0:0:
0,129,48877,2,0,P|32:151|69:166,1,80,2|8,0:0|0:0,0:0:0:0:
311,113,49193,1,10,0:1:0:0:
161,144,49351,2,0,P|189:115|223:95,1,80,0|0,0:0|0:0,0:0:0:0:
508,217,49667,2,0,P|429:222|356:190,1,160,10|2,0:1|0:0,0:0:0:0:
311,113,50141,1,0,0:0:0:0:
502,49,50299,5,8,0:0:0:0:
422,13,50456,1,10,0:1:0:0:
336,32,50614,1,0,0:0:0:0:
291,107,50772,1,0,0:0:0:0:
177,214,50930,2,0,P|216:204|251:185,1,80,10|0,0:1|0:0,0:0:0:0:
20,48,51246,1,8,0:0:0:0:
245,26,51404,2,0,P|172:-5|93:0,1,160,10|10,0:0|0:1,0:0:0:0:
402,268,51877,2,0,P|420:323|422:373,1,80,0|8,0:0|0:0,0:0:0:0:
99,90,52193,2,0,P|51:153|37:231,1,160,10|8,0:1|0:0,0:0:0:0:
343,176,52667,1,8,0:1:0:0:
343,176,52746,1,8,0:1:0:0:
343,176,52825,6,0,P|267:205|190:181,1,160,12|8,0:0|0:0,0:0:0:0:
402,268,53299,1,0,0:0:0:0:
195,206,53456,2,0,P|251:228|294:325,1,160,10|0,0:1|0:0,0:0:0:0:
100,384,53931,1,2,0:0:0:0:
159,319,54089,1,8,0:0:0:0:
0,267,54246,2,0,P|34:287|72:298,1,80,8|10,0:1|0:0,0:0:0:0:
291,112,54562,1,0,0:0:0:0:
512,128,54720,2,0,P|441:163|361:161,1,160,10|2,0:1|0:0,0:0:0:0:
0,17,55194,1,0,0:0:0:0:
0,17,55273,1,0,0:0:0:0:
0,17,55351,6,0,P|70:52|150:50,1,160,10|0,0:0|0:0,0:0:0:0:
286,200,55826,1,10,0:0:0:0:
212,342,55983,2,0,P|215:302|226:264,1,80,10|0,0:1|0:0,0:0:0:0:
352,7,56299,1,8,0:0:0:0:
451,213,56456,2,0,P|448:133|419:59,1,160,10|10,0:0|0:1,0:0:0:0:
71,168,56930,2,0,P|127:150|161:127,1,80,0|8,0:0|0:0,0:0:0:0:
464,336,57246,2,0,P|401:335|304:283,1,160,10|8,0:1|0:0,0:0:0:0:
238,102,57720,5,0,0:0:0:0:
238,102,57799,1,0,0:0:0:0:
238,102,57877,1,12,0:0:0:0:
313,146,58035,2,0,P|381:132|447:111,1,120.000004577637,8|8,0:1|0:0,0:0:0:0:
370,220,58509,6,0,P|414:222|465:228,1,80,8|0,0:1|0:0,0:0:0:0:
278,252,58825,5,12,0:0:0:0:
189,242,58983,2,0,P|205:305|215:376,1,120.000004577637,8|8,0:1|0:0,0:0:0:0:
102,307,59456,6,0,P|115:347|122:393,1,80,8|0,0:1|0:0,0:0:0:0:
339,314,59772,1,8,0:1:0:0:
278,252,59930,1,8,0:1:0:0:
189,243,60088,1,4,0:3:0:0:
116,292,60246,1,8,0:1:0:0:
242,164,60404,5,12,0:0:0:0:
149,155,60562,2,0,P|134:91|125:20,1,120.000004577637,8|8,0:1|0:0,0:0:0:0:
230,78,61035,6,0,P|237:38|243:0,1,80,8|8,0:1|0:0,0:0:0:0:
312,139,61351,6,0,P|354:152|398:162,1,90.0000034332277,12|0,0:1|0:0,0:0:0:0:
398,184,61667,6,0,P|411:218|417:254,2,53.3333333333333,8|8|8,0:0|0:1|0:1,0:0:0:0:
324,297,61983,2,0,P|326:270|326:235,2,58.6666684570313,8|8|8,0:1|0:1|0:1,0:0:0:0:
131,261,62299,6,0,P|107:286|56:323,2,63.9999980468751,8|8|8,0:0|0:1|0:1,0:0:0:0:
205,329,62614,2,0,P|219:300|231:263,2,69.3333301595054,8|8|8,0:0|0:1|0:1,0:0:0:0:
55,212,62930,6,0,P|57:138|24:58,1,160,12|8,0:0|0:0,0:0:0:0:
177,159,63404,1,0,0:0:0:0:
31,44,63562,2,0,P|105:46|185:13,1,160,10|0,0:1|0:0,0:0:0:0:
343,31,64036,1,2,0:0:0:0:
290,102,64194,1,8,0:0:0:0:
451,135,64351,2,0,P|415:119|376:113,1,80,8|10,0:1|0:0,0:0:0:0:
44,290,64667,1,0,0:0:0:0:
240,180,64825,2,0,P|160:179|90:215,1,160,10|2,0:1|0:0,0:0:0:0:
339,235,65299,1,0,0:0:0:0:
339,235,65378,1,0,0:0:0:0:
339,235,65457,6,0,P|388:297|403:375,1,160,10|2,0:0|0:0,0:0:0:0:
338,135,65931,1,8,0:0:0:0:
430,17,66088,2,0,P|427:56|416:95,1,80,10|0,0:1|0:0,0:0:0:0:
165,264,66404,1,10,0:0:0:0:
66,64,66562,2,0,P|58:142|90:215,1,160,10|10,0:0|0:1,0:0:0:0:
340,50,67035,2,0,P|301:60|261:62,1,80,0|0,0:0|0:0,0:0:0:0:
80,306,67351,2,0,P|159:306|231:339,1,160,10|2,0:1|0:0,0:0:0:0:
411,140,67825,1,0,0:0:0:0:
411,140,67904,1,0,0:0:0:0:
411,140,67983,6,0,B|445:224|376:216|415:294,1,160,12|0,0:0|0:0,0:0:0:0:
459,48,68457,1,0,0:0:0:0:
414,294,68614,2,0,B|449:214|381:225|411:140,1,160,10|2,0:1|0:0,0:0:0:0:
231,339,69088,2,0,P|270:333|314:318,1,80,2|0,0:0|0:0,0:0:0:0:
253,146,69404,1,10,0:1:0:0:
102,76,69562,2,0,P|141:82|179:94,1,80,8|0,0:0|0:0,0:0:0:0:
15,363,69877,2,0,P|61:317|160:284,1,160,10|8,0:1|0:0,0:0:0:0:
229,247,70352,1,8,0:1:0:0:
452,290,70510,5,8,0:0:0:0:
372,326,70667,1,10,0:1:0:0:
286,307,70825,1,0,0:0:0:0:
241,232,70983,1,8,0:0:0:0:
127,125,71141,2,0,P|166:135|201:154,1,80,10|0,0:1|0:0,0:0:0:0:
500,117,71457,1,8,0:0:0:0:
291,157,71614,2,0,P|348:101|423:74,1,160,10|10,0:0|0:1,0:0:0:0:
144,230,72088,2,0,P|88:247|41:244,1,80,0|8,0:0|0:0,0:0:0:0:
488,289,72404,2,0,P|419:249|339:248,1,160,10|8,0:1|0:0,0:0:0:0:
192,4,72878,1,8,0:1:0:0:
192,4,72957,1,8,0:1:0:0:
192,4,73036,6,0,P|221:80|197:157,1,160,12|0,0:0|0:0,0:0:0:0:
90,339,73510,1,0,0:0:0:0:
184,144,73667,2,0,P|155:220|179:297,1,160,10|0,0:1|0:0,0:0:0:0:
378,169,74142,1,2,0:0:0:0:
339,248,74300,1,8,0:0:0:0:
500,264,74456,2,0,P|463:248|424:243,1,80,10|8,0:1|0:0,0:0:0:0:
143,27,74772,1,0,0:0:0:0:
365,43,74930,2,0,P|295:79|216:72,1,160,10|0,0:1|0:0,0:0:0:0:
167,316,75405,5,2,0:0:0:0:
167,316,75484,1,0,0:0:0:0:
167,316,75562,1,8,0:0:0:0:
11,338,75720,2,0,P|41:312|80:302,1,80,10|0,0:1|0:0,0:0:0:0:
288,185,76035,1,8,0:0:0:0:
346,39,76193,2,0,P|353:77|343:116,1,80,10|0,0:1|0:0,0:0:0:0:
31,95,76509,1,8,0:0:0:0:
204,225,76667,2,0,P|125:222|61:176,1,160,10|10,0:0|0:1,0:0:0:0:
443,118,77141,2,0,P|476:140|506:185,1,80,0|8,0:0|0:0,0:0:0:0:
119,110,77456,2,0,P|182:63|261:61,1,160,10|8,0:1|0:0,0:0:0:0:
452,260,77930,5,2,0:0:0:0:
452,260,78010,1,0,0:0:0:0:
452,260,78088,1,12,0:0:0:0:
375,307,78246,2,0,P|367:250|351:176,1,120.000004577637,8|8,0:1|0:0,0:0:0:0:
260,287,78720,6,0,P|268:250|272:208,1,80,8|4,0:1|0:3,0:0:0:0:
184,338,79036,5,4,0:0:0:0:
116,279,79193,2,0,P|124:219|136:160,1,120.000004577637,8|8,0:1|0:0,0:0:0:0:
28,249,79667,6,0,P|14:202|11:159,1,80,8|0,0:1|0:0,0:0:0:0:
239,337,79983,1,8,0:1:0:0:
193,262,80141,1,8,0:1:0:0:
109,234,80299,1,4,0:3:0:0:
27,266,80457,1,4,0:3:0:0:
179,169,80615,5,12,0:0:0:0:
94,143,80773,2,0,P|80:75|77:5,1,120.000004577637,8|8,0:1|0:0,0:0:0:0:
174,78,81246,6,0,P|182:41|189:-18,1,80,8|0,0:1|0:0,0:0:0:0:
407,27,81562,5,12,0:0:0:0:
379,112,81720,2,0,P|311:124|240:126,1,120.000004577637,8|8,0:1|0:2,0:0:0:0:
391,243,82193,2,0,P|368:231|342:212,2,53.3333333333333,8|8|0,0:3|0:3|0:3,0:0:0:0:
256,221,82509,2,0,P|265:251|283:278,2,63.9999980468751,8|4|4,0:3|0:3|0:3,0:0:0:0:
164,241,82825,2,0,P|167:203|179:168,2,74.6666643880209,4|8|4,0:3|0:0|0:3,0:0:0:0:
86,173,83141,5,12,0:0:0:0:
256,192,83220,12,2,88588,0:0:0:0:
