osu file format v14

[General]
AudioFilename: audio.mp3
AudioLeadIn: 0
PreviewTime: 61494
Countdown: 0
SampleSet: None
StackLeniency: 0.7
Mode: 0
LetterboxInBreaks: 0
WidescreenStoryboard: 0

[Editor]
DistanceSpacing: 1.6
BeatDivisor: 4
GridSize: 4
TimelineZoom: 1.3

[Metadata]
Title:Garasu no Hitomi (Short ver.)
TitleUnicode:硝子の瞳
Artist:SID
ArtistUnicode:SID
Creator:tiffany yu tyu
Version:Insane
Source:黒執事 Book of the Atlantic
Tags:Black Butler kuroshitsuji ciel sebastian
BeatmapID:1412012
BeatmapSetID:667308

[Difficulty]
HPDrainRate:6
CircleSize:4
OverallDifficulty:6
ApproachRate:9
SliderMultiplier:1.5
SliderTickRate:1

[Events]
//Background and Video events
0,0,"og_image.jpg",0,0
//Break Periods
//Storyboard Layer 0 (Background)
//Storyboard Layer 1 (Fail)
//Storyboard Layer 2 (Pass)
//Storyboard Layer 3 (Foreground)
//Storyboard Sound Samples

[TimingPoints]
168,333.333333333333,4,2,0,70,1,0
10834,-133.333333333333,4,2,0,70,0,0
17334,-200,4,2,0,70,0,0
18834,-83.3333333333333,4,2,0,70,0,1
29501,-100,4,2,0,70,0,0
56167,-133.333333333333,4,2,0,70,0,0
59834,-100,4,2,0,70,0,0
61501,-83.3333333333333,4,2,0,70,0,1
70834,-200,4,2,0,70,0,1
72167,-83.3333333333333,4,2,0,70,0,1
74834,-200,4,2,0,70,0,1
76167,-83.3333333333333,4,2,0,70,0,1
82834,-100,4,2,0,70,0,0

[Colours]
Combo1 : 131,0,181
Combo2 : 69,140,248
Combo3 : 255,255,255
Combo4 : 251,0,0

[HitObjects]
76,168,168,5,0,0:0:0:0:
136,60,334,1,0,0:0:0:0:
192,164,501,1,0,0:0:0:0:
264,84,667,2,0,P|308:96|352:192,1,150
360,224,1167,1,0,0:0:0:0:
272,188,1501,5,0,0:0:0:0:
212,300,1667,1,0,0:0:0:0:
144,192,1834,1,0,0:0:0:0:
24,120,2001,2,0,P|24:72|116:28,1,150
172,88,2501,2,0,L|228:96,4,37.5
292,32,3001,5,0,0:0:0:0:
320,120,3167,2,0,P|344:152|388:160,1,75
208,296,3667,2,0,P|168:344|128:352,1,75
52,220,4167,5,0,0:0:0:0:
100,88,4334,1,0,0:0:0:0:
160,220,4501,1,0,0:0:0:0:
16,140,4667,1,0,0:0:0:0:
368,108,5001,2,0,P|388:56|344:96,1,150
424,220,5501,5,0,0:0:0:0:
376,328,5667,1,0,0:0:0:0:
316,224,5834,1,0,0:0:0:0:
248,108,6001,1,0,0:0:0:0:
60,260,6334,1,0,0:0:0:0:
60,260,6501,2,0,P|40:212|60:176,1,75
120,76,6834,5,0,0:0:0:0:
188,216,7001,1,0,0:0:0:0:
248,80,7167,1,0,0:0:0:0:
312,208,7334,1,0,0:0:0:0:
328,236,7667,5,0,0:0:0:0:
408,344,7834,1,0,0:0:0:0:
480,184,8001,1,0,0:0:0:0:
392,60,8167,6,0,P|352:44|320:56,1,75
232,84,8501,2,0,P|196:96|160:72,1,75
80,296,9001,2,0,L|-4:300,1,75
160,160,9501,6,0,L|244:164,2,75
60,92,10001,1,0,0:0:0:0:
176,48,10167,2,0,L|256:48,1,75
416,120,10501,5,0,0:0:0:0:
224,320,10834,2,0,P|192:344|160:344,1,56.2500021457673
164,252,11167,2,0,P|200:228|220:232,1,56.2500021457673
308,168,11501,1,0,0:0:0:0:
168,40,11834,2,0,P|136:36|96:48,1,56.2500021457673
108,120,12167,2,0,P|148:128|180:112,1,56.2500021457673
161,123,12501,1,0,0:0:0:0:
340,40,12834,6,0,L|304:40,4,28.1250010728836
416,116,13334,1,0,0:0:0:0:
436,136,13501,2,0,P|456:200|456:272,1,112.500004291535
360,272,14001,2,0,B|340:256|304:308|304:308|240:292,1,112.500004291535
236,296,14501,1,0,0:0:0:0:
88,288,14834,2,0,B|156:244|48:184|168:144,1,168.750006437302
212,48,15501,5,0,0:0:0:0:
300,100,15667,2,0,P|336:108|364:96,1,56.2500021457673
456,200,16167,6,0,L|400:212,1,56.2500021457673
352,280,16501,2,0,L|292:296,1,56.2500021457673
216,236,16834,2,0,L|152:248,1,56.2500021457673
80,328,17167,1,0,0:0:0:0:
16,224,17501,2,0,P|8:176|24:140,1,75
164,60,18167,2,0,P|188:92|188:132,1,75
444,48,18834,5,0,0:0:0:0:
444,48,19001,1,0,0:0:0:0:
320,128,19167,2,0,P|276:140|252:180,1,89.9999972534181
380,264,19501,1,0,0:0:0:0:
380,264,19667,1,0,0:0:0:0:
256,320,19834,6,0,P|208:328|164:296,1,89.9999972534181
108,192,20167,1,0,0:0:0:0:
108,192,20334,2,0,P|64:160|112:60,1,179.999994506836
220,148,21001,5,0,0:0:0:0:
272,36,21167,1,0,0:0:0:0:
372,116,21334,1,0,0:0:0:0:
472,208,21501,5,0,0:0:0:0:
416,324,21667,2,0,P|376:328|336:300,1,89.9999972534181
240,232,22001,1,0,0:0:0:0:
92,280,22167,6,0,L|76:340,2,44.999998626709
56,184,22501,2,0,L|76:88,1,89.9999972534181
204,160,22834,1,0,0:0:0:0:
280,64,23001,1,0,0:0:0:0:
308,68,23334,2,0,B|408:104|324:184|440:204,1,179.999994506836
380,316,23834,5,0,0:0:0:0:
380,316,24001,1,0,0:0:0:0:
256,216,24167,2,0,P|208:160|184:168,1,89.9999972534181
104,236,24501,2,0,P|64:200|72:160,1,89.9999972534181
128,52,24834,1,0,0:0:0:0:
280,28,25001,6,0,P|348:12|376:40,1,89.9999972534181
392,136,25334,2,0,P|440:152|464:120,1,89.9999972534181
492,260,25667,1,0,0:0:0:0:
464,264,26001,2,0,B|400:260|416:320|416:320|320:288,1,179.999994506836
256,184,26501,5,0,0:0:0:0:
120,280,26667,1,0,0:0:0:0:
68,144,26834,2,0,P|40:112|88:144,1,179.999994506836
328,100,27334,2,0,P|376:116|328:64,1,179.999994506836
448,188,27834,6,0,L|508:168,4,44.999998626709
376,284,28334,1,0,0:0:0:0:
164,232,28834,2,0,L|64:228,1,89.9999972534181
192,52,29501,6,0,P|256:56|272:72,1,75
296,172,29834,1,0,0:0:0:0:
296,172,30001,1,0,0:0:0:0:
456,160,30167,2,0,P|456:116|408:100,1,75
360,236,30501,2,0,P|344:284|360:316,1,75
208,300,30834,6,0,B|168:284|136:316|136:316|72:300|56:284,1,150
56,116,31334,1,0,0:0:0:0:
56,116,31501,2,0,P|104:136|140:120,1,75
276,48,31834,6,0,P|324:40|352:76,1,75
342,54,32167,1,0,0:0:0:0:
264,164,32334,1,0,0:0:0:0:
264,164,32501,1,0,0:0:0:0:
432,152,32667,2,0,P|452:188|436:224,1,75
324,240,33001,2,0,P|320:296|336:312,1,75
168,292,33334,6,0,L|104:316,4,37.5
120,192,33834,1,0,0:0:0:0:
276,148,34001,1,0,0:0:0:0:
208,48,34167,2,0,L|104:80,1,75
120,192,34501,1,0,0:0:0:0:
296,312,34834,6,0,B|348:300|376:292|392:280,1,75
344,200,35167,2,0,L|264:224,1,75
256,140,35501,2,0,L|340:112,1,75
488,52,35834,1,0,0:0:0:0:
488,52,36001,1,0,0:0:0:0:
488,52,36167,2,0,P|496:88|480:132,1,75
416,224,36501,2,0,P|412:272|432:304,1,75
296,232,36834,5,0,0:0:0:0:
168,308,37001,1,0,0:0:0:0:
56,224,37167,1,0,0:0:0:0:
56,224,37334,2,0,P|92:204|104:168,1,75
164,76,37667,5,0,0:0:0:0:
308,24,37834,1,0,0:0:0:0:
392,128,38001,1,0,0:0:0:0:
392,128,38167,2,0,P|360:180|380:212,1,75
464,244,38501,2,0,P|452:308|432:320,1,75
408,316,39001,5,0,0:0:0:0:
300,368,39167,1,0,0:0:0:0:
196,304,39334,1,0,0:0:0:0:
296,212,39501,2,0,B|376:212|240:160|308:72|352:124,1,150
156,44,40167,6,0,P|108:72|96:100,1,75
212,124,40501,2,0,P|184:160|144:164,1,75
48,244,40834,1,0,0:0:0:0:
164,304,41001,1,0,0:0:0:0:
336,312,41167,2,0,P|312:256|336:224,1,75
432,168,41501,6,0,B|456:140|456:140|412:112,1,75
316,72,41834,1,0,0:0:0:0:
208,72,42001,2,0,P|156:104|116:88,1,75
184,204,42334,1,0,0:0:0:0:
100,280,42501,1,0,0:0:0:0:
252,316,42667,5,0,0:0:0:0:
252,316,42834,2,0,L|168:288,1,75
312,228,43167,1,0,0:0:0:0:
312,228,43334,2,0,P|320:176|308:140,1,75
176,136,43667,5,0,0:0:0:0:
64,68,43834,1,0,0:0:0:0:
244,24,44001,1,0,0:0:0:0:
244,24,44167,2,0,P|304:16|328:28,1,75
388,120,44501,1,0,0:0:0:0:
508,152,44667,1,0,0:0:0:0:
256,192,44834,12,0,46834,0:0:0:0:
100,208,48167,6,0,P|120:168|168:164,1,75
184,236,48501,2,0,P|228:264|272:240,1,75
428,280,49167,1,0,0:0:0:0:
336,64,49667,2,0,L|384:76,2,37.5
232,88,50167,2,0,P|176:124|84:92,1,150
288,192,50834,5,0,0:0:0:0:
288,192,51001,2,0,P|264:248|228:264,1,75
120,256,51334,1,0,0:0:0:0:
120,256,51501,2,0,P|68:236|56:200,1,75
108,80,51834,1,0,0:0:0:0:
236,108,52001,1,0,0:0:0:0:
364,136,52167,1,0,0:0:0:0:
420,292,52334,6,0,P|472:264|480:232,2,75
320,228,52834,1,0,0:0:0:0:
252,320,53001,1,0,0:0:0:0:
216,232,53167,2,0,P|152:228|124:240,1,75
136,108,53501,2,0,L|136:0,1,75
280,124,53834,5,0,0:0:0:0:
396,56,54001,1,0,0:0:0:0:
456,172,54167,1,0,0:0:0:0:
396,316,54334,2,0,P|336:320|300:324,1,75
272,216,54667,5,0,0:0:0:0:
160,316,54834,1,0,0:0:0:0:
156,176,55001,2,0,P|184:128|172:104,1,75
96,80,55334,2,0,P|56:128|60:156,1,75
0,240,55667,1,0,0:0:0:0:
104,276,55834,1,0,0:0:0:0:
244,320,56167,6,0,L|368:304,1,112.500004291535
384,196,56667,2,0,L|204:156,1,168.750006437302
291,37,57501,2,0,L|264:32,2,28.1250010728836
344,56,57834,2,0,L|388:76,4,28.1250010728836
456,188,58501,1,0,0:0:0:0:
248,124,58834,6,0,P|204:112|124:128,1,112.500004291535
120,220,59334,2,0,P|64:244|0:232,1,112.500004291535
14,238,59834,1,0,0:0:0:0:
248,224,60167,1,0,0:0:0:0:
352,296,60334,1,0,0:0:0:0:
440,192,60501,1,0,0:0:0:0:
340,124,60667,1,0,0:0:0:0:
144,304,61167,5,0,0:0:0:0:
56,212,61501,2,0,P|20:204|-24:240,1,89.9999972534181
72,128,61834,2,0,P|124:116|168:144,1,89.9999972534181
256,64,62167,2,0,L|356:56,2,89.9999972534181
300,164,62667,1,0,0:0:0:0:
208,244,62834,1,0,0:0:0:0:
292,312,63001,2,0,P|376:316|432:236,1,179.999994506836
448,208,63501,5,0,0:0:0:0:
471,170,63584,1,0,0:0:0:0:
474,126,63667,1,0,0:0:0:0:
453,86,63751,1,0,0:0:0:0:
416,62,63834,1,0,0:0:0:0:
388,48,63917,1,0,0:0:0:0:
352,40,64001,1,0,0:0:0:0:
332,72,64167,6,0,P|316:128|268:160,1,89.9999972534181
136,72,64501,2,0,L|20:76,2,89.9999972534181
204,160,65001,1,0,0:0:0:0:
104,228,65167,1,0,0:0:0:0:
216,304,65334,2,0,L|328:308,2,89.9999972534181
276,220,65834,2,0,P|324:200|336:136,1,89.9999972534181
260,48,66501,5,0,0:0:0:0:
156,64,66834,2,0,P|104:72|64:104,1,89.9999972534181
152,168,67167,2,0,P|216:172|248:196,1,89.9999972534181
132,280,67501,2,0,P|52:304|28:320,1,89.9999972534181
260,324,67834,2,0,P|332:336|364:312,1,89.9999972534181
428,224,68167,1,0,0:0:0:0:
304,156,68334,1,0,0:0:0:0:
440,116,68501,2,0,P|464:56|360:40,1,179.999994506836
284,80,69001,5,0,0:0:0:0:
108,32,69167,2,0,L|40:108,1,89.9999972534181
76,220,69501,2,0,L|162:244,1,89.9999972534181
320,284,69834,2,0,L|268:357,2,89.9999972534181
384,184,70334,2,0,P|424:144|404:92,1,89.9999972534181
148,64,70834,6,0,P|108:72|72:104,1,75
128,228,71501,2,0,P|168:219|204:188,1,75
312,304,72167,5,0,0:0:0:0:
364,144,72334,1,0,0:0:0:0:
436,296,72501,1,0,0:0:0:0:
272,204,72667,1,0,0:0:0:0:
460,200,72834,1,0,0:0:0:0:
200,56,73167,5,0,0:0:0:0:
196,56,73334,2,0,P|140:60|96:80,1,89.9999972534181
88,184,73667,1,0,0:0:0:0:
88,184,73834,2,0,P|144:180|180:164,1,89.9999972534181
276,228,74167,2,0,P|284:268|264:312,1,89.9999972534181
432,328,74501,1,0,0:0:0:0:
412,96,74834,6,0,L|328:80,1,75
216,72,75334,2,0,L|88:96,1,112.5
44,164,76334,1,0,0:0:0:0:
56,200,76417,1,0,0:0:0:0:
81,235,76501,1,0,0:0:0:0:
113,266,76584,1,0,0:0:0:0:
150,291,76667,1,0,0:0:0:0:
190,309,76751,1,0,0:0:0:0:
232,320,76834,1,0,0:0:0:0:
276,324,76917,1,0,0:0:0:0:
320,320,77001,1,0,0:0:0:0:
363,309,77084,1,0,0:0:0:0:
403,290,77167,1,0,0:0:0:0:
360,92,77501,6,0,P|328:132|288:132,1,89.9999972534181
232,44,77834,2,0,P|172:56|152:96,1,89.9999972534181
208,196,78167,1,0,0:0:0:0:
68,240,78334,2,0,P|112:312|148:316,1,89.9999972534181
236,304,78667,2,0,P|320:280|344:296,1,89.9999972534181
456,228,79001,1,0,0:0:0:0:
376,120,79167,1,0,0:0:0:0:
292,64,79334,2,0,P|244:36|200:84,1,89.9999972534181
468,140,80167,5,0,0:0:0:0:
384,220,80501,1,0,0:0:0:0:
384,220,80667,2,0,P|340:280|288:280,1,89.9999972534181
308,124,81001,1,0,0:0:0:0:
292,88,81167,2,0,P|260:52|212:36,1,89.9999972534181
192,168,81501,5,0,0:0:0:0:
108,320,81667,1,0,0:0:0:0:
56,156,81834,1,0,0:0:0:0:
216,276,82001,1,0,0:0:0:0:
4,252,82167,1,0,0:0:0:0:
4,60,82501,2,0,P|64:44|112:32,1,89.9999972534181
256,192,82834,12,0,83834,0:0:0:0:
344,80,84167,6,0,P|376:80|416:112,1,75
336,200,84501,2,0,P|304:201|262:171,1,75
216,56,84834,2,0,P|144:72|120:96,1,75
164,184,85167,1,0,0:0:0:0:
64,272,85334,1,0,0:0:0:0:
208,312,85501,1,0,0:0:0:0:
244,312,85667,2,0,P|336:296|340:248,1,150
336,32,86334,5,0,0:0:0:0:
424,144,86501,1,0,0:0:0:0:
268,160,86667,1,0,0:0:0:0:
168,44,86834,6,0,B|132:36|132:36|84:76,1,75
88,168,87167,2,0,B|124:176|124:176|172:136,1,75
240,232,87501,2,0,P|236:284|280:292,1,75
364,236,87834,2,0,P|380:200|352:156,1,75
252,56,88167,2,0,P|308:44|344:56,1,75
136,180,88667,2,0,P|56:232|40:308,1,150
176,312,89167,5,0,0:0:0:0:
228,168,89334,1,0,0:0:0:0:
328,312,89501,2,0,P|360:292|388:256,1,75
352,152,89834,2,0,P|396:124|432:120,1,75
324,32,90167,2,0,P|272:32|228:60,1,75
144,96,90501,2,0,P|88:116|60:108,1,75
96,208,90834,1,0,0:0:0:0:
48,304,91251,2,0,P|120:344|168:320,1,112.5
272,324,91751,5,0,0:0:0:0:
348,248,91917,1,0,0:0:0:0:
268,188,92084,1,0,0:0:0:0:
451,225,92252,2,0,L|464:152,1,75
376,112,92585,2,0,L|280:84,1,75
192,88,92918,2,0,L|96:104,1,75
144,208,93251,1,0,0:0:0:0:
40,200,93417,1,0,0:0:0:0:
28,236,93584,5,0,0:0:0:0:
96,304,93917,2,0,B|192:320|208:256|240:312,1,150
368,216,94501,1,0,0:0:0:0:
272,124,94667,1,0,0:0:0:0:
408,56,94834,2,0,L|456:64,3,37.5
272,124,95334,2,0,L|212:144,3,37.5
256,192,95834,12,0,97501,0:0:0:0:
