osu file format v14

[General]
AudioFilename: audio.mp3
AudioLeadIn: 0
PreviewTime: 50223
Countdown: 0
SampleSet: Soft
StackLeniency: 0
Mode: 0
LetterboxInBreaks: 0
WidescreenStoryboard: 0

[Editor]
Bookmarks: 436,5859,12639,23486,28569,39416,50266,63825,73316,84163,89246,100095,113654,117744,130625,141472,146896,156706,167554,183831,193999,195354
DistanceSpacing: 0.3
BeatDivisor: 4
GridSize: 32
TimelineZoom: 1.500001

[Metadata]
Title:Watashi dake Yuurei
TitleUnicode:ワタシダケユウレイ
Artist:SICK HACK
ArtistUnicode:SICK HACK
Creator:Amateurre
Version:drunk
Source:ぼっち・ざ・ろっく!
Tags:シクハック SICKHACK bocchi the rock anime japanese psychedelic jrock j-rock i'm only ghost 廣井 ひろい きくり hiroi kikuri 清み し水ず エライザ shimizu eliza eraiza 岩下 いわした 志麻 しま iwashita shima xidorn asagi shizuku- ayesha altugle kazato asa shikibe mayu hey lululu lu^3 nik nikolomara midorijeon
BeatmapID:4116631
BeatmapSetID:1982264

[Difficulty]
HPDrainRate:5
CircleSize:4
OverallDifficulty:8
ApproachRate:6
SliderMultiplier:2
SliderTickRate:2

[Events]
//Background and Video events
0,0,"kikuribg.jpg",0,0
//Break Periods
//Storyboard Layer 0 (Background)
//Storyboard Layer 1 (Fail)
//Storyboard Layer 2 (Pass)
//Storyboard Layer 3 (Foreground)
//Storyboard Layer 4 (Overlay)
//Storyboard Sound Samples

[TimingPoints]
436,338.983050847458,4,2,1,50,1,0
4503,-40,4,2,1,50,0,0
4673,-40,4,2,1,75,0,0
4927,-44.4444444444445,4,2,1,75,0,0
5181,-50,4,2,1,75,0,0
5436,-66.6666666666667,4,2,1,75,0,0
10774,-100,4,2,1,75,0,0
12639,338.983050847458,4,2,1,60,1,0
23486,338.983050847458,7,2,1,75,1,0
25858,338.983050847458,4,2,1,75,1,0
28569,338.983050847458,4,2,1,70,1,0
39077,-250,4,2,1,70,0,0
39416,-125,4,2,1,65,0,0
42128,-125,4,2,1,75,0,0
42806,-100,4,2,1,75,0,0
43484,-66.6666666666667,4,2,1,75,0,0
44840,-125,4,2,1,65,0,0
47554,338.983050847458,4,2,1,75,1,0
48740,348.837209302326,4,2,1,70,1,8
48914,348.837209302326,4,2,1,70,1,0
49088,320.855614973262,4,2,1,70,1,8
49328,-120.481927710843,4,2,1,70,0,0
49569,461.538461538462,4,2,1,70,1,8
49569,-75.187969924812,4,2,1,70,0,0
49799,535.714285714286,4,2,1,70,1,8
49799,-90.0900900900901,4,2,1,70,0,0
50066,400,4,2,1,70,1,8
50266,338.983050847458,4,2,1,80,1,0
50266,-66.6666666666667,4,2,1,80,0,0
61113,-100,4,2,1,80,0,0
61791,-166.666666666667,4,2,1,80,0,0
63825,338.983050847458,7,2,1,75,1,0
72130,-133.333333333333,7,2,1,75,0,0
73316,338.983050847458,4,2,1,65,1,0
84163,338.983050847458,7,2,1,75,1,0
86535,338.983050847458,4,2,1,75,1,0
89246,-166.666666666667,4,2,1,65,0,0
91960,338.983050847458,4,2,1,75,1,0
91960,-125,4,2,1,75,0,0
92637,-100,4,2,1,75,0,0
93315,-66.6666666666667,4,2,1,75,0,0
94671,-125,4,2,1,65,0,0
97383,-125,4,2,1,75,0,0
98570,-166.666666666667,4,2,1,75,0,0
100095,-66.6666666666667,4,2,1,80,0,0
111621,-100,4,2,1,80,0,0
112298,-133.333333333333,4,2,1,80,0,0
113654,340.909090909091,6,2,1,60,1,0
113654,-200,6,2,1,60,0,0
117574,-100,6,2,1,75,0,0
117744,338.983050847458,6,2,1,75,1,0
117744,-40,6,2,1,75,0,1
121811,-33.3333333333333,6,2,1,75,0,1
125879,-28.5714285714286,6,2,1,75,0,1
129947,338.983050847458,4,2,1,75,1,1
130625,338.983050847458,4,2,1,60,1,0
141472,-125,4,2,1,65,0,0
146896,335.195530726257,4,2,1,75,1,0
148236,335.195530726257,5,2,1,75,1,0
149912,340.909090909091,4,2,1,75,1,0
152639,338.983050847458,6,2,1,75,1,0
156706,338.983050847458,4,2,1,80,1,0
156706,-55.5555555555556,4,2,1,80,0,0
167554,340.425531914894,4,2,1,80,1,0
167554,-66.6666666666667,4,2,1,80,0,0
173000,337.078651685394,4,2,1,80,1,0
173000,-66.6666666666667,4,2,1,80,0,0
178393,342.857142857143,4,2,1,80,1,0
178393,-66.6666666666667,4,2,1,80,0,0
179078,-100,4,2,1,80,0,0
179764,-200,4,2,1,80,0,0
181135,337.078651685393,4,2,1,80,1,0
183831,338.983050847458,7,2,1,75,1,0
192136,-125,7,2,1,75,0,0
192305,338.983050847458,5,2,1,75,1,0
193999,338.983050847458,4,2,1,80,1,0
193999,-125,4,2,1,80,0,0
194083,-125,4,2,1,65,0,0
194168,-125,4,2,1,59,0,0
194253,-125,4,2,1,54,0,0
194337,-125,4,2,1,48,0,0
194422,-125,4,2,1,43,0,0
194507,-125,4,2,1,38,0,0
194592,-125,4,2,1,32,0,0
194676,-125,4,2,1,27,0,0
194761,-125,4,2,1,21,0,0
194846,-125,4,2,1,16,0,0
194931,-125,4,2,1,10,0,0
195015,-125,4,2,1,5,0,0

[Colours]
Combo1 : 88,46,175
Combo2 : 251,100,156
Combo3 : 9,196,176
Combo4 : 241,48,97

[HitObjects]
228,226,436,5,2,2:2:0:0:
228,226,605,1,2,2:2:0:0:
252,232,774,1,2,2:2:0:0:
228,226,943,1,0,0:0:0:0:
252,232,1113,5,2,2:2:0:0:
228,226,1283,1,2,2:2:0:0:
228,226,1368,1,2,2:2:0:0:
252,232,1537,1,2,2:2:0:0:
252,232,1622,1,2,2:2:0:0:
241,312,1791,5,2,2:2:0:0:
241,312,1960,1,2,2:2:0:0:
321,287,2129,1,2,2:2:0:0:
241,312,2300,1,0,0:0:0:0:
321,287,2468,5,2,2:2:0:0:
241,312,2638,1,2,2:2:0:0:
241,312,2723,1,2,2:2:0:0:
321,287,2892,1,2,2:2:0:0:
321,287,2977,1,2,2:2:0:0:
298,374,3147,5,2,2:2:0:0:
298,374,3316,1,2,2:2:0:0:
163,350,3485,1,2,2:2:0:0:
298,374,3656,1,0,0:0:0:0:
163,350,3824,5,2,2:2:0:0:
298,374,3994,1,2,2:2:0:0:
298,374,4079,1,2,2:2:0:0:
163,350,4248,1,2,2:2:0:0:
163,350,4333,1,2,2:2:0:0:
163,350,4673,6,0,L|426:310,1,250,10|0,2:2|0:0,0:0:0:0:
410,312,4927,6,0,L|183:203,1,225.000008583069,2|0,1:2|0:0,0:0:0:0:
206,215,5181,6,0,L|437:83,1,200,10|0,2:2|0:0,0:0:0:0:
379,116,5436,6,0,L|277:5,1,150.000005722046,2|0,1:2|0:0,0:0:0:0:
277,5,5690,6,0,L|263:90,1,75.0000028610231,10|0,2:2|0:0,0:0:0:0:
340,268,5859,5,6,1:1:0:0:
490,226,6029,1,2,1:2:0:0:
379,116,6198,1,10,2:2:0:0:
340,268,6368,1,2,1:2:0:0:
379,116,6537,1,8,2:2:0:0:
490,226,6707,5,2,1:2:0:0:
340,268,6877,1,0,0:0:0:0:
379,116,7046,1,10,2:2:0:0:
229,158,7214,5,2,1:2:0:0:
117,49,7384,1,2,1:2:0:0:
267,7,7553,1,10,2:2:0:0:
229,158,7723,1,2,1:2:0:0:
267,7,7892,1,8,2:2:0:0:
117,49,8063,5,2,1:2:0:0:
229,158,8232,1,0,0:0:0:0:
267,7,8401,1,10,2:2:0:0:
79,200,8571,5,2,1:2:0:0:
191,309,8741,1,2,1:2:0:0:
41,351,8910,1,10,2:2:0:0:
79,200,9080,1,2,1:2:0:0:
41,351,9249,1,8,2:2:0:0:
191,309,9418,5,2,1:2:0:0:
79,200,9589,1,0,0:0:0:0:
41,351,9758,1,10,2:2:0:0:
229,158,9927,5,2,1:2:0:0:
340,268,10097,1,10,2:2:0:0:
191,309,10266,1,2,1:2:0:0:
229,158,10436,1,10,2:2:0:0:
340,268,10606,1,0,1:1:0:0:
191,309,10774,5,10,2:2:0:0:
211,285,10858,1,8,2:2:0:0:
231,261,10943,1,8,2:2:0:0:
252,237,11028,1,8,2:2:0:0:
281,246,11112,1,10,2:2:0:0:
310,257,11197,1,8,2:2:0:0:
340,267,11282,1,0,0:0:0:0:
0,66,12639,5,2,1:2:0:0:
0,66,12808,1,0,1:1:0:0:
103,25,12977,1,8,2:2:0:0:
103,25,13146,1,0,1:1:0:0:
149,122,13316,2,0,P|136:170|127:219,1,100,10|0,2:2|1:1,0:0:0:0:
225,189,13655,1,2,2:2:0:0:
300,259,13825,1,8,2:2:0:0:
321,161,13994,6,0,P|311:210|299:258,1,100,2|2,1:2|1:2,0:0:0:0:
127,219,14333,2,0,P|136:170|149:122,1,100,10|2,2:2|1:2,0:0:0:0:
249,90,14672,1,8,2:2:0:0:
249,90,14842,1,0,1:1:0:0:
321,161,15011,1,0,0:0:0:0:
321,161,15181,1,8,2:2:0:0:
413,121,15350,6,0,P|462:113|511:101,1,100,2|0,1:2|1:1,0:0:0:0:
436,30,15689,1,10,2:2:0:0:
436,30,15859,1,2,1:2:0:0:
473,203,16028,1,8,2:2:0:0:
473,203,16198,1,0,1:1:0:0:
317,140,16367,5,2,2:2:0:0:
413,121,16537,1,10,2:2:0:0:
473,203,16706,2,0,P|461:251|453:301,1,100,2|0,1:2|1:1,0:0:0:0:
317,140,17045,2,0,P|305:91|297:41,1,100,10|2,2:2|1:2,0:0:0:0:
393,15,17384,5,8,2:2:0:0:
393,15,17554,1,0,1:1:0:0:
413,121,17723,1,0,0:0:0:0:
227,163,17893,1,8,2:2:0:0:
413,121,18062,6,0,P|462:113|511:101,1,100,2|0,1:2|1:1,0:0:0:0:
227,163,18401,2,0,P|178:151|128:143,1,100,10|0,2:2|1:1,0:0:0:0:
511,101,18740,2,0,P|462:113|413:120,1,100,10|0,2:2|1:1,0:0:0:0:
128,143,19079,2,0,P|177:150|226:162,1,100,2|8,2:2|2:2,0:0:0:0:
332,205,19418,5,2,1:2:0:0:
332,205,19588,1,0,1:1:0:0:
311,116,19757,1,8,2:2:0:0:
311,116,19927,1,0,1:1:0:0:
265,267,20096,5,10,2:2:0:0:
419,231,20266,1,2,1:2:0:0:
311,116,20435,1,2,2:2:0:0:
265,267,20605,1,10,2:2:0:0:
176,236,20774,5,2,1:2:0:0:
115,308,20944,2,0,P|56:328|-2:343,1,100,2|8,1:2|2:2,0:0:0:0:
146,140,21283,2,0,P|166:199|181:257,1,100,2|8,1:2|2:2,0:0:0:0:
115,308,21622,1,2,1:2:0:0:
115,308,21791,1,0,0:0:0:0:
264,266,21961,6,0,P|311:282|360:296,1,100,10|0,2:2|1:1,0:0:0:0:
175,235,22300,1,0,1:1:0:0:
360,296,22469,2,0,P|408:309|455:325,1,100,8|0,2:2|1:1,0:0:0:0:
512,200,22808,6,0,P|464:216|416:229,1,100,8|0,2:2|1:1,0:0:0:0:
290,355,23147,2,0,P|241:368|194:384,1,100,0|8,0:0|2:2,0:0:0:0:
13,192,23486,5,6,1:2:0:0:
138,229,23655,1,2,1:2:0:0:
176,103,23824,1,10,2:2:0:0:
13,192,23994,1,2,1:2:0:0:
13,192,24079,1,0,0:0:0:0:
13,192,24163,1,8,2:2:0:0:
138,229,24333,1,2,1:2:0:0:
264,266,24503,1,0,0:0:0:0:
101,355,24672,1,10,2:2:0:0:
138,229,24842,5,2,1:2:0:0:
264,266,25011,1,2,1:2:0:0:
264,266,25096,1,0,0:0:0:0:
264,266,25180,1,10,2:2:0:0:
301,140,25350,1,2,1:2:0:0:
301,140,25435,1,0,0:0:0:0:
301,140,25519,1,10,2:2:0:0:
427,177,25689,1,0,1:1:0:0:
464,51,25858,5,6,1:2:0:0:
301,140,26027,1,2,1:2:0:0:
427,177,26196,1,10,2:2:0:0:
338,14,26366,1,2,1:2:0:0:
338,14,26451,1,0,0:0:0:0:
338,14,26535,1,8,2:2:0:0:
301,140,26705,1,2,1:2:0:0:
464,51,26874,1,0,0:0:0:0:
427,177,27043,1,10,2:2:0:0:
301,140,27213,5,2,1:2:0:0:
264,266,27383,1,2,1:2:0:0:
264,266,27468,1,0,0:0:0:0:
264,266,27552,1,10,2:2:0:0:
138,229,27722,1,2,1:2:0:0:
101,355,27891,1,10,2:2:0:0:
264,266,28061,1,2,1:2:0:0:
176,103,28230,5,10,2:2:0:0:
166,134,28314,1,8,2:2:0:0:
157,166,28399,1,10,2:2:0:0:
146,200,28484,1,8,2:2:0:0:
138,229,28568,1,6,1:1:0:0:
75,131,28738,1,2,1:2:0:0:
234,200,28907,1,10,2:2:0:0:
77,316,29077,2,0,P|62:270|50:219,1,100,2|8,1:2|2:2,0:0:0:0:
207,103,29416,2,0,P|222:149|233:199,1,100,2|0,1:2|0:0,0:0:0:0:
367,341,29755,6,0,P|438:364|511:381,1,150,10|0,2:2|0:0,0:0:0:0:
511,381,30094,1,2,1:2:0:0:
452,318,30263,1,10,2:2:0:0:
452,318,30348,1,2,2:2:0:0:
367,341,30518,1,2,2:2:0:0:
367,341,30602,1,10,2:2:0:0:
299,287,30772,1,2,1:2:0:0:
214,310,30941,1,2,2:2:0:0:
146,256,31111,1,8,2:2:0:0:
61,279,31280,5,2,1:2:0:0:
231,228,31450,1,2,1:2:0:0:
91,94,31619,1,10,2:2:0:0:
161,171,31789,2,0,P|176:125|187:74,1,100,2|8,1:2|2:2,0:0:0:0:
299,287,32128,2,0,P|284:333|272:383,1,100,2|0,1:2|0:0,0:0:0:0:
161,171,32467,6,0,P|89:194|16:211,1,150,10|0,2:2|0:0,0:0:0:0:
17,211,32806,1,2,1:2:0:0:
76,148,32975,1,10,2:2:0:0:
76,148,33060,1,2,2:2:0:0:
161,171,33230,1,2,2:2:0:0:
161,171,33314,1,10,2:2:0:0:
382,86,33484,1,2,1:2:0:0:
229,117,33653,1,2,2:2:0:0:
314,140,33823,1,8,2:2:0:0:
296,57,33992,5,2,1:2:0:0:
296,57,34162,1,2,1:2:0:0:
250,200,34331,1,10,2:2:0:0:
250,200,34501,1,2,1:2:0:0:
393,243,34670,2,0,P|464:229|495:221,1,100,8|2,2:2|1:2,0:0:0:0:
393,243,35009,1,0,0:0:0:0:
484,313,35179,6,0,P|386:289|288:271,1,200,10|2,2:2|1:2,0:0:0:0:
197,303,35687,1,10,2:2:0:0:
197,303,35772,1,2,2:2:0:0:
38,262,35941,1,2,2:2:0:0:
38,262,36026,1,10,2:2:0:0:
128,234,36196,1,2,1:2:0:0:
107,332,36365,1,2,2:2:0:0:
128,234,36535,1,8,2:2:0:0:
267,368,36704,6,0,P|280:304|291:261,1,100,2|2,1:2|1:2,0:0:0:0:
181,378,37043,1,10,2:2:0:0:
106,331,37213,2,0,P|118:283|128:233,1,100,8|2,2:2|1:2,0:0:0:0:
288,270,37552,2,0,P|276:318|267:368,1,100,2|10,1:2|2:2,0:0:0:0:
30,275,37891,6,0,P|18:226|8:177,1,100,8|2,2:2|1:2,0:0:0:0:
288,270,38230,1,10,2:2:0:0:
332,101,38399,2,0,P|343:149|353:198,1,100,10|0,2:2|1:1,0:0:0:0:
98,157,38738,2,0,P|107:107|119:59,1,100,10|2,2:2|1:2,0:0:0:0:
437,245,39077,6,0,P|431:274|424:303,1,60,6|0,2:3|0:0,0:0:0:0:
502,363,39416,6,0,P|428:343|348:402,1,160,6|2,1:1|2:2,0:0:0:0:
201,318,39924,1,0,1:1:0:0:
309,281,40094,2,0,P|260:315|201:318,1,120,2|0,2:2|0:0,0:0:0:0:
201,318,40433,2,0,P|196:278|174:245,1,80,10|0,2:2|0:0,0:0:0:0:
88,280,40772,2,0,P|51:264|11:266,1,80,2|0,2:2|1:1,0:0:0:0:
151,376,41111,2,0,P|183:353|201:317,1,80,2|8,1:2|2:2,0:0:0:0:
32,192,41450,2,0,P|12:226|11:266,1,80,2|0,2:2|1:1,0:0:0:0:
37,342,41789,1,10,2:2:0:0:
466,263,42128,6,0,P|479:207|489:165,1,80,6|0,1:1|1:1,0:0:0:0:
466,263,42467,1,8,2:2:0:0:
504,111,42637,1,2,1:2:0:0:
332,20,42806,6,0,P|343:68|355:117,1,100,2|0,1:2|1:1,0:0:0:0:
332,20,43145,1,8,2:2:0:0:
380,204,43315,1,2,1:2:0:0:
190,384,43484,6,0,P|207:306|227:229,1,150.000005722046,2|0,1:2|1:1,0:0:0:0:
190,384,43823,1,8,2:2:0:0:
250,143,43993,1,2,1:2:0:0:
7,4,44162,5,2,1:2:0:0:
57,155,44331,1,8,2:2:0:0:
57,155,44416,1,8,2:2:0:0:
57,155,44501,1,10,2:2:0:0:
106,305,44670,1,8,2:2:0:0:
374,231,44840,6,0,P|414:243|451:248,1,80,6|0,1:2|0:0,0:0:0:0:
451,248,45179,2,0,P|412:242|374:231,1,80,0|0,0:0|1:1,0:0:0:0:
374,231,45518,2,0,P|412:242|451:248,1,80,2|0,2:2|1:1,0:0:0:0:
454,20,45857,6,0,P|442:58|436:97,1,80,8|0,2:2|0:0,0:0:0:0:
258,362,46196,6,0,P|251:322|240:284,1,80,2|0,2:2|1:1,0:0:0:0:
240,283,46535,2,0,P|246:322|257:360,1,80,0|8,1:1|2:2,0:0:0:0:
257,361,46874,2,0,P|251:322|240:284,1,80,2|0,2:2|1:1,0:0:0:0:
20,247,47213,6,0,P|8:177|37:129,1,120,8|0,2:2|0:0,0:0:0:0:
30,136,47552,5,6,1:2:0:0:
351,192,47723,1,2,1:2:0:0:
290,133,47892,5,10,2:2:0:0:
97,198,48062,1,0,1:1:0:0:
351,192,48231,5,2,1:2:0:0:
190,163,48401,1,2,1:2:0:0:
30,136,48570,1,10,2:2:0:0:
356,371,48740,6,0,P|420:324|498:332,1,150,6|0,1:1|0:0,0:0:0:0:
488,329,49088,6,0,P|510:285|511:232,1,100,8|0,2:2|0:0,0:0:0:0:
340,204,49328,6,0,P|326:243|326:285,1,83.2500020324707,0|0,1:1|0:0,0:0:0:0:
512,235,49569,6,0,P|510:285|488:329,1,99.7499958904268,8|0,2:2|0:0,0:0:0:0:
326,285,49799,6,0,P|327:235|342:203,1,83.2500020324707,0|0,1:1|0:0,0:0:0:0:
350,192,50066,5,8,2:2:0:0:
418,263,50266,6,0,P|286:208|254:87,1,262.500010013581,6|0,1:1|0:0,0:0:0:0:
252,103,50604,1,2,2:2:0:0:
512,49,50774,1,2,1:2:0:0:
512,49,50859,1,0,1:1:0:0:
512,49,50943,2,0,P|504:118|423:144,1,150.000005722046,12|2,2:2|1:2,0:0:0:0:
197,327,51282,6,0,P|311:239|431:272,1,262.500010013581,2|0,2:2|0:0,0:0:0:0:
418,262,51621,1,2,2:2:0:0:
185,193,51791,6,0,P|111:108|132:-7,1,225.000008583069,10|0,2:2|0:0,0:0:0:0:
198,49,52130,1,2,1:2:0:0:
198,49,52215,1,0,0:0:0:0:
198,49,52299,2,0,P|173:77|138:88,1,75.0000028610231,10|0,2:2|0:0,0:0:0:0:
0,165,52469,5,2,1:2:0:0:
125,3,52638,1,2,2:2:0:0:
185,193,52808,1,8,2:2:0:0:
467,14,52977,6,0,P|361:16|277:144,1,262.500010013581,6|0,1:2|0:0,0:0:0:0:
278,136,53316,1,2,2:2:0:0:
475,321,53486,1,2,1:2:0:0:
475,321,53571,1,0,1:1:0:0:
475,321,53655,2,0,P|499:253|456:194,1,150.000005722046,8|2,2:2|1:2,0:0:0:0:
100,19,53994,6,0,P|157:134|284:132,1,262.500010013581,2|0,2:2|0:0,0:0:0:0:
278,136,54333,1,2,2:2:0:0:
100,19,54503,6,0,P|16:88|22:196,1,225.000008583069,10|0,2:2|0:0,0:0:0:0:
15,281,54842,1,2,1:2:0:0:
15,281,54927,1,0,0:0:0:0:
15,281,55011,2,0,P|58:278|87:256,1,75.0000028610231,10|0,2:2|0:0,0:0:0:0:
152,156,55181,1,2,1:2:0:0:
185,384,55350,1,2,2:2:0:0:
152,156,55520,1,8,2:2:0:0:
237,197,55689,5,4,1:2:0:0:
215,103,55859,2,0,P|198:159|174:247,1,150.000005722046,2|0,2:2|0:0,0:0:0:0:
0,144,56198,1,2,1:2:0:0:
0,144,56282,1,0,1:1:0:0:
0,144,56367,2,0,P|17:88|40:0,1,150.000005722046,10|0,2:2|1:1,0:0:0:0:
175,248,56706,5,2,2:2:0:0:
237,197,56876,2,0,P|130:222|19:253,1,225.000008583069,2|0,1:2|0:0,0:0:0:0:
19,253,57215,2,0,P|127:222|237:197,1,225.000008583069,10|0,2:2|0:0,0:0:0:0:
237,197,57554,1,2,1:2:0:0:
151,24,57723,6,0,P|143:57|131:96,1,75.0000028610231,10|0,2:2|0:0,0:0:0:0:
131,96,57893,2,0,P|164:104|203:115,1,75.0000028610231,2|0,1:2|0:0,0:0:0:0:
204,116,58062,2,0,P|212:82|223:43,1,75.0000028610231,2|0,2:2|0:0,0:0:0:0:
224,44,58232,2,0,P|190:36|151:24,1,75.0000028610231,10|0,2:2|0:0,0:0:0:0:
151,24,58401,5,4,1:2:0:0:
151,24,58571,1,0,0:0:0:0:
335,207,58740,2,0,P|408:190|482:180,1,150.000005722046,2|0,2:2|1:1,0:0:0:0:
482,180,58994,1,0,1:1:0:0:
482,180,59079,2,0,P|465:106|455:32,1,150.000005722046,10|0,2:2|1:1,0:0:0:0:
335,207,59418,2,0,P|351:280|361:354,1,150.000005722046,2|0,2:2|1:1,0:0:0:0:
455,32,59757,6,0,P|381:48|307:58,1,150.000005722046,2|8,2:2|2:2,0:0:0:0:
361,354,60096,2,0,P|434:337|508:327,1,150.000005722046,2|0,2:2|1:1,0:0:0:0:
240,308,60435,5,10,2:2:0:0:
508,326,60604,1,0,1:1:0:0:
391,90,60774,1,2,2:2:0:0:
240,308,60943,1,8,2:2:0:0:
284,372,61113,6,0,P|256:194|229:26,1,350,6|0,1:2|0:0,0:0:0:0:
272,100,61791,6,0,P|255:203|239:307,1,209.999993591309,6|0,1:1|0:0,0:0:0:0:
210,197,62469,6,0,P|257:203|298:211,1,89.9999972534181,6|0,1:2|0:0,0:0:0:0:
296,187,62808,6,0,P|254:205|212:219,1,89.9999972534181,6|0,1:1|0:0,0:0:0:0:
28,334,63147,5,10,2:2:0:0:
89,319,63260,1,8,2:2:0:0:
132,355,63373,1,8,2:3:0:0:
239,307,63486,5,10,2:3:0:0:
282,312,63599,1,4,2:3:0:0:
310,284,63712,1,4,2:3:0:0:
430,354,63825,5,6,1:2:0:0:
430,215,63994,1,2,1:2:0:0:
310,284,64163,1,10,2:2:0:0:
310,145,64333,1,0,1:1:0:0:
430,215,64502,1,10,2:2:0:0:
310,284,64672,1,2,1:2:0:0:
430,354,64841,1,0,0:0:0:0:
430,215,65011,1,10,2:2:0:0:
310,284,65180,5,2,1:2:0:0:
190,214,65349,1,2,1:2:0:0:
310,145,65518,1,10,2:2:0:0:
190,75,65688,1,2,1:2:0:0:
190,214,65857,1,10,2:2:0:0:
310,145,66027,1,0,1:1:0:0:
310,284,66197,5,6,1:2:0:0:
310,145,66367,1,2,1:2:0:0:
430,215,66536,1,10,2:2:0:0:
430,76,66706,1,0,1:1:0:0:
310,145,66875,1,10,2:2:0:0:
430,215,67045,1,2,1:2:0:0:
310,284,67214,1,0,0:0:0:0:
310,145,67384,1,10,2:2:0:0:
190,214,67553,5,2,1:2:0:0:
70,144,67722,1,2,1:2:0:0:
190,74,67891,1,10,2:2:0:0:
190,214,68062,5,2,1:2:0:0:
70,5,68231,1,10,2:2:0:0:
190,214,68401,1,0,1:1:0:0:
70,283,68570,5,6,1:2:0:0:
190,353,68739,1,2,1:2:0:0:
190,214,68908,1,10,2:2:0:0:
70,283,69078,1,0,1:1:0:0:
70,144,69247,1,10,2:2:0:0:
190,214,69417,1,2,1:2:0:0:
70,283,69587,1,0,0:0:0:0:
190,353,69757,1,10,2:2:0:0:
310,284,69926,5,2,1:2:0:0:
190,214,70096,1,2,1:2:0:0:
310,145,70265,1,10,2:2:0:0:
190,75,70435,1,2,1:2:0:0:
190,214,70604,1,10,2:2:0:0:
310,145,70774,1,0,1:1:0:0:
430,215,70943,5,2,1:2:0:0:
310,284,71113,1,2,1:2:0:0:
310,145,71282,1,10,2:2:0:0:
430,215,71452,1,0,1:1:0:0:
430,76,71621,1,10,2:2:0:0:
310,145,71791,1,2,1:2:0:0:
430,76,71960,1,0,1:1:0:0:
512,272,72130,6,0,P|265:235|10:202,1,506.250019311906,14|0,2:2|0:0,0:0:0:0:
10,202,73316,6,0,P|20:153|27:103,1,100,6|0,1:3|1:1,0:0:0:0:
110,59,73654,1,8,2:2:0:0:
27,103,73824,1,0,1:1:0:0:
193,108,73993,6,0,P|199:58|209:9,1,100,6|0,1:3|1:1,0:0:0:0:
27,103,74332,2,0,P|20:153|10:202,1,100,10|0,2:2|1:1,0:0:0:0:
0,355,74671,5,6,1:3:0:0:
157,311,74841,1,2,1:2:0:0:
157,311,74926,1,0,0:0:0:0:
157,311,75010,1,10,2:2:0:0:
16,281,75180,1,2,1:2:0:0:
142,384,75350,1,6,1:3:0:0:
79,332,75519,1,2,1:2:0:0:
0,355,75688,1,8,2:2:0:0:
157,311,75858,1,0,1:1:0:0:
229,359,76027,6,0,P|240:305|252:261,1,100,6|0,1:3|1:1,0:0:0:0:
16,281,76366,2,0,P|29:232|39:183,1,100,10|0,2:2|1:1,0:0:0:0:
252,261,76705,6,0,P|238:309|229:359,1,100,6|0,1:3|1:1,0:0:0:0:
16,281,77044,2,0,P|29:232|39:183,1,100,10|0,2:2|1:1,0:0:0:0:
108,241,77383,1,6,1:3:0:0:
191,201,77553,1,0,1:1:0:0:
39,183,77722,1,10,2:2:0:0:
39,183,77807,1,0,0:0:0:0:
108,241,77977,1,0,0:0:0:0:
108,241,78061,1,4,1:3:0:0:
191,201,78231,1,0,1:1:0:0:
252,261,78400,1,8,2:2:0:0:
326,224,78570,1,0,1:1:0:0:
384,284,78739,6,0,P|436:271|493:259,1,100,6|0,1:3|1:1,0:0:0:0:
452,130,79078,2,0,P|400:143|343:155,1,100,10|0,2:2|1:1,0:0:0:0:
354,152,79417,2,0,P|403:142|452:130,1,100,6|0,1:3|1:1,0:0:0:0:
481,261,79756,2,0,P|432:271|384:284,1,100,10|0,2:2|1:1,0:0:0:0:
165,156,80095,5,6,1:3:0:0:
69,133,80265,1,0,1:1:0:0:
69,133,80349,1,0,0:0:0:0:
68,132,80434,2,0,P|117:142|166:156,1,100,8|0,2:2|1:1,0:0:0:0:
245,95,80773,1,6,1:3:0:0:
86,226,80943,1,2,1:2:0:0:
69,133,81112,1,10,2:2:0:0:
267,190,81282,1,2,1:2:0:0:
245,95,81451,1,6,1:3:0:0:
165,156,81621,6,0,P|175:203|186:253,1,100,2|8,1:2|2:2,0:0:0:0:
341,121,81960,1,2,1:2:0:0:
341,121,82044,1,0,0:0:0:0:
341,121,82129,2,0,P|329:72|319:23,1,100,4|2,1:3|1:2,0:0:0:0:
245,95,82468,1,8,2:2:0:0:
415,67,82638,1,2,1:2:0:0:
245,95,82807,1,4,1:3:0:0:
103,0,82977,5,0,1:1:0:0:
162,63,83146,1,8,2:2:0:0:
162,63,83231,1,0,0:0:0:0:
77,82,83400,1,0,0:0:0:0:
77,82,83485,1,4,1:3:0:0:
103,0,83654,1,0,1:1:0:0:
135,145,83824,1,8,2:2:0:0:
103,0,83993,1,0,1:1:0:0:
135,145,84163,5,6,1:2:0:0:
66,217,84332,1,2,1:2:0:0:
211,286,84501,1,10,2:2:0:0:
224,188,84671,1,2,1:2:0:0:
224,188,84756,1,0,0:0:0:0:
224,188,84840,1,8,2:2:0:0:
113,304,85010,1,2,1:2:0:0:
211,286,85179,1,0,0:0:0:0:
135,145,85349,1,10,2:2:0:0:
323,171,85518,5,2,1:2:0:0:
369,257,85687,1,2,1:2:0:0:
301,329,85856,1,10,2:2:0:0:
211,286,86027,1,2,1:2:0:0:
211,286,86112,1,0,0:0:0:0:
211,286,86196,1,10,2:2:0:0:
224,188,86366,1,0,1:1:0:0:
369,257,86535,5,6,1:2:0:0:
369,257,86619,1,0,0:0:0:0:
369,257,86704,1,2,1:2:0:0:
480,141,86873,1,10,2:2:0:0:
467,239,87043,1,2,1:2:0:0:
391,98,87212,1,8,2:2:0:0:
480,141,87382,1,2,1:2:0:0:
369,257,87551,1,0,0:0:0:0:
323,171,87721,1,10,2:2:0:0:
211,286,87891,5,2,1:2:0:0:
211,286,87976,1,0,0:0:0:0:
211,286,88060,1,2,1:2:0:0:
323,171,88229,1,10,2:2:0:0:
224,188,88399,1,2,1:2:0:0:
301,329,88568,1,10,2:2:0:0:
369,257,88738,1,2,1:2:0:0:
224,188,88907,1,2,2:2:0:0:
211,286,89077,1,10,2:2:0:0:
322,170,89246,6,0,P|320:111|341:56,1,119.999996337891,6|2,1:1|2:2,0:0:0:0:
468,6,89755,1,0,1:1:0:0:
341,54,89924,2,0,P|395:52|416:31,1,59.9999981689454,2|0,2:2|1:1,0:0:0:0:
468,6,90263,2,0,P|479:58|476:80,1,59.9999981689454,10|0,2:2|0:0,0:0:0:0:
274,109,90602,2,0,P|196:84|155:83,1,119.999996337891,2|2,2:2|1:2,0:0:0:0:
79,116,91111,1,8,2:2:0:0:
158,82,91280,2,0,P|165:40|176:6,1,59.9999981689454,2|0,2:2|1:1,0:0:0:0:
79,116,91619,2,0,P|72:158|61:192,1,59.9999981689454,10|0,2:2|0:0,0:0:0:0:
270,366,91960,6,0,P|309:371|347:384,1,80,6|0,1:1|1:1,0:0:0:0:
139,300,92298,1,8,2:2:0:0:
347,384,92468,1,2,1:2:0:0:
139,300,92637,6,0,P|87:317|33:325,1,100,2|0,1:2|1:1,0:0:0:0:
310,216,92976,1,8,2:2:0:0:
44,325,93146,1,2,1:2:0:0:
310,216,93315,6,0,P|382:240|457:251,1,150.000005722046,2|0,1:2|1:1,0:0:0:0:
195,78,93654,1,8,2:2:0:0:
454,251,93824,1,2,1:2:0:0:
90,161,93993,5,2,1:2:0:0:
273,138,94163,1,8,2:2:0:0:
273,138,94248,1,8,2:2:0:0:
273,138,94332,1,10,2:2:0:0:
456,115,94502,1,8,2:2:0:0:
382,16,94671,6,0,P|376:55|367:94,1,80,6|0,1:2|0:0,0:0:0:0:
456,115,95010,2,0,P|462:75|470:36,1,80,0|0,0:0|1:1,0:0:0:0:
294,2,95349,2,0,P|287:41|279:80,1,80,2|0,2:2|1:1,0:0:0:0:
476,374,95688,2,0,P|482:334|490:295,1,80,8|0,2:2|0:0,0:0:0:0:
434,225,96027,6,0,P|394:232|355:239,1,80,2|0,2:2|1:1,0:0:0:0:
198,266,96366,2,0,P|237:258|276:251,1,80,0|8,1:1|2:2,0:0:0:0:
434,225,96705,2,0,P|473:217|512:210,1,80,2|0,2:2|1:1,0:0:0:0:
198,266,97044,2,0,P|139:277|79:287,1,120,8|0,2:2|0:0,0:0:0:0:
79,287,97383,5,6,1:2:0:0:
240,153,97553,1,2,1:2:0:0:
198,266,97722,1,10,2:2:0:0:
44,81,97892,1,0,1:1:0:0:
2,194,98062,1,2,1:2:0:0:
121,174,98231,1,2,1:2:0:0:
240,153,98400,1,10,2:2:0:0:
496,299,98570,6,0,B|352:378|352:378|414:17,1,509.999984436036,6|0,1:1|0:0,0:0:0:0:
410,37,100095,6,0,P|449:110|312:99,1,262.500010013581,6|0,1:1|0:0,0:0:0:0:
319,130,100434,1,2,2:2:0:0:
120,275,100604,1,2,1:2:0:0:
120,275,100688,1,0,1:1:0:0:
120,275,100773,2,0,P|173:288|224:211,1,150.000005722046,12|2,2:2|1:2,0:0:0:0:
319,130,101112,6,0,P|208:110|226:221,1,262.500010013581,2|0,2:2|0:0,0:0:0:0:
225,219,101451,1,2,2:2:0:0:
8,366,101621,2,0,P|13:247|123:284,1,262.500010013581,10|0,2:2|0:0,0:0:0:0:
208,310,101960,1,2,1:2:0:0:
208,310,102044,1,0,0:0:0:0:
208,310,102129,2,0,P|215:352|219:385,1,75.0000028610231,10|0,2:2|0:0,0:0:0:0:
119,274,102298,1,2,1:2:0:0:
307,345,102468,1,2,2:2:0:0:
295,259,102637,1,8,2:2:0:0:
8,183,102807,6,0,P|13:302|123:265,1,262.500010013581,6|0,1:2|0:0,0:0:0:0:
119,274,103146,1,2,2:2:0:0:
436,383,103315,1,2,1:2:0:0:
436,383,103400,1,0,1:1:0:0:
436,383,103485,2,0,P|385:339|288:356,1,150.000005722046,8|2,2:2|1:2,0:0:0:0:
119,274,103824,6,0,P|124:155|234:192,1,262.500010013581,2|0,2:2|0:0,0:0:0:0:
230,182,104163,1,2,2:2:0:0:
500,50,104332,2,0,P|501:143|385:139,1,225.000008583069,10|0,2:2|0:0,0:0:0:0:
316,198,104671,1,2,1:2:0:0:
316,198,104756,1,0,0:0:0:0:
316,198,104841,2,0,P|313:161|297:124,1,75.0000028610231,10|0,2:2|0:0,0:0:0:0:
359,75,105010,1,2,1:2:0:0:
305,281,105180,1,2,2:2:0:0:
359,75,105349,1,8,2:2:0:0:
392,147,105519,5,4,1:2:0:0:
500,50,105688,2,0,P|396:120|276:122,1,225.000008583069,2|0,2:2|0:0,0:0:0:0:
299,126,106027,1,2,1:2:0:0:
299,126,106112,1,0,1:1:0:0:
299,126,106197,2,0,P|296:52|231:-6,1,150.000005722046,10|0,2:2|1:1,0:0:0:0:
157,190,106536,1,2,2:2:0:0:
103,63,106705,2,0,P|106:137|171:195,1,150.000005722046,2|0,1:2|0:0,0:0:0:0:
50,307,107044,6,0,P|165:223|285:267,1,262.500010013581,10|0,2:2|0:0,0:0:0:0:
271,254,107383,1,2,1:2:0:0:
489,109,107553,6,0,P|453:97|416:88,1,75.0000028610231,10|0,2:2|0:0,0:0:0:0:
509,36,107723,2,0,P|498:72|489:108,1,75.0000028610231,2|0,1:2|0:0,0:0:0:0:
436,17,107892,2,0,P|472:27|508:35,1,75.0000028610231,2|0,2:2|0:0,0:0:0:0:
417,88,108061,2,0,P|428:52|436:15,1,75.0000028610231,10|0,2:2|0:0,0:0:0:0:
489,109,108231,5,4,1:2:0:0:
489,109,108400,1,0,0:0:0:0:
327,71,108570,6,0,P|339:142|348:219,1,150.000005722046,2|0,2:2|1:1,0:0:0:0:
348,219,108824,1,0,1:1:0:0:
348,219,108909,2,0,P|419:207|496:197,1,150.000005722046,10|0,2:2|1:1,0:0:0:0:
327,71,109248,2,0,P|256:83|178:92,1,150.000005722046,2|0,2:2|1:1,0:0:0:0:
54,166,109587,5,2,2:2:0:0:
178,92,109756,1,8,2:2:0:0:
79,66,109926,1,2,2:2:0:0:
150,191,110095,1,0,1:1:0:0:
74,255,110265,5,10,2:2:0:0:
159,5,110434,1,0,1:1:0:0:
138,0,110604,5,2,2:2:0:0:
95,260,110773,1,8,2:2:0:0:
1,224,110943,6,0,P|260:253|490:375,1,525.000020027161,6|0,1:2|0:0,0:0:0:0:
427,233,111621,6,0,P|253:293|84:254,1,350,6|0,1:1|0:0,0:0:0:0:
232,228,112298,6,0,P|254:281|282:331,1,112.500004291535,6|0,1:2|0:0,0:0:0:0:
253,336,112637,2,0,P|258:279|257:221,1,112.500004291535,6|0,1:1|0:0,0:0:0:0:
211,104,112976,5,10,2:2:0:0:
196,43,113089,1,8,2:2:0:0:
232,0,113202,1,8,2:3:0:0:
279,152,113315,5,10,2:3:0:0:
284,195,113428,1,4,2:3:0:0:
256,223,113541,1,4,2:3:0:0:
332,291,113654,6,0,P|359:283|396:277,1,50,10|0,1:2|0:0,0:0:0:0:
380,278,113909,2,0,P|356:286|332:291,1,50,2|0,2:2|0:0,0:0:0:0:
332,291,114165,2,0,P|359:283|396:277,1,50,2|0,2:2|0:0,0:0:0:0:
380,278,114420,2,0,P|356:286|332:291,1,50,2|0,2:2|0:0,0:0:0:0:
332,291,114676,5,2,2:2:0:0:
332,291,114847,1,2,2:2:0:0:
380,278,115017,5,2,2:2:0:0:
380,278,115188,1,2,2:2:0:0:
422,307,115358,5,2,2:2:0:0:
422,307,115529,1,2,2:2:0:0:
198,225,115699,6,0,P|176:243|145:263,1,50,2|0,2:2|0:0,0:0:0:0:
159,255,115954,2,0,P|177:238|198:224,1,50,2|0,2:2|0:0,0:0:0:0:
198,225,116210,2,0,P|176:243|145:263,1,50,2|0,2:2|0:0,0:0:0:0:
159,255,116465,2,0,P|177:238|198:224,1,50,2|0,2:2|0:0,0:0:0:0:
198,224,116721,5,2,2:2:0:0:
198,224,116892,1,2,2:2:0:0:
160,255,117062,5,2,2:2:0:0:
160,255,117233,1,2,2:2:0:0:
110,246,117403,5,2,2:2:0:0:
31,205,117574,5,10,2:2:0:0:
31,205,117659,1,8,2:2:0:0:
31,205,117744,2,0,L|272:271,1,250,6|0,1:2|0:0,0:0:0:0:
254,175,117998,2,0,L|46:313,1,250,6|0,1:1|0:0,0:0:0:0:
272,271,118252,2,0,L|31:205,1,250,6|0,1:2|0:0,0:0:0:0:
46,313,118506,2,0,L|254:175,1,250,6|0,1:1|0:0,0:0:0:0:
449,61,118760,5,10,2:2:0:0:
449,61,118845,1,8,2:2:0:0:
382,141,118930,5,10,2:2:0:0:
382,141,119015,1,8,2:2:0:0:
448,202,119099,5,10,2:3:0:0:
448,202,119184,1,8,2:3:0:0:
403,268,119269,5,10,2:3:0:0:
403,268,119354,1,8,2:3:0:0:
441,303,119438,5,6,2:3:0:0:
441,303,119523,1,4,2:3:0:0:
433,317,119608,5,6,2:3:0:0:
433,317,119693,1,4,2:3:0:0:
472,384,119777,6,0,L|406:143,1,250,6|0,1:2|0:0,0:0:0:0:
511,157,120031,2,0,L|373:365,1,250,6|0,1:1|0:0,0:0:0:0:
406,143,120286,2,0,L|472:384,1,250,6|0,1:2|0:0,0:0:0:0:
373,365,120540,2,0,L|511:157,1,250,6|0,1:1|0:0,0:0:0:0:
471,66,120794,5,10,2:2:0:0:
471,66,120879,1,8,2:2:0:0:
406,144,120964,5,10,2:2:0:0:
406,144,121049,1,8,2:2:0:0:
332,104,121133,5,10,2:3:0:0:
332,104,121218,1,8,2:3:0:0:
283,165,121303,5,10,2:3:0:0:
283,165,121388,1,8,2:3:0:0:
197,155,121472,5,6,2:3:0:0:
197,155,121557,1,4,2:3:0:0:
158,184,121642,5,6,2:3:0:0:
158,184,121727,1,4,2:3:0:0:
89,139,121811,6,0,L|362:262,1,300.000011444092,6|0,1:2|0:0,0:0:0:0:
109,305,122066,2,0,L|332:104,1,300.000011444092,6|0,1:1|0:0,0:0:0:0:
362,262,122320,2,0,L|89:139,1,300.000011444092,6|0,1:2|0:0,0:0:0:0:
332,104,122574,2,0,L|109:305,1,300.000011444092,6|0,1:1|0:0,0:0:0:0:
14,355,122827,5,10,2:2:0:0:
14,355,122912,1,8,2:2:0:0:
109,305,122998,5,10,2:2:0:0:
109,305,123083,1,8,2:2:0:0:
36,250,123166,5,10,2:3:0:0:
36,250,123251,1,8,2:3:0:0:
124,213,123336,5,10,2:3:0:0:
124,213,123421,1,8,2:3:0:0:
88,138,123505,5,6,2:3:0:0:
88,138,123590,1,4,2:3:0:0:
133,100,123676,5,6,2:3:0:0:
133,100,123760,1,4,2:3:0:0:
50,67,123845,6,0,L|272:267,1,300.000011444092,6|0,1:2|0:0,0:0:0:0:
109,305,124099,2,0,L|202:20,1,300.000011444092,6|0,1:1|0:0,0:0:0:0:
272,267,124354,2,0,L|49:66,1,300.000011444092,6|0,1:2|0:0,0:0:0:0:
203,20,124608,2,0,L|109:304,1,300.000011444092,6|0,1:1|0:0,0:0:0:0:
12,156,124862,5,10,2:2:0:0:
12,156,124947,1,8,2:2:0:0:
101,229,125033,5,10,2:2:0:0:
101,229,125116,1,8,2:2:0:0:
185,141,125201,5,10,2:3:0:0:
185,141,125286,1,8,2:3:0:0:
257,177,125371,5,10,2:3:0:0:
257,177,125456,1,8,2:3:0:0:
304,101,125540,5,6,2:3:0:0:
304,101,125625,1,4,2:3:0:0:
345,119,125711,5,6,2:3:0:0:
345,119,125795,1,4,2:3:0:0:
339,26,125879,6,0,L|266:368,1,350.00000333786,6|0,1:2|0:0,0:0:0:0:
132,156,126133,2,0,L|474:228,1,350.00000333786,6|0,1:1|0:0,0:0:0:0:
266,368,126388,6,0,L|339:26,1,350.00000333786,6|0,1:2|0:0,0:0:0:0:
474,228,126642,2,0,L|132:156,1,350.00000333786,6|0,1:1|0:0,0:0:0:0:
31,56,126896,5,10,2:2:0:0:
31,56,126981,1,8,2:2:0:0:
144,129,127066,5,10,2:2:0:0:
144,129,127151,1,8,2:2:0:0:
55,195,127235,5,10,2:3:0:0:
55,195,127320,1,8,2:3:0:0:
150,238,127405,5,10,2:3:0:0:
150,238,127490,1,8,2:3:0:0:
85,298,127574,5,6,2:3:0:0:
85,298,127659,1,4,2:3:0:0:
140,346,127744,5,6,2:3:0:0:
140,346,127829,1,4,2:3:0:0:
69,376,127913,6,0,L|274:93,1,350.00000333786,6|0,1:2|0:0,0:0:0:0:
310,341,128167,2,0,L|26:136,1,350.00000333786,6|0,1:1|0:0,0:0:0:0:
274,93,128422,6,0,L|68:375,1,350.00000333786,6|0,1:2|0:0,0:0:0:0:
27,136,128676,2,0,L|310:340,1,350.00000333786,6|0,1:1|0:0,0:0:0:0:
511,384,128930,5,10,2:2:0:0:
511,384,129015,1,8,2:2:0:0:
406,250,129099,5,2,1:2:0:0:
406,250,129184,1,0,1:1:0:0:
310,340,129269,5,10,2:3:0:0:
310,340,129354,1,8,2:3:0:0:
238,237,129438,5,2,1:2:0:0:
238,237,129523,1,0,1:1:0:0:
150,289,129608,5,6,2:3:0:0:
150,289,129693,1,4,2:3:0:0:
129,199,129777,5,2,1:2:0:0:
129,199,129862,1,0,1:1:0:0:
51,189,129947,5,10,2:2:0:0:
82,127,130031,5,8,2:2:0:0:
27,132,130116,5,10,2:2:0:0:
77,102,130201,5,8,2:2:0:0:
41,98,130285,5,10,2:2:0:0:
79,89,130370,5,8,2:2:0:0:
59,81,130455,5,10,2:2:0:0:
77,77,130540,5,8,2:2:0:0:
74,71,130625,5,6,1:1:0:0:
74,71,130963,1,2,1:2:0:0:
74,71,131302,1,2,1:2:0:0:
74,71,131641,1,0,1:1:0:0:
74,71,131980,1,2,1:2:0:0:
74,71,132319,1,2,1:2:0:0:
74,71,132658,1,2,1:2:0:0:
74,71,132997,1,2,1:2:0:0:
463,117,133336,5,2,1:2:0:0:
463,117,133674,1,2,1:2:0:0:
463,117,134013,1,2,1:2:0:0:
463,117,134352,1,2,1:2:0:0:
463,117,134691,1,2,1:2:0:0:
463,117,135030,1,2,1:2:0:0:
463,117,135369,1,0,1:1:0:0:
463,117,135708,1,2,1:2:0:0:
121,198,136048,5,2,1:2:0:0:
121,198,136386,1,2,1:2:0:0:
121,198,136725,1,2,1:2:0:0:
121,198,137064,1,2,1:2:0:0:
121,198,137403,1,2,1:2:0:0:
121,198,137742,1,2,1:2:0:0:
121,198,138081,1,0,1:1:0:0:
121,198,138420,1,2,1:2:0:0:
345,254,138760,5,2,1:2:0:0:
345,254,139098,1,2,1:2:0:0:
345,254,139437,1,0,1:1:0:0:
345,254,139776,1,0,1:1:0:0:
345,254,140115,1,2,1:2:0:0:
345,254,140454,1,2,1:2:0:0:
345,254,140793,1,0,1:1:0:0:
345,254,141132,1,0,1:1:0:0:
219,384,141302,5,4,1:3:0:0:
219,384,141387,1,0,1:0:0:0:
219,384,141472,2,0,P|231:317|240:263,1,120,0|0,1:1|0:0,0:0:0:0:
239,265,141811,2,0,P|200:257|161:247,1,80,2|0,1:2|0:0,0:0:0:0:
313,341,142150,2,0,P|352:349|390:358,1,80,0|0,1:1|0:0,0:0:0:0:
390,358,142489,2,0,P|350:349|312:340,1,80,2|0,1:2|0:0,0:0:0:0:
239,265,142828,2,0,P|200:257|161:247,1,80,2|0,1:2|0:0,0:0:0:0:
161,247,143167,1,2,1:2:0:0:
66,268,143336,2,0,P|74:228|83:190,1,80,2|0,2:2|1:1,0:0:0:0:
83,190,143675,1,2,2:2:0:0:
216,177,143845,2,0,P|224:137|233:99,1,80,2|0,1:2|0:0,0:0:0:0:
233,99,144184,5,0,1:1:0:0:
154,31,144353,1,0,0:0:0:0:
233,99,144523,2,0,P|272:107|310:116,1,80,2|0,1:2|0:0,0:0:0:0:
154,31,144862,2,0,P|114:22|76:13,1,80,2|0,1:2|0:0,0:0:0:0:
57,92,145201,2,0,P|96:100|134:109,1,80,2|0,1:2|0:0,0:0:0:0:
310,116,145540,6,0,P|272:107|233:99,1,80,2|0,1:2|0:0,0:0:0:0:
233,99,145879,1,2,1:2:0:0:
343,197,146048,2,0,P|333:235|325:274,1,80,2|0,2:2|1:1,0:0:0:0:
325,274,146387,1,2,2:2:0:0:
399,123,146557,2,0,P|409:84|417:45,1,80,2|0,1:2|0:0,0:0:0:0:
310,116,146896,5,12,2:2:0:0:
479,205,147063,1,0,1:1:0:0:
168,233,147231,5,10,2:2:0:0:
310,116,147398,1,0,1:1:0:0:
6,143,147566,5,10,2:2:0:0:
168,233,147733,1,10,2:2:0:0:
310,116,147901,1,0,1:1:0:0:
479,205,148069,2,0,P|468:247|456:302,1,100,10|0,2:2|1:1,0:0:0:0:
6,143,148403,2,0,P|17:101|28:45,1,100,10|0,2:2|1:1,0:0:0:0:
456,302,148738,2,0,P|466:253|479:205,1,100,10|0,2:2|1:1,0:0:0:0:
110,27,149073,5,10,2:2:0:0:
6,143,149241,2,0,P|17:101|28:45,1,100,10|0,2:2|1:1,0:0:0:0:
169,84,149576,5,10,2:2:0:0:
169,84,149660,1,8,2:2:0:0:
169,84,149744,1,8,2:2:0:0:
169,84,149828,1,8,2:2:0:0:
169,84,149912,2,0,P|158:126|146:181,1,100,4|0,1:2|1:1,0:0:0:0:
244,373,150252,5,10,2:2:0:0:
282,165,150423,1,0,1:1:0:0:
244,373,150593,1,10,2:2:0:0:
91,245,150764,1,10,2:2:0:0:
244,373,150934,1,0,1:1:0:0:
394,221,151105,2,0,P|342:235|296:244,1,100,10|0,2:2|1:1,0:0:0:0:
95,330,151446,2,0,P|147:316|192:306,1,100,10|0,2:2|1:1,0:0:0:0:
319,329,151787,1,10,2:2:0:0:
151,193,151957,1,2,1:2:0:0:
296,244,152127,5,8,2:2:0:0:
95,330,152298,1,10,2:2:0:0:
192,306,152468,6,0,L|203:257,1,50,0|0,1:1|1:1,0:0:0:0:
240,47,152639,5,14,1:2:0:0:
240,47,152723,1,0,3:3:0:0:
240,47,152808,2,0,L|188:38,1,50,0|0,3:3|3:3,0:0:0:0:
107,27,152977,1,8,3:2:0:0:
107,27,153061,1,0,3:3:0:0:
107,27,153146,2,0,L|98:79,1,50,0|0,3:3|3:3,0:0:0:0:
87,160,153316,1,8,3:2:0:0:
87,160,153400,1,0,3:3:0:0:
87,160,153485,2,0,L|139:169,1,50,0|0,3:3|3:3,0:0:0:0:
220,180,153656,1,8,3:2:0:0:
220,180,153740,1,0,3:3:0:0:
220,180,153825,2,0,L|229:128,1,50,0|0,3:3|3:3,0:0:0:0:
313,96,153994,5,8,3:2:0:0:
313,96,154078,1,0,3:3:0:0:
313,96,154163,2,0,L|365:105,1,50,0|0,3:3|3:3,0:0:0:0:
471,127,154333,1,8,3:2:0:0:
471,127,154417,1,0,3:3:0:0:
471,127,154502,2,0,L|462:179,1,50,0|0,3:3|3:3,0:0:0:0:
441,284,154673,1,10,3:2:0:0:
441,284,154757,1,0,3:3:0:0:
441,284,154842,2,0,L|389:275,1,50,0|0,3:3|3:3,0:0:0:0:
286,259,155011,1,8,3:2:0:0:
286,259,155095,1,0,3:3:0:0:
286,259,155180,2,0,L|295:207,1,50,0|0,3:3|3:3,0:0:0:0:
408,51,155350,5,8,3:2:0:0:
359,63,155434,1,0,3:3:0:0:
311,76,155519,1,0,3:3:0:0:
262,89,155604,1,0,3:3:0:0:
214,103,155688,1,8,3:2:0:0:
166,117,155773,1,0,3:3:0:0:
118,131,155858,1,0,3:3:0:0:
71,145,155943,1,0,3:3:0:0:
21,42,156028,5,8,2:2:0:0:
91,55,156113,1,8,2:2:0:0:
160,68,156198,1,8,2:2:0:0:
230,81,156283,1,8,2:2:0:0:
300,93,156367,1,8,2:2:0:0:
371,105,156452,1,8,2:2:0:0:
441,117,156537,1,8,2:2:0:0:
512,129,156622,1,8,2:2:0:0:
473,25,156706,6,0,P|381:32|378:117,1,179.999994506836,6|8,1:1|2:2,0:0:0:0:
395,300,156960,1,0,0:0:0:0:
484,278,157044,2,0,P|490:230|467:190,1,89.9999972534181,2|0,1:2|1:1,0:0:0:0:
193,167,157214,6,0,P|269:249|346:209,1,179.999994506836,10|0,2:2|1:1,0:0:0:0:
370,104,157468,1,0,0:0:0:0:
296,58,157553,2,0,P|251:56|212:94,1,89.9999972534181,10|0,2:2|0:0,0:0:0:0:
74,329,157722,6,0,P|145:332|207:243,1,179.999994506836,2|8,1:2|2:2,0:0:0:0:
108,142,157977,1,0,0:0:0:0:
29,184,158061,2,0,P|9:233|26:285,1,89.9999972534181,2|0,1:2|0:0,0:0:0:0:
405,382,158231,5,10,2:2:0:0:
405,382,158316,1,0,0:0:0:0:
405,382,158400,2,0,P|411:331|416:293,1,89.9999972534181,0|0,1:1|1:1,0:0:0:0:
285,147,158570,2,0,P|290:102|296:58,1,89.9999972534181,10|0,2:2|0:0,0:0:0:0:
493,89,158739,2,0,P|498:44|504:0,1,89.9999972534181,2|0,1:2|0:0,0:0:0:0:
199,107,158909,2,0,P|204:62|210:18,1,89.9999972534181,10|0,2:2|0:0,0:0:0:0:
368,213,159078,2,0,P|373:168|379:124,1,89.9999972534181,2|0,1:2|1:1,0:0:0:0:
135,319,159248,2,0,P|140:274|146:230,1,89.9999972534181,8|0,2:2|0:0,0:0:0:0:
0,22,159417,6,0,P|72:15|89:121,1,179.999994506836,6|8,1:1|2:2,0:0:0:0:
63,260,159672,1,0,0:0:0:0:
0,204,159756,2,0,P|-3:150|34:116,1,89.9999972534181,2|0,1:2|1:1,0:0:0:0:
306,68,159926,6,0,P|324:138|222:171,1,179.999994506836,10|0,2:2|1:1,0:0:0:0:
0,204,160181,1,0,0:0:0:0:
82,177,160265,2,0,P|131:199|145:247,1,89.9999972534181,10|0,2:2|0:0,0:0:0:0:
338,382,160434,6,0,P|255:358|230:275,1,179.999994506836,2|8,1:2|2:2,0:0:0:0:
385,33,160689,1,0,0:0:0:0:
443,94,160773,2,0,P|452:147|418:185,1,89.9999972534181,2|0,1:2|0:0,0:0:0:0:
413,311,160943,5,10,2:2:0:0:
413,311,161028,1,0,0:0:0:0:
413,311,161112,2,0,P|457:320|501:329,1,89.9999972534181,0|0,1:1|1:1,0:0:0:0:
355,112,161282,2,0,P|399:103|443:94,1,89.9999972534181,10|0,2:2|0:0,0:0:0:0:
229,275,161451,2,0,P|273:284|317:293,1,89.9999972534181,2|0,1:2|0:0,0:0:0:0:
189,144,161621,2,0,P|233:135|277:126,1,89.9999972534181,10|0,2:2|0:0,0:0:0:0:
13,230,161790,5,10,1:2:0:0:
57,239,161874,1,8,2:2:0:0:
101,248,161959,1,8,2:2:0:0:
145,257,162044,1,8,2:2:0:0:
229,275,162129,5,4,1:1:0:0:
30,94,162299,1,10,2:2:0:0:
30,94,162383,1,0,0:0:0:0:
114,75,162468,2,0,P|158:66|202:57,1,89.9999972534181,0|0,1:1|1:1,0:0:0:0:
61,8,162638,1,10,2:2:0:0:
89,160,162807,5,2,1:2:0:0:
286,38,162977,1,8,2:2:0:0:
286,38,163062,1,0,0:0:0:0:
277,125,163146,2,0,P|233:134|189:143,1,89.9999972534181,2|0,1:2|1:1,0:0:0:0:
0,175,163316,1,10,2:2:0:0:
188,143,163485,6,0,P|285:158|365:174,1,179.999994506836,0|10,1:1|2:2,0:0:0:0:
441,228,163739,1,0,0:0:0:0:
507,177,163824,2,0,P|501:130|496:88,1,89.9999972534181,0|0,1:1|1:1,0:0:0:0:
378,290,163994,2,0,P|384:337|389:379,1,89.9999972534181,10|0,2:2|0:0,0:0:0:0:
496,88,164163,6,0,P|501:132|507:177,1,89.9999972534181,2|0,1:2|0:0,0:0:0:0:
378,290,164333,2,0,P|384:337|389:379,1,89.9999972534181,10|0,2:2|0:0,0:0:0:0:
263,92,164502,2,0,P|268:137|274:181,1,89.9999972534181,2|0,1:2|1:1,0:0:0:0:
145,295,164672,2,0,P|151:342|156:384,1,89.9999972534181,10|0,2:2|0:0,0:0:0:0:
52,297,164841,5,4,1:1:0:0:
236,321,165011,1,8,2:2:0:0:
236,321,165095,1,0,0:0:0:0:
236,321,165180,1,2,1:2:0:0:
52,297,165350,1,8,2:2:0:0:
273,181,165519,5,2,1:2:0:0:
3,228,165689,1,8,2:2:0:0:
3,228,165773,1,0,0:0:0:0:
3,228,165858,1,2,1:2:0:0:
273,181,166028,1,8,2:2:0:0:
57,55,166197,5,2,1:2:0:0:
105,25,166281,1,0,1:1:0:0:
161,36,166366,1,8,2:2:0:0:
194,82,166451,1,8,2:2:0:0:
187,138,166535,1,10,1:2:0:0:
144,175,166620,1,8,2:2:0:0:
88,173,166705,1,8,2:2:0:0:
48,133,166790,1,8,2:2:0:0:
67,125,166875,5,10,1:3:0:0:
97,155,166960,1,8,2:3:0:0:
139,156,167045,1,8,2:3:0:0:
171,129,167130,1,8,2:3:0:0:
176,87,167214,1,6,1:3:0:0:
151,53,167299,1,4,2:3:0:0:
110,45,167384,1,4,2:3:0:0:
74,67,167468,1,4,2:3:0:0:
120,102,167554,6,0,P|273:116|377:40,1,262.500010013581,6|0,1:1|0:0,0:0:0:0:
360,61,167894,1,2,2:2:0:0:
443,383,168064,1,2,1:2:0:0:
443,383,168149,1,0,1:1:0:0:
443,383,168234,2,0,P|489:340|487:247,1,150.000005722046,12|2,2:2|1:2,0:0:0:0:
360,61,168575,6,0,P|277:191|286:317,1,262.500010013581,2|0,2:2|0:0,0:0:0:0:
279,296,168916,1,2,2:2:0:0:
510,169,169085,2,0,P|431:233|306:206,1,225.000008583069,10|0,2:2|0:0,0:0:0:0:
223,150,169426,1,2,1:2:0:0:
223,150,169511,1,0,0:0:0:0:
223,150,169596,2,0,P|232:186|236:223,1,75.0000028610231,10|0,2:2|0:0,0:0:0:0:
197,348,169766,1,2,1:2:0:0:
317,215,169936,1,2,2:2:0:0:
146,211,170107,1,8,2:2:0:0:
81,329,170277,6,0,P|234:314|338:391,1,262.500010013581,6|0,1:2|0:0,0:0:0:0:
321,370,170617,1,2,2:2:0:0:
512,251,170788,1,2,1:2:0:0:
512,251,170873,1,0,1:1:0:0:
512,251,170958,2,0,P|469:297|376:295,1,150.000005722046,8|10,2:2|2:2,0:0:0:0:
197,348,171298,6,0,P|179:194|82:109,1,262.500010013581,2|0,2:2|0:0,0:0:0:0:
106,121,171638,1,2,1:2:0:0:
0,79,171809,2,0,P|67:106|180:7,1,225.000008583069,10|0,2:2|0:0,0:0:0:0:
82,50,172149,1,2,1:2:0:0:
82,50,172234,1,0,0:0:0:0:
82,50,172319,2,0,P|96:79|105:121,1,75.0000028610231,10|0,2:2|0:0,0:0:0:0:
226,126,172490,2,0,P|212:155|202:197,1,75.0000028610231,2|0,1:2|0:0,0:0:0:0:
142,259,172660,5,2,2:2:0:0:
177,21,172830,1,0,1:1:0:0:
177,21,172915,1,0,0:0:0:0:
177,21,173000,1,4,1:2:0:0:
343,168,173168,6,0,P|389:197|485:173,1,150.000005722046,2|0,2:2|0:0,0:0:0:0:
456,17,173505,1,2,1:2:0:0:
456,17,173589,1,0,1:1:0:0:
456,17,173674,2,0,P|326:70|350:175,1,262.500010013581,10|0,2:2|0:0,0:0:0:0:
344,169,174011,1,2,2:2:0:0:
260,383,174179,6,0,P|254:309|204:255,1,150.000005722046,2|0,1:2|0:0,0:0:0:0:
0,72,174516,2,0,P|25:177|129:206,1,225.000008583069,10|0,2:2|0:0,0:0:0:0:
209,180,174853,1,2,1:2:0:0:
209,180,174938,1,0,0:0:0:0:
209,180,175022,1,10,2:2:0:0:
131,301,175191,1,2,1:2:0:0:
95,100,175359,1,2,2:2:0:0:
131,301,175528,1,10,2:2:0:0:
323,164,175696,5,4,1:2:0:0:
323,164,175865,1,0,0:0:0:0:
510,384,176033,2,0,P|487:314|467:238,1,150.000005722046,2|0,2:2|1:1,0:0:0:0:
467,240,176286,1,0,1:1:0:0:
467,240,176370,2,0,P|397:263|321:283,1,150.000005722046,10|0,2:2|1:1,0:0:0:0:
424,96,176707,2,0,P|443:168|466:239,1,150.000005722046,2|0,2:2|1:1,0:0:0:0:
323,164,177044,6,0,P|303:91|280:20,1,150.000005722046,2|8,2:2|2:2,0:0:0:0:
178,206,177382,2,0,P|249:182|321:163,1,150.000005722046,2|0,2:2|1:1,0:0:0:0:
321,163,177635,1,0,0:0:0:0:
321,163,177719,1,10,2:2:0:0:
280,21,177887,1,0,1:1:0:0:
178,206,178056,1,2,2:2:0:0:
138,61,178224,1,8,2:2:0:0:
508,374,178393,6,0,P|322:189|50:213,1,525.000020027161,6|0,1:2|0:0,0:0:0:0:
44,372,179078,6,0,P|145:226|131:46,1,350,6|0,1:1|0:0,0:0:0:0:
112,183,179764,6,0,P|143:202|172:226,1,75,6|0,1:2|0:0,0:0:0:0:
179,196,180107,2,0,P|142:202|104:203,1,75,6|0,1:1|0:0,0:0:0:0:
0,281,180450,5,10,2:2:0:0:
58,276,180564,1,8,2:2:0:0:
97,319,180678,1,8,2:3:0:0:
191,277,180793,5,10,2:3:0:0:
249,282,180907,1,4,2:3:0:0:
288,239,181021,1,4,2:3:0:0:
378,290,181135,6,0,P|383:258|390:224,1,66.6666666666667,6|0,1:2|0:0,0:0:0:0:
490,22,181359,5,8,2:2:0:0:
443,79,181472,1,8,2:2:0:0:
393,86,181584,1,8,2:3:0:0:
351,71,181696,1,8,2:3:0:0:
301,158,181809,5,10,2:2:0:0:
231,133,181921,1,8,2:2:0:0:
184,152,182034,1,8,2:3:0:0:
162,194,182146,1,8,2:3:0:0:
77,227,182258,1,8,2:2:0:0:
7,161,182370,1,8,2:2:0:0:
31,70,182483,6,0,P|62:80|93:92,1,66.6666666666667,10|8,2:3|2:3,0:0:0:0:
135,318,182708,1,8,2:2:0:0:
199,269,182820,2,0,P|224:247|249:225,1,66.6666666666667,10|8,2:2|2:3,0:0:0:0:
395,371,183045,1,8,2:3:0:0:
405,288,183157,2,0,P|414:223|423:154,2,133.333333333333,10|10|6,2:2|2:3|2:3,0:0:0:0:
40,165,183831,5,6,1:2:0:0:
78,36,184000,1,2,1:2:0:0:
170,133,184169,1,10,2:2:0:0:
208,4,184339,1,0,1:1:0:0:
40,165,184508,5,10,2:2:0:0:
170,133,184677,1,2,1:2:0:0:
78,36,184846,1,0,0:0:0:0:
208,4,185016,1,10,2:2:0:0:
300,101,185186,5,2,1:2:0:0:
392,198,185356,1,2,1:2:0:0:
430,69,185525,1,10,2:2:0:0:
300,101,185695,1,2,1:2:0:0:
392,198,185864,1,10,2:2:0:0:
300,101,186034,1,0,1:1:0:0:
132,262,186203,5,6,1:2:0:0:
40,165,186372,1,2,1:2:0:0:
2,294,186541,1,10,2:2:0:0:
170,133,186711,1,0,1:1:0:0:
2,294,186880,5,10,2:2:0:0:
40,165,187051,1,2,1:2:0:0:
132,262,187220,1,0,1:1:0:0:
170,133,187390,1,10,2:2:0:0:
262,230,187558,5,2,1:2:0:0:
300,101,187728,1,2,1:2:0:0:
262,230,187897,1,10,2:2:0:0:
354,327,188067,1,2,1:2:0:0:
392,198,188237,1,10,2:2:0:0:
262,230,188407,1,0,1:1:0:0:
484,295,188576,5,6,1:2:0:0:
262,230,188746,1,10,2:2:0:0:
233,236,188831,1,8,2:2:0:0:
197,246,188916,1,10,2:2:0:0:
164,254,189000,1,8,2:2:0:0:
132,262,189085,1,2,1:1:0:0:
354,327,189254,1,10,2:2:0:0:
386,319,189339,1,8,2:2:0:0:
419,311,189423,1,10,2:2:0:0:
455,301,189508,1,8,2:2:0:0:
484,295,189593,1,2,1:1:0:0:
354,327,189763,5,10,2:2:0:0:
331,303,189848,1,8,2:2:0:0:
307,278,189932,1,10,2:2:0:0:
280,252,190017,1,8,2:2:0:0:
261,230,190102,1,2,1:1:0:0:
132,262,190271,1,10,2:2:0:0:
109,238,190356,1,8,2:2:0:0:
85,213,190440,1,10,2:2:0:0:
58,187,190525,1,8,2:2:0:0:
39,165,190610,1,2,1:1:0:0:
155,27,190780,5,10,2:2:0:0:
155,27,190864,1,8,2:2:0:0:
155,27,190949,2,0,L|166:98,1,50,2|0,1:1|3:3,0:0:0:0:
75,41,191119,1,2,3:2:0:0:
75,41,191203,1,0,3:3:0:0:
75,41,191288,2,0,L|82:90,1,50,10|0,3:2|3:3,0:0:0:0:
236,13,191458,2,0,L|243:62,1,50,0|0,3:3|3:3,0:0:0:0:
390,213,191627,5,10,3:2:0:0:
322,192,191711,1,0,3:3:0:0:
247,191,191796,1,2,3:2:0:0:
174,206,191881,1,0,3:3:0:0:
109,238,191965,1,10,3:2:0:0:
52,282,192050,1,0,3:3:0:0:
4,340,192136,2,0,P|301:302|342:3,1,640,6|0,1:1|1:0,0:0:0:0:
341,15,193547,1,0,1:0:0:0:
338,22,193604,1,0,1:0:0:0:
336,29,193660,1,0,1:1:0:0:
490,242,193999,6,0,P|250:187|20:143,1,480,6|0,1:1|0:0,0:0:0:0:
