osu file format v14

[General]
AudioFilename: audio.mp3
AudioLeadIn: 0
PreviewTime: 38487
Countdown: 0
SampleSet: Soft
StackLeniency: 0.2
Mode: 0
LetterboxInBreaks: 0
WidescreenStoryboard: 0

[Editor]
Bookmarks: 8862,14862,26862,38862,50862,62862,74862
DistanceSpacing: 1.3
BeatDivisor: 4
GridSize: 32
TimelineZoom: 3.950004

[Metadata]
Title:Pizdaty Scan!
TitleUnicode:Пиздатый Скан!
Artist:SHPIDEN
ArtistUnicode:SHPIDEN
Creator:StanR
Version:noDate
Source:УННВ
Tags:russian mashup unnv rytp без даты
BeatmapID:1519176
BeatmapSetID:719385

[Difficulty]
HPDrainRate:7
CircleSize:4
OverallDifficulty:8
ApproachRate:9
SliderMultiplier:2.6
SliderTickRate:1

[Events]
//Background and Video events
0,0,"Untitled.png",0,0
//Break Periods
//Storyboard Layer 0 (Background)
//Storyboard Layer 1 (Fail)
//Storyboard Layer 2 (Pass)
//Storyboard Layer 3 (Foreground)
//Storyboard Sound Samples

[TimingPoints]
-138,375,4,2,0,50,1,0
612,-200,4,2,0,50,0,0
3049,-100,4,1,1,50,0,0
26862,-100,4,1,1,50,0,1
38299,-100,4,1,1,50,0,0
38862,-200,4,2,0,50,0,0
50862,-100,4,1,1,50,0,0
51237,-50,4,1,1,50,0,0
51612,-100,4,1,1,50,0,0
51987,-50,4,1,1,50,0,0
52362,-100,4,1,1,50,0,0
52737,-50,4,1,1,50,0,0
53112,-100,4,1,1,50,0,0
53487,-50,4,1,1,50,0,0
53862,-100,4,1,1,50,0,0
54237,-50,4,1,1,50,0,0
54612,-100,4,1,1,50,0,0
57237,-50,4,1,1,50,0,0
57799,-100,4,1,1,50,0,0
57987,-50,4,1,1,50,0,0
58549,-100,4,1,1,50,0,0
58737,-50,4,1,1,50,0,0
59299,-100,4,1,1,50,0,0
59487,-50,4,1,1,50,0,0
60612,-100,4,1,1,50,0,0
62862,-100,4,1,1,50,0,1
74487,-100,4,1,1,50,0,0

[HitObjects]
159,43,612,6,0,P|130:67|123:114,1,65
128,169,987,1,0,0:0:0:0:
234,278,1362,1,0,0:0:0:0:
282,113,1737,1,8,0:0:0:0:
315,33,2112,6,0,P|350:60|370:102,1,65
351,161,2487,1,0,0:0:0:0:
282,113,2674,1,0,0:0:0:0:
277,197,2862,1,0,0:0:0:0:
264,283,3049,6,0,L|145:203,1,130
156,210,3424,2,0,L|275:290,1,130
388,300,3799,6,0,L|293:191,1,130
303,202,4174,2,0,L|397:310,1,130
264,283,4549,6,0,L|145:203,1,130
156,210,4924,2,0,L|275:290,1,130
388,300,5299,6,0,L|293:191,1,130
388,300,5674,1,0,0:0:0:0:
263,101,6049,5,0,0:0:0:0:
156,174,6237,2,0,L|275:94,1,130
388,84,6612,6,0,L|293:192,1,130
303,182,6987,2,0,L|397:73,1,130
264,101,7362,6,0,L|145:181,1,130
156,174,7737,2,0,L|275:94,1,130
388,84,8112,6,0,L|293:192,1,130
388,84,8393,6,0,L|339:139,1,65,8|0,0:0|0:0,0:0:0:0:
247,255,8674,1,8,0:0:0:0:
247,255,8768,1,8,0:0:0:0:
247,255,8862,5,0,0:0:0:0:
121,346,9049,2,0,L|70:278,1,65
35,230,9237,1,8,0:0:0:0:
35,230,9424,2,0,L|74:282,1,65
121,346,9612,1,0,0:0:0:0:
117,190,9799,6,0,L|85:111,1,65
64,56,9987,1,8,0:0:0:0:
64,56,10174,2,0,L|88:116,1,65
117,190,10362,1,0,0:0:0:0:
117,190,10549,5,0,0:0:0:0:
117,190,10737,1,8,0:0:0:0:
117,190,10924,6,0,L|141:250,1,65
172,322,11112,1,0,0:0:0:0:
117,190,11299,2,0,L|141:250,1,65
172,322,11487,1,8,0:0:0:0:
308,246,11674,1,0,0:0:0:0:
229,110,11862,5,0,0:0:0:0:
372,50,12049,2,0,L|321:118,1,65
286,166,12237,1,8,0:0:0:0:
286,166,12424,2,0,L|325:114,1,65
372,50,12612,1,0,0:0:0:0:
220,83,12799,6,0,L|188:161,1,65
167,217,12987,1,8,0:0:0:0:
167,217,13174,2,0,L|191:156,1,65
220,83,13362,1,0,0:0:0:0:
220,83,13549,5,0,0:0:0:0:
220,83,13737,1,8,0:0:0:0:
167,217,13924,6,0,L|191:156,1,65
222,85,14112,1,0,0:0:0:0:
167,217,14299,2,0,L|191:156,1,65,0|8,0:0|0:0,0:0:0:0:
222,85,14487,1,8,0:0:0:0:
308,138,14674,1,8,0:0:0:0:
308,138,14768,1,8,0:0:0:0:
308,138,14862,5,0,0:0:0:0:
167,217,15049,2,0,L|116:176,1,65
217,257,15237,2,0,L|269:298,1,65,8|0,0:0|0:0,0:0:0:0:
167,217,15424,2,0,L|218:258,1,65
217,257,15612,1,0,0:0:0:0:
322,208,15799,6,0,L|262:181,1,65
380,233,15987,2,0,L|441:259,1,65,8|0,0:0|0:0,0:0:0:0:
322,208,16174,2,0,L|382:235,1,65
381,234,16362,1,0,0:0:0:0:
272,58,16549,6,0,L|331:84,1,65
402,118,16737,1,8,0:0:0:0:
357,227,16924,6,0,L|307:187,1,65
245,136,17112,1,0,0:0:0:0:
202,211,17299,6,0,L|240:263,1,65
289,325,17487,1,8,0:0:0:0:
131,120,17674,1,0,0:0:0:0:
131,120,17862,5,0,0:0:0:0:
272,199,18049,2,0,L|323:158,1,65
222,239,18237,2,0,L|170:280,1,65,8|0,0:0|0:0,0:0:0:0:
272,199,18424,2,0,L|221:240,1,65
222,239,18612,1,0,0:0:0:0:
117,190,18799,6,0,L|177:163,1,65
59,215,18987,2,0,L|-2:241,1,65,8|0,0:0|0:0,0:0:0:0:
117,190,19174,2,0,L|57:217,1,65
58,216,19362,1,0,0:0:0:0:
283,48,19549,6,0,L|224:74,1,65
153,108,19737,1,8,0:0:0:0:
308,126,19924,6,0,L|258:166,1,65
198,217,20112,1,0,0:0:0:0:
353,201,20299,6,0,L|315:253,1,65
266,315,20487,1,8,0:0:0:0:
424,110,20674,1,0,0:0:0:0:
424,110,20862,5,0,0:0:0:0:
280,49,21049,2,0,L|190:42,1,65
215,44,21237,2,0,L|280:49,1,65,8|0,0:0|0:0,0:0:0:0:
280,49,21424,2,0,L|190:42,1,65
215,44,21612,1,0,0:0:0:0:
153,139,21799,6,0,L|243:132,1,65
218,134,21987,2,0,L|153:139,1,65,8|0,0:0|0:0,0:0:0:0:
153,139,22174,2,0,L|243:132,1,65
217,133,22362,1,0,0:0:0:0:
165,326,22549,6,0,L|125:260,1,65
131,270,22737,1,8,0:0:0:0:
97,214,22924,6,0,L|131:270,1,65
130,269,23112,1,0,0:0:0:0:
165,326,23299,6,0,L|131:270,1,65
131,270,23487,1,8,0:0:0:0:
131,270,23674,1,0,0:0:0:0:
55,355,23862,5,0,0:0:0:0:
232,335,24049,2,0,L|322:342,1,65
297,340,24237,2,0,L|232:335,1,65,8|0,0:0|0:0,0:0:0:0:
232,335,24424,2,0,L|322:342,1,65
297,340,24612,1,0,0:0:0:0:
359,245,24799,6,0,L|269:252,1,65
294,250,24987,2,0,L|359:245,1,65,8|0,0:0|0:0,0:0:0:0:
359,245,25174,2,0,L|269:252,1,65
294,250,25362,1,0,0:0:0:0:
347,58,25549,6,0,L|387:124,1,65
414,169,25737,1,8,0:0:0:0:
414,169,25924,6,0,L|381:114,1,65
347,58,26112,1,0,0:0:0:0:
464,245,26299,5,0,0:0:0:0:
464,245,26393,1,8,0:0:0:0:
464,245,26487,1,8,0:0:0:0:
380,113,26674,1,8,0:0:0:0:
380,113,26768,1,8,0:0:0:0:
380,113,26862,6,0,L|325:164,1,65
260,187,27049,2,0,L|315:238,1,65
380,113,27237,2,0,L|325:164,1,65,8|0,0:0|0:0,0:0:0:0:
307,231,27424,2,0,L|260:187,1,65
234,261,27612,2,0,L|179:210,1,65
241,350,27799,6,0,L|296:299,1,65
241,350,27987,2,0,L|296:299,1,65,8|0,0:0|0:0,0:0:0:0:
241,350,28174,2,0,L|288:305,1,65
349,345,28362,6,0,L|404:294,1,65
288,305,28549,2,0,L|241:350,1,65
293,211,28737,6,0,L|340:255,1,65,8|0,0:0|0:0,0:0:0:0:
396,300,28924,2,0,L|443:344,1,65
469,269,29112,2,0,L|422:225,1,65
356,162,29299,2,0,L|403:118,1,65
477,51,29487,2,0,L|430:7,1,65,8|0,0:0|0:0,0:0:0:0:
325,6,29674,2,0,L|278:50,1,65
132,113,29862,6,0,L|187:164,1,65
252,187,30049,2,0,L|197:238,1,65
132,113,30237,2,0,L|187:164,1,65,8|0,0:0|0:0,0:0:0:0:
205,231,30424,2,0,L|252:187,1,65
278,261,30612,2,0,L|333:210,1,65
271,350,30799,6,0,L|216:299,1,65
271,350,30987,2,0,L|216:299,1,65,8|0,0:0|0:0,0:0:0:0:
271,350,31174,2,0,L|224:305,1,65
163,345,31362,6,0,L|108:294,1,65
224,305,31549,2,0,L|271:350,1,65
162,256,31737,6,0,L|115:300,1,65,8|0,0:0|0:0,0:0:0:0:
69,344,31924,2,0,L|116:300,1,65
43,269,32112,2,0,L|90:225,1,65
156,162,32299,2,0,L|109:118,1,65
39,47,32487,2,0,L|86:3,1,65,8|0,0:0|0:0,0:0:0:0:
197,1,32674,2,0,L|244:45,1,65
380,271,32862,6,0,L|325:220,1,65
260,197,33049,2,0,L|315:146,1,65
380,271,33237,2,0,L|325:220,1,65,8|0,0:0|0:0,0:0:0:0:
307,153,33424,2,0,L|260:197,1,65
234,123,33612,2,0,L|179:174,1,65
241,34,33799,6,0,L|296:85,1,65
241,34,33987,2,0,L|296:85,1,65,8|0,0:0|0:0,0:0:0:0:
241,34,34174,2,0,L|288:79,1,65
349,39,34362,6,0,L|404:90,1,65
288,79,34549,2,0,L|241:34,1,65
293,173,34737,6,0,L|340:129,1,65,8|0,0:0|0:0,0:0:0:0:
396,84,34924,2,0,L|443:40,1,65
469,115,35112,2,0,L|422:159,1,65
408,256,35299,2,0,L|361:212,1,65
261,212,35487,2,0,L|214:256,1,65,8|0,0:0|0:0,0:0:0:0:
115,255,35674,2,0,L|68:211,1,65
115,255,35862,6,0,L|170:204,1,65
252,197,36049,2,0,L|197:146,1,65
115,255,36237,2,0,L|170:204,1,65,8|0,0:0|0:0,0:0:0:0:
205,153,36424,2,0,L|252:197,1,65
278,123,36612,2,0,L|333:174,1,65
271,34,36799,6,0,L|216:85,1,65
271,34,36987,2,0,L|216:85,1,65,8|0,0:0|0:0,0:0:0:0:
271,34,37174,2,0,L|224:79,1,65
163,39,37362,6,0,L|108:90,1,65
224,79,37549,2,0,L|271:34,1,65
219,173,37737,6,0,L|172:129,1,65,8|0,0:0|0:0,0:0:0:0:
116,84,37924,2,0,L|69:40,1,65
43,115,38112,2,0,L|90:159,1,65
160,228,38299,2,0,L|113:272,1,65,0|8,0:0|0:0,0:0:0:0:
37,336,38487,1,8,0:0:0:0:
237,349,38674,1,8,0:0:0:0:
237,349,38768,1,8,0:0:0:0:
237,349,38862,6,0,P|286:320|293:239,1,130,4|0,0:0|0:0,0:0:0:0:
222,272,39424,1,0,0:0:0:0:
145,290,39612,2,0,P|153:227|206:193,1,130,8|0,0:0|0:0,0:0:0:0:
284,182,40174,1,0,0:0:0:0:
284,182,40362,1,0,0:0:0:0:
383,72,40737,6,0,L|345:133,1,65
402,183,41112,2,0,L|349:232,1,65,8|0,0:0|0:0,0:0:0:0:
408,291,41487,1,0,0:0:0:0:
408,291,41674,1,0,0:0:0:0:
334,354,41862,6,0,P|266:360|222:318,1,130
192,237,42424,1,0,0:0:0:0:
302,267,42612,2,0,P|305:216|254:144,1,130,8|0,0:0|0:0,0:0:0:0:
196,99,43174,1,0,0:0:0:0:
196,99,43362,1,0,0:0:0:0:
196,99,43549,1,0,0:0:0:0:
169,124,43737,1,0,0:0:0:0:
223,74,43924,1,0,0:0:0:0:
196,99,44112,1,8,0:0:0:0:
56,46,44487,6,0,L|38:89,2,32.5
16,148,44862,1,0,0:0:0:0:
14,225,45049,1,0,0:0:0:0:
26,302,45237,1,0,0:0:0:0:
63,370,45424,1,0,0:0:0:0:
63,370,45612,2,0,P|24:299|14:235,1,130,8|0,0:0|0:0,0:0:0:0:
15,173,46174,1,0,0:0:0:0:
15,173,46362,1,0,0:0:0:0:
15,173,46549,2,0,P|13:208|15:248,1,65
195,52,47112,6,0,L|133:88,2,65,8|0|0,0:0|0:0|0:0,0:0:0:0:
298,169,47862,2,0,L|356:234,1,65
393,275,48237,1,0,0:0:0:0:
237,273,48612,2,0,L|179:208,1,65,8|0,0:0|0:0,0:0:0:0:
142,167,48987,1,0,0:0:0:0:
142,167,49174,1,0,0:0:0:0:
142,167,49362,1,0,0:0:0:0:
279,92,49737,6,0,L|335:59,2,65,0|0|8,0:0|0:0|0:0,0:0:0:0:
335,59,50487,1,0,0:0:0:0:
220,137,50674,1,8,0:0:0:0:
220,137,50768,1,8,0:0:0:0:
220,137,50862,5,0,0:0:0:0:
239,291,51049,2,0,P|257:329|292:349,1,65
271,342,51237,2,0,P|241:305|373:193,1,260,8|0,0:0|0:0,0:0:0:0:
410,329,51612,5,0,0:0:0:0:
410,329,51799,2,0,P|392:367|357:387,1,65
377,380,51987,2,0,P|407:342|275:230,1,260,8|0,0:0|0:0,0:0:0:0:
157,297,52362,5,0,0:0:0:0:
157,297,52549,2,0,P|195:279|215:244,1,65
208,264,52737,2,0,P|170:294|58:162,1,260,8|0,0:0|0:0,0:0:0:0:
120,41,53112,5,0,0:0:0:0:
120,41,53299,2,0,P|158:59|178:94,1,65
171,74,53487,2,0,P|133:43|21:175,1,260,8|0,0:0|0:0,0:0:0:0:
95,289,53862,1,0,0:0:0:0:
95,289,54049,5,0,0:0:0:0:
95,289,54237,2,0,P|138:178|254:206,1,260,8|0,0:0|0:0,0:0:0:0:
254,206,54612,2,0,L|128:155,1,130
133,157,54987,1,8,0:0:0:0:
224,31,55174,1,0,0:0:0:0:
368,90,55362,2,0,B|426:113|426:113|457:180,1,130
454,174,55737,2,0,L|394:49,1,130,8|0,0:0|0:0,0:0:0:0:
292,222,56112,5,0,0:0:0:0:
169,70,56299,1,0,0:0:0:0:
133,262,56487,1,8,0:0:0:0:
265,119,56674,1,0,0:0:0:0:
74,164,56862,1,0,0:0:0:0:
273,93,57049,6,0,P|255:55|220:35,1,65
241,42,57237,2,0,P|271:79|139:191,1,260,8|0,0:0|0:0,0:0:0:0:
102,55,57612,5,0,0:0:0:0:
102,55,57799,2,0,P|120:17|155:-3,1,65
135,4,57987,2,0,P|105:42|237:154,1,260,8|0,0:0|0:0,0:0:0:0:
355,87,58362,5,0,0:0:0:0:
355,87,58549,2,0,P|317:105|297:140,1,65
304,120,58737,2,0,P|342:90|454:222,1,260,8|0,0:0|0:0,0:0:0:0:
392,343,59112,5,0,0:0:0:0:
392,343,59299,2,0,P|354:325|334:290,1,65
341,310,59487,2,0,P|379:341|491:209,1,260,8|0,0:0|0:0,0:0:0:0:
417,95,59862,1,0,0:0:0:0:
417,95,60049,5,0,0:0:0:0:
417,95,60237,2,0,P|374:206|258:178,1,260,8|0,0:0|0:0,0:0:0:0:
258,178,60612,2,0,L|384:229,1,130
379,227,60987,1,8,0:0:0:0:
288,353,61174,1,0,0:0:0:0:
144,294,61362,2,0,B|86:271|86:271|55:204,1,130
58,210,61737,2,0,L|118:335,1,130,8|0,0:0|0:0,0:0:0:0:
182,118,62112,5,0,0:0:0:0:
239,240,62299,1,0,0:0:0:0:
239,240,62393,2,8,L|287:197,1,65
386,113,62674,1,8,0:0:0:0:
386,113,62768,1,8,0:0:0:0:
386,113,62862,6,0,L|328:164,1,65
260,187,63049,2,0,L|318:237,1,65
386,113,63237,2,0,L|328:164,1,65,8|0,0:0|0:0,0:0:0:0:
309,230,63424,2,0,L|260:187,1,65
232,260,63612,2,0,L|174:209,1,65
240,349,63799,6,0,L|298:298,1,65
240,349,63987,2,0,L|298:298,1,65,8|0,0:0|0:0,0:0:0:0:
240,349,64174,2,0,L|289:304,1,65
353,344,64362,6,0,L|411:293,1,65
289,304,64549,2,0,L|240:349,1,65
294,210,64737,6,0,L|344:254,1,65,8|0,0:0|0:0,0:0:0:0:
403,299,64924,2,0,L|452:343,1,65
480,268,65112,2,0,L|430:224,1,65
361,162,65299,2,0,L|410:118,1,65
474,53,65487,2,0,L|425:10,1,65,8|0,0:0|0:0,0:0:0:0:
332,11,65674,2,0,L|283:54,1,65
125,113,65862,6,0,L|183:164,1,65
251,187,66049,2,0,L|193:237,1,65
125,113,66237,2,0,L|183:164,1,65,8|0,0:0|0:0,0:0:0:0:
202,230,66424,2,0,L|251:187,1,65
279,260,66612,2,0,L|337:209,1,65
271,349,66799,6,0,L|213:298,1,65
271,349,66987,2,0,L|213:298,1,65,8|0,0:0|0:0,0:0:0:0:
271,349,67174,2,0,L|222:304,1,65
158,344,67362,6,0,L|100:293,1,65
222,304,67549,2,0,L|271:349,1,65
217,210,67737,6,0,L|167:254,1,65,8|0,0:0|0:0,0:0:0:0:
108,299,67924,2,0,L|59:343,1,65
31,268,68112,2,0,L|81:224,1,65
150,162,68299,2,0,L|101:118,1,65
37,53,68487,2,0,L|86:10,1,65,8|0,0:0|0:0,0:0:0:0:
179,11,68674,2,0,L|228:54,1,65
386,270,68862,6,0,L|328:219,1,65
260,196,69049,2,0,L|318:146,1,65
386,270,69237,2,0,L|328:219,1,65,8|0,0:0|0:0,0:0:0:0:
309,153,69424,2,0,L|260:196,1,65
232,123,69612,2,0,L|174:174,1,65
240,34,69799,6,0,L|298:85,1,65
240,34,69987,2,0,L|298:85,1,65,8|0,0:0|0:0,0:0:0:0:
240,34,70174,2,0,L|289:79,1,65
353,39,70362,6,0,L|411:90,1,65
289,79,70549,2,0,L|240:34,1,65
294,173,70737,6,0,L|344:129,1,65,8|0,0:0|0:0,0:0:0:0:
403,84,70924,2,0,L|452:40,1,65
480,115,71112,2,0,L|430:159,1,65
361,221,71299,2,0,L|410:265,1,65
474,330,71487,2,0,L|425:373,1,65,8|0,0:0|0:0,0:0:0:0:
332,372,71674,2,0,L|283:329,1,65
125,270,71862,6,0,L|183:219,1,65
251,196,72049,2,0,L|193:146,1,65
125,270,72237,2,0,L|183:219,1,65,8|0,0:0|0:0,0:0:0:0:
202,153,72424,2,0,L|251:196,1,65
279,123,72612,2,0,L|337:174,1,65
271,34,72799,6,0,L|213:85,1,65
271,34,72987,2,0,L|213:85,1,65,8|0,0:0|0:0,0:0:0:0:
271,34,73174,2,0,L|222:79,1,65
158,39,73362,6,0,L|100:90,1,65
222,79,73549,2,0,L|271:34,1,65
217,173,73737,6,0,L|167:129,1,65,8|0,0:0|0:0,0:0:0:0:
108,84,73924,2,0,L|59:40,1,65
31,115,74112,2,0,L|81:159,1,65
150,221,74299,2,0,L|101:265,1,65,0|8,0:0|0:0,0:0:0:0:
38,317,74487,1,8,0:0:0:0:
236,348,74674,1,8,0:0:0:0:
236,348,74768,1,8,0:0:0:0:
255,191,75174,5,4,0:0:0:0:
255,191,75362,5,4,0:0:0:0:
255,191,75549,5,4,0:0:0:0:
