osu file format v14

[General]
AudioFilename: audio.mp3
AudioLeadIn: 0
PreviewTime: 46913
Countdown: 0
SampleSet: Soft
StackLeniency: 0.8
Mode: 0
LetterboxInBreaks: 0
WidescreenStoryboard: 1

[Editor]
Bookmarks: 12021,29475,38202,46930,55657,64384,73111,86202,96021,104748,113475,122202,157111,173279,211217,223217,229763,242854,251581,260308,269035,287587
DistanceSpacing: 0.7
BeatDivisor: 3
GridSize: 8
TimelineZoom: 2.6

[Metadata]
Title:Is She U.N.Owen?
TitleUnicode:Is She U.N.Owen?
Artist:SHO
ArtistUnicode:SHO
Creator:Halfslashed
Version:Aeril's Lunatic
Source:東方紅魔郷 ~ the Embodiment of Scarlet Devil.
Tags:th6 touhou koumakyou 東方Project flandre scarlet フランドール・スカーレット Furandooru Sukaaretto unknown was her THE BEST OF TOHO TEMPEST sonic hispeed omega hybrid orchestra c75 comiket75 celektus consumerofbean failureatosu consumeroflean aeril instrumental metal corsace cc22 gf tb
BeatmapID:3644427
BeatmapSetID:1779511

[Difficulty]
HPDrainRate:5
CircleSize:3
OverallDifficulty:8
ApproachRate:9.2
SliderMultiplier:1.7
SliderTickRate:1

[Events]
//Background and Video events
0,0,"flandrescarlet-1638853170030-9232.jpg",0,0
//Break Periods
2,96220,104148
2,113675,117239
2,205476,207343
//Storyboard Layer 0 (Background)
//Storyboard Layer 1 (Fail)
//Storyboard Layer 2 (Pass)
//Storyboard Layer 3 (Foreground)
//Storyboard Layer 4 (Overlay)
//Storyboard Sound Samples

[TimingPoints]
22,272.727272727273,5,2,1,50,1,0
22,-125,4,2,1,50,0,0
840,-83.3333333333333,4,2,1,50,0,0
1385,-125,4,2,1,50,0,0
2203,-83.3333333333333,4,2,1,50,0,0
2749,-125,4,2,1,50,0,0
3567,-83.3333333333333,4,2,1,50,0,0
4112,-125,4,2,1,50,0,0
4931,-83.3333333333333,4,2,1,50,0,0
5476,-125,4,2,1,50,0,0
6294,-83.3333333333333,4,2,1,50,0,0
6840,-125,4,2,1,50,0,0
7658,-83.3333333333333,4,2,1,50,0,0
8203,-125,4,2,1,50,0,0
9022,-83.3333333333333,4,2,1,50,0,0
9567,-125,4,2,1,50,0,0
10385,-83.3333333333333,4,2,1,50,0,0
10931,-125,4,2,1,50,0,0
12021,272.727272727273,4,2,1,70,1,0
12021,-83.3333333333333,4,2,1,70,0,0
29475,-100,4,2,1,70,0,0
38202,-125,4,2,1,50,0,0
40384,-100,4,2,1,70,0,0
42566,-125,4,2,1,50,0,0
44748,-100,4,2,1,70,0,0
46930,-83.3333333333333,4,2,1,80,0,1
48702,-83.3333333333333,4,2,2,80,0,1
48771,-83.3333333333333,4,2,1,80,0,1
48975,-83.3333333333333,4,2,2,80,0,1
49043,-83.3333333333333,4,2,1,80,0,1
53066,-83.3333333333333,4,2,2,80,0,1
53134,-83.3333333333333,4,2,1,80,0,1
55657,-100,4,2,1,70,0,0
64384,-125,4,2,1,60,0,0
66566,-100,4,2,1,80,0,0
68748,-125,4,2,1,60,0,0
70930,-100,4,2,1,80,0,0
73111,-100,4,2,1,50,0,0
74202,-100,4,2,3,50,0,0
74293,-100,4,2,2,50,0,0
74475,-100,4,2,3,50,0,0
74566,-100,4,2,2,50,0,0
74748,-100,4,2,3,50,0,0
74839,-100,4,2,2,50,0,0
75021,-100,4,2,3,50,0,0
75111,-100,4,2,2,50,0,0
75293,-100,4,2,1,50,0,0
76384,-100,4,2,4,50,0,0
76475,-100,4,2,1,50,0,0
76657,-100,4,2,4,50,0,0
76748,-100,4,2,1,50,0,0
76930,-83.3333333333333,4,2,1,55,0,0
77475,-83.3333333333333,4,2,1,65,0,0
86202,-100,4,2,1,75,0,0
96021,-100,4,2,1,40,0,0
103657,-100,4,2,2,50,0,0
104202,-100,4,2,1,60,0,0
104748,-83.3333333333333,4,2,1,80,0,1
107066,-83.3333333333333,4,2,2,80,0,1
107134,-83.3333333333333,4,2,1,80,0,1
107339,-83.3333333333333,4,2,2,80,0,1
107407,-83.3333333333333,4,2,1,80,0,1
107611,-83.3333333333333,4,2,2,80,0,1
107680,-83.3333333333333,4,2,1,80,0,1
107884,-83.3333333333333,4,2,2,80,0,1
107952,-83.3333333333333,4,2,1,80,0,1
108157,-83.3333333333333,4,2,2,80,0,1
108225,-83.3333333333333,4,2,1,80,0,1
108430,-83.3333333333333,4,2,2,80,0,1
108498,-83.3333333333333,4,2,1,80,0,1
111430,-83.3333333333333,4,2,2,80,0,1
111498,-83.3333333333333,4,2,1,80,0,1
111702,-83.3333333333333,4,2,2,80,0,1
111771,-83.3333333333333,4,2,1,80,0,1
111975,-83.3333333333333,4,2,2,80,0,1
112043,-83.3333333333333,4,2,1,80,0,1
112248,-83.3333333333333,4,2,2,80,0,1
112316,-83.3333333333333,4,2,1,80,0,1
113475,-125,4,2,3,50,0,0
113748,-125,4,2,4,50,0,0
117839,-125,4,2,3,50,0,0
117975,-125,4,2,1,50,0,0
118111,-125,4,2,4,50,0,0
118248,-125,4,2,1,50,0,0
118384,-125,4,2,4,50,0,0
118521,-125,4,2,1,50,0,0
118657,-125,4,2,4,50,0,0
118793,-125,4,2,1,50,0,0
118930,-125,4,2,4,50,0,0
119066,-125,4,2,1,50,0,0
119202,-125,4,2,4,50,0,0
119339,-125,4,2,1,50,0,0
119475,-125,4,2,4,50,0,0
119611,-125,4,2,1,50,0,0
119748,-125,4,2,4,50,0,0
119884,-125,4,2,1,50,0,0
120021,-125,4,2,4,50,0,0
120157,-125,4,2,1,50,0,0
120293,-125,4,2,4,50,0,0
120430,-125,4,2,1,50,0,0
120566,-125,4,2,4,50,0,0
120702,-125,4,2,1,50,0,0
120839,-125,4,2,4,50,0,0
120975,-125,4,2,1,50,0,0
121111,-125,4,2,4,50,0,0
121248,-125,4,2,1,50,0,0
121384,-125,4,2,4,50,0,0
121521,-125,4,2,1,50,0,0
121657,-125,4,2,4,50,0,0
121793,-125,4,2,1,50,0,0
121930,-125,4,2,4,50,0,0
122066,-125,4,2,1,50,0,0
122202,-100,4,2,1,60,0,0
148384,-83.3333333333333,4,2,1,60,0,0
149611,-100,4,2,1,60,0,0
150975,-83.3333333333333,4,2,1,60,0,0
152066,-100,4,2,1,60,0,0
156021,-83.3333333333333,4,2,1,60,0,0
157111,-83.3333333333333,4,2,1,65,0,0
172384,-83.3333333333333,4,2,3,65,0,0
172566,-83.3333333333333,4,2,2,65,0,0
172930,-83.3333333333333,4,2,1,65,0,0
173067,210.526315789474,4,2,1,65,1,0
173277,222.222222222222,4,2,1,85,1,0
173277,-100,4,2,1,85,0,1
207943,272.727272727273,4,2,1,50,1,1
207943,-125,4,2,1,50,0,0
211215,-100,4,2,1,70,0,0
219943,-100,4,2,1,60,0,0
223215,-100,4,2,1,80,0,0
227715,-100,4,2,2,80,0,0
227783,-100,4,2,1,80,0,0
227988,-100,4,2,2,80,0,0
228056,-100,4,2,1,80,0,0
228261,-100,4,2,2,80,0,0
228329,-100,4,2,1,80,0,0
228533,-100,4,2,2,80,0,0
228602,-100,4,2,1,80,0,0
229761,-100,4,2,1,50,0,0
230852,-100,4,2,3,50,0,0
230943,-100,4,2,2,50,0,0
231124,-100,4,2,3,50,0,0
231215,-100,4,2,2,50,0,0
231397,-100,4,2,3,50,0,0
231488,-100,4,2,2,50,0,0
231670,-100,4,2,3,50,0,0
231761,-100,4,2,2,50,0,0
231943,-100,4,2,1,50,0,0
233033,-100,4,2,3,50,0,0
233124,-100,4,2,1,50,0,0
233306,-100,4,2,3,50,0,0
233397,-100,4,2,1,50,0,0
233579,-83.3333333333333,4,2,1,50,0,0
234124,-83.3333333333333,4,2,1,65,0,0
242852,-100,4,2,1,75,0,0
251579,-83.3333333333333,4,2,1,80,0,1
253897,-83.3333333333333,4,2,2,80,0,1
253965,-83.3333333333333,4,2,1,80,0,1
254170,-83.3333333333333,4,2,2,80,0,1
254238,-83.3333333333333,4,2,1,80,0,1
254443,-83.3333333333333,4,2,2,80,0,1
254511,-83.3333333333333,4,2,1,80,0,1
254715,-83.3333333333333,4,2,2,80,0,1
254783,-83.3333333333333,4,2,1,80,0,1
254988,-83.3333333333333,4,2,2,80,0,1
255056,-83.3333333333333,4,2,1,80,0,1
255261,-83.3333333333333,4,2,2,80,0,1
255329,-83.3333333333333,4,2,1,80,0,1
258261,-83.3333333333333,4,2,2,80,0,1
258329,-83.3333333333333,4,2,1,80,0,1
258533,-83.3333333333333,4,2,2,80,0,1
258602,-83.3333333333333,4,2,1,80,0,1
258806,-83.3333333333333,4,2,2,80,0,1
258874,-83.3333333333333,4,2,1,80,0,1
259079,-83.3333333333333,4,2,2,80,0,1
259147,-100,4,2,1,80,0,1
260033,-100,4,2,1,80,0,1
260306,-83.3333333333333,4,2,1,90,0,1
260313,-83.3333333333333,4,2,1,90,0,1
262624,-83.3333333333333,4,2,2,90,0,1
262693,-83.3333333333333,4,2,1,90,0,1
262897,-83.3333333333333,4,2,2,90,0,1
262965,-83.3333333333333,4,2,1,90,0,1
263170,-83.3333333333333,4,2,2,90,0,1
263238,-83.3333333333333,4,2,1,90,0,1
263443,-83.3333333333333,4,2,2,90,0,1
263511,-83.3333333333333,4,2,1,90,0,1
263715,-83.3333333333333,4,2,2,90,0,1
263783,-83.3333333333333,4,2,1,90,0,1
263988,-83.3333333333333,4,2,2,90,0,1
264056,-83.3333333333333,4,2,1,90,0,1
266988,-83.3333333333333,4,2,2,90,0,1
267056,-83.3333333333333,4,2,1,90,0,1
267261,-83.3333333333333,4,2,2,90,0,1
267329,-83.3333333333333,4,2,1,90,0,1
267533,-83.3333333333333,4,2,2,90,0,1
267602,-83.3333333333333,4,2,1,90,0,1
267806,-83.3333333333333,4,2,2,90,0,1
267874,-83.3333333333333,4,2,1,90,0,1
269033,532.150776053215,4,2,1,60,1,1
269033,-100,4,2,1,60,0,0
269965,-100,4,2,1,5,0,0
270097,-66.6666666666667,4,2,1,60,0,0
272211,-100,4,2,1,60,0,0
273282,-100,4,2,1,60,0,0
273290,558.139534883721,4,2,1,60,1,0
273848,600,4,2,1,60,1,0
273848,-100,4,2,1,60,0,0
274248,750,4,2,1,60,1,0
274269,-100,4,2,1,60,0,0
274498,750,4,2,1,60,1,0
274498,-100,4,2,1,60,0,0
274873,800,4,2,1,60,1,0
274873,-100,4,2,1,60,0,0
275273,923.076923076923,4,2,1,60,1,0
275273,-100,4,2,1,60,0,0
275734,960,4,2,1,60,1,0
275734,-100,4,2,1,60,0,0
276054,1200,4,2,1,60,1,0
276254,995.850622406639,4,2,1,70,1,0
276254,-100,4,2,1,70,0,0
276257,-100,4,2,1,70,0,0
277249,764.331210191083,4,2,1,70,1,0
277257,-100,4,2,1,70,0,0
277503,693.64161849711,4,2,1,70,1,0
277737,-100,4,2,1,70,0,0
278181,-100,4,2,1,70,0,0
278196,631.578947368421,4,2,1,70,1,0
278609,-100,4,2,1,70,0,0
278617,588.235294117647,4,2,1,70,1,0
278813,545.454545454546,4,2,1,70,1,0
279009,-100,4,2,1,70,0,0
279358,521.739130434783,4,2,1,70,1,0
279372,-100,4,2,1,70,0,0
279687,-100,4,2,1,70,0,0
279705,718.562874251497,4,2,1,70,1,0
279944,666.666666666667,4,2,1,70,1,0
279947,-100,4,2,1,70,0,0
280170,-100,4,2,1,70,0,0
280604,-100,4,2,1,70,0,0
280610,558.139534883721,4,2,1,70,1,0
280889,521.739130434783,4,2,1,70,1,0
281149,576.923076923077,4,2,1,70,1,0
281436,-100,4,2,1,70,0,0
281437,609.137055837563,4,2,1,70,1,0
281736,-100,4,2,1,70,0,0
281741,631.578947368421,4,2,1,70,1,0
281843,-100,4,2,1,70,0,0
282056,406.779661016949,4,2,1,70,1,0
282259,415.22491349481,4,2,1,70,1,0
282669,-100,4,2,1,70,0,0
282674,428.571428571429,4,2,1,70,1,0
283097,-100,4,2,1,70,0,0
283497,-100,4,2,1,70,0,0
283531,400,4,2,1,70,1,0
283931,375,4,2,1,70,1,0
284118,436.363636363636,4,2,1,70,1,0
284247,-100,4,2,1,70,0,0
284554,461.538461538462,4,2,1,70,1,0
284647,-100,4,2,1,70,0,0
285015,480,4,2,1,70,1,0
285247,-100,4,2,1,70,0,0
285255,500,4,2,1,70,1,0
285599,-100,4,2,1,70,0,0
285741,-100,4,2,1,70,0,0
285755,369.230769230769,4,2,1,70,1,0
286124,601.642483981269,4,2,1,70,1,0
286725,857.142857142857,4,2,1,90,1,0
286725,-25,4,2,1,90,0,0

[Colours]
Combo1 : 129,255,74
Combo2 : 231,5,11
Combo3 : 255,214,47
Combo4 : 155,130,255

[HitObjects]
28,123,22,6,0,L|40:187,5,34,6|2|2|2|2|2,3:2|1:2|1:2|3:2|1:2|1:2,0:0:0:0:
106,58,431,2,0,L|122:-5,5,34,2|2|2|2|2|2,3:2|1:2|1:2|3:2|1:2|1:2,0:0:0:0:
207,61,840,2,0,B|280:43|280:43|288:45|288:45|385:21,2,152.999995330811,6|6|6,3:2|3:2|3:2,0:0:0:0:
313,147,1385,6,0,L|377:159,5,34,6|2|2|2|2|2,3:2|1:2|1:2|3:2|1:2|1:2,0:0:0:0:
347,252,1794,2,0,L|396:239,5,34,2|2|2|2|2|2,3:2|1:2|1:2|3:2|1:2|1:2,0:0:0:0:
415,328,2203,2,0,B|433:255|433:255|431:247|431:247|455:150,2,152.999995330811,6|6|6,3:2|3:2|3:2,0:0:0:0:
235,343,2749,6,0,L|171:331,5,34,6|2|2|2|2|2,3:2|1:2|1:2|3:2|1:2|1:2,0:0:0:0:
219,239,3158,2,0,L|236:187,5,34,2|2|2|2|2|2,3:2|1:2|1:2|3:2|1:2|1:2,0:0:0:0:
299,136,3567,2,0,B|231:152|231:152|223:150|223:150|150:168,2,152.999995330811,6|6|6,3:2|3:2|3:2,0:0:0:0:
234,11,4112,6,0,L|182:-2,5,34,6|2|2|2|2|2,3:2|1:2|1:2|3:2|1:2|1:2,0:0:0:0:
135,70,4522,2,0,L|83:83,5,34,2|2|2|2|2|2,3:2|1:2|1:2|3:2|1:2|1:2,0:0:0:0:
35,15,4931,2,0,B|53:88|53:88|51:96|51:96|75:193,2,152.999995330811,6|6|6,3:2|3:2|3:2,0:0:0:0:
22,251,5476,6,0,L|17:306,5,34,6|2|2|2|2|2,3:2|1:2|1:2|3:2|1:2|1:2,0:0:0:0:
120,238,5885,2,0,L|171:256,5,34,2|2|2|2|2|2,3:2|1:2|1:2|3:2|1:2|1:2,0:0:0:0:
187,333,6294,2,0,B|114:351|114:351|106:349|106:349|9:373,2,152.999995330811,6|6|6,3:2|3:2|3:2,0:0:0:0:
363,340,6840,6,0,L|358:285,5,34,6|2|2|2|2|2,3:2|1:2|1:2|3:2|1:2|1:2,0:0:0:0:
411,223,7249,2,0,L|462:205,5,34,2|2|2|2|2|2,3:2|1:2|1:2|3:2|1:2|1:2,0:0:0:0:
355,148,7658,2,0,B|373:75|373:75|371:67|371:67|395:-30,2,152.999995330811,6|6|6,3:2|3:2|3:2,0:0:0:0:
502,158,8203,6,0,L|514:222,5,34,6|2|2|2|2|2,3:2|1:2|1:2|3:2|1:2|1:2,0:0:0:0:
419,236,8612,2,0,L|436:288,5,34,2|2|2|2|2|2,3:2|1:2|1:2|3:2|1:2|1:2,0:0:0:0:
364,341,9022,2,0,B|437:359|437:359|445:357|445:357|542:381,2,152.999995330811,6|6|6,3:2|3:2|3:2,0:0:0:0:
233,235,9567,6,0,L|222:181,5,34,6|2|2|2|2|2,3:2|1:2|1:2|3:2|1:2|1:2,0:0:0:0:
284,125,9976,2,0,L|304:94,5,34,2|2|2|2|2|2,3:2|1:2|1:2|3:2|1:2|1:2,0:0:0:0:
245,16,10385,6,0,P|171:23|132:125,2,152.999995330811,6|6|6,3:2|3:2|3:2,0:0:0:0:
407,374,12021,6,0,P|406:316|461:265,1,101.999996887207,6|8,3:2|2:2,0:0:0:0:
484,281,12225,1,2,3:2:0:0:
484,281,12293,2,0,P|429:260|401:212,1,101.999996887207,0|8,3:3|2:2,0:0:0:0:
387,125,12566,2,0,P|462:119|484:41,2,152.999995330811,2|2|10,3:2|3:2|3:2,0:0:0:0:
274,30,13111,6,0,L|141:54,1,101.999996887207,2|8,3:2|3:2,0:0:0:0:
124,33,13316,1,2,3:2:0:0:
124,33,13384,2,0,L|-1:56,1,101.999996887207,0|10,3:3|3:2,0:0:0:0:
24,154,13657,2,0,P|81:177|106:268,1,152.999995330811,2|2,3:2|3:2,0:0:0:0:
229,353,14066,1,10,3:2:0:0:
328,376,14202,6,0,P|324:316|293:277,1,101.999996887207,2|8,3:2|3:2,0:0:0:0:
256,265,14407,1,2,3:2:0:0:
256,265,14475,2,0,P|306:242|339:189,1,101.999996887207,0|10,3:3|3:2,0:0:0:0:
378,113,14748,2,0,P|449:120|500:192,2,152.999995330811,2|2|10,3:2|3:2|3:2,0:0:0:0:
277,8,15293,6,0,L|246:133,1,101.999996887207,2|8,3:2|3:2,0:0:0:0:
212,137,15498,1,2,3:2:0:0:
212,137,15566,2,0,L|243:262,1,101.999996887207,0|10,3:3|3:2,0:0:0:0:
256,336,15839,2,0,P|314:314|423:379,1,152.999995330811,2|2,3:2|3:2,0:0:0:0:
473,159,16248,1,10,3:2:0:0:
486,58,16384,6,0,P|431:61|387:116,1,101.999996887207,6|8,3:2|3:2,0:0:0:0:
382,142,16589,1,2,3:2:0:0:
382,142,16657,2,0,P|336:101|269:103,1,101.999996887207,0|10,3:3|3:2,0:0:0:0:
201,131,16930,2,0,P|189:74|105:47,2,152.999995330811,2|2|10,3:2|3:2|3:2,0:0:0:0:
40,174,17475,6,0,L|63:312,1,101.999996887207,2|8,3:2|3:2,0:0:0:0:
97,307,17680,1,2,3:2:0:0:
97,307,17748,2,0,L|235:284,1,101.999996887207,0|10,3:3|3:2,0:0:0:0:
275,223,18021,2,0,P|243:290|273:374,1,152.999995330811,2|2,3:2|3:2,0:0:0:0:
415,382,18430,1,10,3:2:0:0:
355,299,18566,6,0,P|394:279|466:297,1,101.999996887207,2|8,3:2|3:2,0:0:0:0:
486,250,18771,1,2,3:2:0:0:
486,250,18839,2,0,P|453:208|460:142,1,101.999996887207,0|10,3:3|3:2,0:0:0:0:
476,62,19111,2,0,P|444:116|342:98,2,152.999995330811,2|2|10,3:2|3:2|3:2,0:0:0:0:
306,4,19657,6,0,L|183:50,1,101.999996887207,6|8,3:2|3:2,0:0:0:0:
161,32,19861,1,2,3:2:0:0:
161,32,19930,2,0,L|207:155,1,101.999996887207,0|10,3:3|3:2,0:0:0:0:
127,201,20202,2,0,P|67:223|6:192,1,101.999996887207,2|0,3:2|1:1,0:0:0:0:
41,380,20475,1,0,1:1:0:0:
48,355,20543,1,8,2:3:0:0:
64,336,20611,1,8,2:3:0:0:
86,323,20679,1,4,2:3:0:0:
111,319,20748,6,0,P|172:336|208:385,1,101.999996887207,6|8,3:2|3:2,0:0:0:0:
249,382,20952,1,2,3:2:0:0:
249,382,21021,2,0,L|374:366,1,101.999996887207,0|10,3:3|3:2,0:0:0:0:
451,381,21293,2,0,P|460:339|385:240,1,152.999995330811,2|2,3:2|3:2,0:0:0:0:
398,95,21702,1,10,3:2:0:0:
337,177,21839,6,0,P|288:208|226:199,1,101.999996887207,2|8,3:2|3:2,0:0:0:0:
202,192,22043,1,2,3:2:0:0:
202,192,22111,2,0,L|172:82,1,101.999996887207,0|10,3:3|3:2,0:0:0:0:
7,86,22384,1,2,3:2:0:0:
7,86,22589,1,2,3:2:0:0:
7,86,22793,1,10,3:2:0:0:
61,245,22930,6,0,L|48:373,1,101.999996887207,2|8,3:2|3:2,0:0:0:0:
92,384,23134,1,2,3:2:0:0:
92,384,23202,2,0,P|149:373|187:330,1,101.999996887207,0|10,3:3|3:2,0:0:0:0:
262,283,23475,2,0,P|328:313|350:411,1,152.999995330811,2|2,3:2|3:2,0:0:0:0:
467,280,23884,1,10,3:2:0:0:
430,184,24021,6,0,L|310:204,1,101.999996887207,2|8,3:2|3:2,0:0:0:0:
284,192,24225,1,2,3:2:0:0:
284,192,24293,2,0,P|257:131|272:74,1,101.999996887207,0|10,3:3|3:2,0:0:0:0:
386,4,24566,1,2,3:2:0:0:
386,4,24771,1,2,3:2:0:0:
386,4,24975,1,10,3:2:0:0:
432,136,25111,6,0,P|427:195|465:245,1,101.999996887207,6|8,3:2|3:2,0:0:0:0:
416,272,25316,1,2,3:2:0:0:
416,272,25384,2,0,L|306:247,1,101.999996887207,0|10,3:3|3:2,0:0:0:0:
219,215,25657,2,0,P|172:266|191:388,1,152.999995330811,2|2,3:2|3:2,0:0:0:0:
40,259,26066,1,10,3:2:0:0:
28,157,26202,6,0,P|69:144|104:73,1,101.999996887207,2|8,3:2|3:2,0:0:0:0:
125,53,26407,1,2,3:2:0:0:
125,53,26475,2,0,L|146:171,1,101.999996887207,0|10,3:3|3:2,0:0:0:0:
221,307,26748,1,2,3:2:0:0:
221,307,26953,1,2,3:2:0:0:
221,307,27157,1,10,3:2:0:0:
379,281,27293,6,0,L|497:303,1,101.999996887207,2|8,3:2|3:2,0:0:0:0:
510,259,27498,1,2,3:2:0:0:
510,259,27566,2,0,P|514:209|471:147,1,101.999996887207,0|10,3:3|3:2,0:0:0:0:
503,62,27839,2,0,P|461:116|373:111,1,152.999995330811,2|2,3:2|3:2,0:0:0:0:
256,28,28248,1,10,3:2:0:0:
190,105,28384,5,8,2:3:0:0:
269,169,28521,1,4,2:3:0:0:
272,178,28589,1,8,2:3:0:0:
275,187,28657,2,0,L|260:327,1,101.999996887207,8|8,2:3|2:3,0:0:0:0:
179,345,28930,1,8,2:3:0:0:
154,338,28998,1,8,2:3:0:0:
135,322,29066,1,4,2:3:0:0:
122,300,29134,1,8,2:3:0:0:
118,275,29202,2,0,L|106:333,3,50.9999984436036,8|4|8|8,2:3|2:3|2:3|2:3,0:0:0:0:
45,207,29475,6,0,L|-10:224,3,42.5,14|0|0|0,3:2|3:3|3:3|3:3,0:0:0:0:
102,137,29748,2,0,L|157:154,3,42.5,10|0|0|0,3:2|3:3|3:3|3:3,0:0:0:0:
193,228,30021,2,0,L|205:268,3,42.5,10|0|0|0,3:2|3:3|3:3|3:3,0:0:0:0:
291,311,30293,2,0,L|303:270,3,42.5,10|0|0|0,3:2|3:3|3:3|3:3,0:0:0:0:
391,243,30566,5,10,3:2:0:0:
400,246,30634,1,0,3:3:0:0:
409,249,30702,1,0,3:3:0:0:
434,344,30839,1,10,3:2:0:0:
425,347,30907,1,0,3:3:0:0:
416,350,30975,1,0,3:3:0:0:
512,269,31111,2,0,L|499:228,2,42.5,10|0|0,3:2|3:3|3:3,0:0:0:0:
435,152,31384,2,0,L|447:111,2,42.5,10|0|0,3:2|3:3|3:3,0:0:0:0:
381,34,31657,6,0,L|340:46,3,42.5,10|0|0|0,3:2|3:3|3:3|3:3,0:0:0:0:
251,83,31930,2,0,L|196:66,3,42.5,10|0|0|0,3:2|3:3|3:3|3:3,0:0:0:0:
146,137,32202,2,0,L|158:177,3,42.5,10|0|0|0,3:2|3:3|3:3|3:3,0:0:0:0:
56,112,32475,2,0,L|68:72,3,42.5,10|0|0|0,3:2|3:3|3:3|3:3,0:0:0:0:
22,199,32748,5,10,3:2:0:0:
25,208,32816,1,0,3:3:0:0:
28,217,32884,1,0,3:3:0:0:
93,292,33021,1,10,3:2:0:0:
90,301,33089,1,0,3:3:0:0:
87,310,33157,1,0,3:3:0:0:
168,367,33293,1,10,3:2:0:0:
176,365,33361,1,0,3:3:0:0:
184,363,33430,2,0,L|288:375,1,85,0|10,3:3|3:2,0:0:0:0:
274,168,33839,6,0,L|262:128,3,42.5,14|0|0|0,3:2|3:3|3:3|3:3,0:0:0:0:
330,66,34112,2,0,L|342:26,3,42.5,10|0|0|0,3:2|3:3|3:3|3:3,0:0:0:0:
422,109,34384,2,0,L|463:121,3,42.5,10|0|0|0,3:2|3:3|3:3|3:3,0:0:0:0:
461,218,34657,2,0,L|516:201,3,42.5,10|0|0|0,3:2|3:3|3:3|3:3,0:0:0:0:
448,314,34930,5,10,3:2:0:0:
439,311,34998,1,0,3:3:0:0:
430,308,35066,1,0,3:3:0:0:
321,262,35202,1,10,3:2:0:0:
312,265,35270,1,0,3:3:0:0:
303,268,35338,1,0,3:3:0:0:
269,366,35475,2,0,L|214:349,2,42.5,10|0|0,3:2|3:3|3:3,0:0:0:0:
162,271,35748,2,0,L|203:259,2,42.5,10|0|0,3:2|3:3|3:3,0:0:0:0:
87,207,36021,6,0,L|99:167,3,42.5,10|0|0|0,3:2|3:3|3:3|3:3,0:0:0:0:
31,105,36294,2,0,L|19:65,3,42.5,10|0|0|0,3:2|3:3|3:3|3:3,0:0:0:0:
101,9,36566,2,0,L|142:21,3,42.5,10|0|0|0,3:2|3:3|3:3|3:3,0:0:0:0:
184,108,36839,2,0,L|239:91,3,42.5,10|0|0|0,3:2|3:3|3:3|3:3,0:0:0:0:
304,31,37111,5,10,3:2:0:0:
307,22,37179,1,0,3:3:0:0:
310,13,37247,1,0,3:3:0:0:
392,90,37384,1,10,3:2:0:0:
395,99,37452,1,0,3:3:0:0:
398,108,37520,1,0,3:3:0:0:
341,194,37657,2,0,L|363:249,3,42.5,8|8|8|8,2:3|2:3|2:3|2:3,0:0:0:0:
352,320,37930,2,0,L|374:375,3,42.5,4|4|4|4,2:3|2:3|2:3|2:3,0:0:0:0:
449,384,38202,6,0,P|490:343|470:247,1,136,6|2,3:2|2:2,0:0:0:0:
487,268,38748,2,0,L|351:239,1,136,2|2,1:2|2:2,0:0:0:0:
403,58,39293,2,0,B|330:66|368:102|248:108,1,136,2|2,3:2|3:2,0:0:0:0:
277,105,39702,1,2,3:2:0:0:
155,6,39839,2,0,P|184:59|184:92,1,68,2|0,1:2|1:1,0:0:0:0:
65,163,40111,1,2,1:2:0:0:
65,163,40384,6,0,L|156:180,1,85,6|2,3:2|1:2,0:0:0:0:
90,336,40657,2,0,L|-1:353,1,85,0|2,3:3|1:2,0:0:0:0:
180,280,40930,1,2,3:2:0:0:
280,304,41066,1,2,1:2:0:0:
280,304,41134,1,2,2:2:0:0:
280,304,41202,2,0,L|371:321,1,85,2|2,3:2|1:2,0:0:0:0:
208,384,41475,5,2,3:2:0:0:
208,384,41611,1,2,1:2:0:0:
372,304,41748,2,0,L|281:287,1,85,2|2,3:2|1:2,0:0:0:0:
170,216,42021,2,0,L|190:119,1,85,2|0,3:2|1:1,0:0:0:0:
64,75,42293,2,0,L|72:31,3,42.5,8|8|4|4,2:3|2:3|2:3|2:3,0:0:0:0:
25,148,42566,6,0,P|49:229|11:298,1,136,6|2,3:2|2:2,0:0:0:0:
32,274,43111,2,0,L|187:310,1,136,2|2,1:2|2:2,0:0:0:0:
420,179,43657,2,0,B|347:187|385:223|265:229,1,136,2|2,3:2|3:2,0:0:0:0:
294,226,44066,1,2,3:2:0:0:
204,146,44202,2,0,P|204:111|236:62,1,68,2|0,1:2|1:1,0:0:0:0:
381,14,44475,1,2,1:2:0:0:
381,14,44748,6,0,L|394:111,1,85,6|2,3:2|1:2,0:0:0:0:
500,237,45021,2,0,L|487:334,1,85,2|2,2:2|1:2,0:0:0:0:
285,242,45293,1,2,2:2:0:0:
397,200,45430,1,2,1:2:0:0:
397,200,45498,1,2,3:2:0:0:
397,200,45566,2,0,L|384:297,1,85,2|2,2:2|1:2,0:0:0:0:
208,318,45839,5,0,1:1:0:0:
208,318,45907,1,0,1:1:0:0:
208,318,45975,2,0,P|166:292|113:291,1,85,8|4,2:3|2:3,0:0:0:0:
47,227,46248,1,0,1:1:0:0:
54,185,46316,1,0,1:1:0:0:
61,143,46384,1,8,2:3:0:0:
118,57,46521,2,0,L|108:-6,5,42.5,8|8|4|4|4|4,2:3|2:3|2:3|2:3|2:3|2:3,0:0:0:0:
186,106,46930,6,0,P|246:93|289:35,1,101.999996887207,6|0,3:2|1:1,0:0:0:0:
446,47,47202,2,0,P|407:14|357:7,1,101.999996887207,2|0,3:2|1:1,0:0:0:0:
367,108,47475,2,0,L|392:212,1,101.999996887207,2|0,3:2|1:1,0:0:0:0:
297,383,47748,2,0,L|320:283,1,101.999996887207,2|0,3:2|1:1,0:0:0:0:
243,216,48021,6,0,L|143:239,1,101.999996887207,2|0,3:2|1:1,0:0:0:0:
188,88,48293,1,2,3:2:0:0:
188,88,48430,1,2,1:2:0:0:
59,159,48566,2,0,P|39:239|63:287,1,101.999996887207,2|0,3:2|3:3,0:0:0:0:
174,359,48839,2,0,L|274:382,1,101.999996887207,2|0,3:2|3:3,0:0:0:0:
423,310,49111,6,0,P|430:244|402:199,1,101.999996887207,6|2,3:2|1:2,0:0:0:0:
346,71,49384,2,0,P|399:110|452:108,1,101.999996887207,2|2,3:2|1:2,0:0:0:0:
217,12,49657,1,2,3:2:0:0:
208,152,49793,1,2,1:2:0:0:
208,152,49861,1,2,2:2:0:0:
208,152,49930,2,0,L|73:172,1,101.999996887207,2|2,3:2|1:2,0:0:0:0:
45,14,50202,5,2,3:2:0:0:
108,77,50338,1,2,1:2:0:0:
107,167,50475,1,2,3:2:0:0:
44,230,50611,1,2,1:2:0:0:
70,316,50748,2,0,B|165:332|165:332|180:346|180:346|302:361,1,203.999993774414,8|4,3:3|2:3,0:0:0:0:
441,286,51157,5,4,2:3:0:0:
434,296,51225,1,4,2:3:0:0:
427,306,51293,2,0,L|401:188,1,101.999996887207,6|0,3:2|1:1,0:0:0:0:
482,12,51566,2,0,L|456:130,1,101.999996887207,2|0,3:2|1:1,0:0:0:0:
357,113,51839,2,0,P|316:142|257:142,1,101.999996887207,2|0,3:2|1:1,0:0:0:0:
119,20,52111,2,0,P|169:22|210:51,1,101.999996887207,2|0,3:2|1:1,0:0:0:0:
164,143,52384,6,0,P|123:174|31:168,1,101.999996887207,2|0,3:2|1:1,0:0:0:0:
0,304,52657,1,2,3:2:0:0:
0,304,52793,1,2,1:2:0:0:
124,339,52930,2,0,L|236:353,1,101.999996887207,2|0,3:2|3:3,0:0:0:0:
316,242,53202,2,0,L|302:130,1,101.999996887207,2|0,3:2|3:1,0:0:0:0:
332,0,53475,6,0,P|389:17|424:69,1,101.999996887207,6|0,3:2|1:1,0:0:0:0:
512,147,53748,2,0,P|455:164|420:216,1,101.999996887207,8|0,2:3|1:1,0:0:0:0:
512,332,54021,1,0,3:3:0:0:
363,319,54157,1,0,1:1:0:0:
363,319,54225,1,0,2:2:0:0:
363,319,54293,2,0,L|246:300,1,101.999996887207,4|0,3:3|1:1,0:0:0:0:
308,164,54566,5,0,3:3:0:0:
269,181,54634,1,0,3:3:0:0:
227,177,54702,1,0,1:1:0:0:
193,153,54770,1,0,1:1:0:0:
175,116,54838,1,8,2:3:0:0:
81,73,54975,1,0,1:1:0:0:
74,115,55043,1,0,1:1:0:0:
67,157,55111,1,4,2:3:0:0:
18,247,55248,2,0,L|28:310,5,50.9999984436036,0|0|8|8|4|4,1:1|1:1|2:3|2:3|2:3|2:3,0:0:0:0:
87,361,55657,6,0,L|128:349,3,42.5,14|0|0|0,3:2|3:3|3:3|3:3,0:0:0:0:
175,263,55929,2,0,L|230:280,3,42.5,10|0|0|0,3:2|3:3|3:3|3:3,0:0:0:0:
295,228,56202,2,0,L|307:188,3,42.5,10|0|0|0,3:2|3:3|3:3|3:3,0:0:0:0:
265,105,56475,2,0,L|253:65,3,42.5,10|0|0|0,3:2|3:3|3:3|3:3,0:0:0:0:
327,8,56748,5,10,3:2:0:0:
336,11,56816,1,0,3:3:0:0:
345,14,56884,1,0,3:3:0:0:
414,83,57021,1,10,3:2:0:0:
423,80,57089,1,0,3:3:0:0:
432,77,57157,1,0,3:3:0:0:
502,143,57293,2,0,L|490:183,2,42.5,10|0|0,3:2|3:3|3:3,0:0:0:0:
431,255,57566,2,0,L|443:295,2,42.5,10|0|0,3:2|3:3|3:3,0:0:0:0:
356,334,57839,6,0,L|344:374,3,42.5,10|0|0|0,3:2|3:3|3:3|3:3,0:0:0:0:
294,256,58112,2,0,L|334:244,3,42.5,10|0|0|0,3:2|3:3|3:3|3:3,0:0:0:0:
205,299,58384,2,0,L|193:259,3,42.5,10|0|0|0,3:2|3:3|3:3|3:3,0:0:0:0:
151,377,58657,2,0,L|111:365,3,42.5,10|0|0|0,3:2|3:3|3:3|3:3,0:0:0:0:
21,328,58930,5,10,3:2:0:0:
18,337,58998,1,0,3:3:0:0:
15,346,59066,1,0,3:3:0:0:
96,263,59202,1,10,3:2:0:0:
93,254,59270,1,0,3:3:0:0:
90,245,59338,1,0,3:3:0:0:
38,161,59475,1,10,3:2:0:0:
41,152,59543,1,0,3:3:0:0:
44,143,59611,2,0,L|32:18,1,85,0|10,3:3|3:2,0:0:0:0:
227,20,60021,6,0,L|215:60,3,42.5,14|0|0|0,3:2|3:3|3:3|3:3,0:0:0:0:
257,143,60294,2,0,L|269:183,3,42.5,10|0|0|0,3:2|3:3|3:3|3:3,0:0:0:0:
357,143,60566,2,0,L|398:131,3,42.5,10|0|0|0,3:2|3:3|3:3|3:3,0:0:0:0:
445,45,60838,2,0,L|500:62,3,42.5,10|0|0|0,3:2|3:3|3:3|3:3,0:0:0:0:
496,149,61111,5,10,3:2:0:0:
493,158,61179,1,0,3:3:0:0:
490,167,61247,1,0,3:3:0:0:
420,245,61384,1,10,3:2:0:0:
417,236,61452,1,0,3:3:0:0:
414,227,61521,1,0,3:3:0:0:
389,337,61657,2,0,L|349:325,2,42.5,10|0|0,3:2|3:3|3:3,0:0:0:0:
277,266,61930,2,0,L|237:278,2,42.5,10|0|0,3:2|3:3|3:3,0:0:0:0:
161,214,62202,6,0,L|149:174,3,42.5,10|0|0|0,3:2|3:3|3:3|3:3,0:0:0:0:
142,307,62475,2,0,L|102:295,3,42.5,10|0|0|0,3:2|3:3|3:3|3:3,0:0:0:0:
2,292,62748,2,0,L|14:252,3,42.5,10|0|0|0,3:2|3:3|3:3|3:3,0:0:0:0:
0,158,63021,2,0,L|40:146,3,42.5,10|0|0|0,3:2|3:3|3:3|3:3,0:0:0:0:
95,70,63293,5,10,3:2:0:0:
104,73,63361,1,0,3:3:0:0:
113,76,63429,1,0,3:3:0:0:
189,141,63566,1,10,3:2:0:0:
198,138,63634,1,0,3:3:0:0:
207,135,63702,1,0,3:3:0:0:
281,59,63839,2,0,L|338:73,3,42.5,8|8|8|8,2:3|2:3|2:3|2:3,0:0:0:0:
362,142,64111,2,0,L|419:156,3,42.5,4|4|4|4,2:3|2:3|2:3|2:3,0:0:0:0:
478,112,64384,6,0,P|441:165|461:260,1,136,6|2,3:2|1:2,0:0:0:0:
485,364,64930,2,0,L|325:332,1,136,2|0,3:2|1:1,0:0:0:0:
222,294,65475,2,0,B|156:309|190:338|97:360,1,136,2|2,3:2|1:2,0:0:0:0:
104,358,65884,1,2,3:2:0:0:
16,285,66021,2,0,P|18:244|44:201,1,68,2|0,3:2|1:1,0:0:0:0:
28,219,66225,1,0,1:1:0:0:
28,219,66293,1,10,2:3:0:0:
90,145,66566,6,0,L|76:55,1,85,6|0,3:2|1:1,0:0:0:0:
256,0,66839,2,0,L|242:90,1,85,0|0,3:2|1:1,0:0:0:0:
186,179,67111,1,0,3:3:0:0:
273,263,67248,1,2,1:2:0:0:
273,263,67316,1,2,3:2:0:0:
273,263,67384,2,0,L|395:248,1,85,2|2,3:2|1:2,0:0:0:0:
471,151,67657,5,2,3:2:0:0:
471,151,67793,1,2,1:2:0:0:
392,272,67930,2,0,L|307:282,1,85,2|2,3:2|1:2,0:0:0:0:
165,327,68202,2,0,L|179:237,1,85,2|0,3:2|1:1,0:0:0:0:
266,112,68475,2,0,L|307:119,3,42.5,8|8|4|4,3:3|2:3|2:3|2:3,0:0:0:0:
358,51,68748,6,0,P|439:27|508:65,1,136,6|2,3:2|1:2,0:0:0:0:
447,174,69293,2,0,L|473:336,1,136,2|2,3:2|1:2,0:0:0:0:
343,253,69839,2,0,B|308:188|278:221|230:145,1,136,2|2,3:2|1:2,0:0:0:0:
216,58,70248,1,0,1:1:0:0:
216,58,70316,1,0,1:1:0:0:
216,58,70384,2,0,P|177:80|140:84,1,68,8|8,2:3|2:3,0:0:0:0:
58,36,70657,1,4,2:3:0:0:
58,36,70930,6,0,L|45:155,1,85,6|2,3:2|1:2,0:0:0:0:
129,284,71202,2,0,L|142:403,1,85,2|2,3:2|1:2,0:0:0:0:
132,180,71475,1,2,3:2:0:0:
228,241,71611,1,2,1:2:0:0:
228,241,71680,1,2,3:2:0:0:
228,241,71748,2,0,L|312:250,1,85,2|2,3:2|1:2,0:0:0:0:
382,363,72021,5,2,3:2:0:0:
414,371,72089,1,0,1:1:0:0:
448,367,72157,1,0,1:1:0:0:
478,351,72225,1,0,1:1:0:0:
500,326,72293,1,0,1:1:0:0:
453,220,72430,1,0,1:1:0:0:
449,206,72498,1,0,1:1:0:0:
445,192,72566,2,0,L|422:244,2,42.5,0|0|0,3:3|1:1|1:1,0:0:0:0:
486,110,72839,2,0,L|503:71,1,42.5,0|0,1:1|1:1,0:0:0:0:
414,68,72975,2,0,L|431:29,1,42.5,0|0,1:1|1:1,0:0:0:0:
344,23,73111,5,6,3:2:0:0:
62,180,75293,1,6,3:2:0:0:
403,350,76930,2,0,P|452:342|476:326,5,67.9999979248048,2|2|2|8|8|4,1:2|1:2|1:2|2:3|2:3|2:3,0:0:0:0:
412,257,77475,6,0,P|419:224|443:195,2,67.9999979248048,6|2|2,3:2|2:2|2:2,0:0:0:0:
320,230,77748,2,0,P|309:197|315:160,2,67.9999979248048,10|2|2,2:2|2:2|2:2,0:0:0:0:
248,289,78021,2,0,P|255:322|279:351,2,67.9999979248048,2|2|2,3:2|2:2|2:2,0:0:0:0:
156,316,78294,2,0,P|145:348|151:385,2,67.9999979248048,10|2|2,2:2|2:2|2:2,0:0:0:0:
97,240,78566,5,2,3:2:0:0:
89,250,78657,2,0,L|12:266,1,67.9999979248048,2|2,2:2|2:2,0:0:0:0:
10,169,78839,1,10,2:2:0:0:
52,134,78930,1,2,2:2:0:0:
106,132,79021,1,2,2:2:0:0:
154,154,79111,2,0,P|231:144|238:9,1,203.999993774414,2|10,3:2|2:2,0:0:0:0:
258,34,79657,6,0,L|170:26,2,67.9999979248048,2|2|2,3:2|2:2|2:2,0:0:0:0:
226,127,79930,2,0,L|138:142,2,67.9999979248048,10|2|2,2:2|2:2|2:2,0:0:0:0:
287,204,80202,2,0,L|374:219,2,67.9999979248048,2|2|2,3:2|2:2|2:2,0:0:0:0:
293,302,80475,2,0,L|373:339,2,67.9999979248048,10|2|2,2:2|2:2|2:2,0:0:0:0:
218,362,80748,5,2,3:2:0:0:
209,352,80839,2,0,P|194:313|204:265,1,67.9999979248048,2|2,2:2|2:2,0:0:0:0:
256,215,81021,1,10,2:2:0:0:
299,183,81111,1,2,2:2:0:0:
352,172,81202,1,2,2:2:0:0:
398,143,81293,2,0,B|402:238|466:224|462:346,1,203.999993774414,10|2,3:2|1:2,0:0:0:0:
462,332,81839,6,0,P|421:340|377:374,2,67.9999979248048,6|2|2,3:2|2:2|2:2,0:0:0:0:
347,273,82111,2,0,P|315:300|294:351,2,67.9999979248048,10|2|2,2:2|2:2|2:2,0:0:0:0:
368,179,82384,2,0,P|336:151|315:100,2,67.9999979248048,2|2|2,3:2|2:2|2:2,0:0:0:0:
238,172,82657,2,0,P|224:132|231:77,2,67.9999979248048,10|2|2,2:2|2:2|2:2,0:0:0:0:
135,75,82930,5,2,3:2:0:0:
139,58,83021,2,0,P|156:36|228:13,1,67.9999979248048,2|2,2:2|2:2,0:0:0:0:
41,127,83202,1,10,2:2:0:0:
83,161,83293,1,2,2:2:0:0:
103,211,83384,1,2,2:2:0:0:
99,265,83475,2,0,P|143:371|254:349,1,203.999993774414,2|10,3:2|2:2,0:0:0:0:
219,374,84021,6,0,L|156:351,2,67.9999979248048,2|2|2,3:2|2:2|2:2,0:0:0:0:
237,275,84293,2,0,L|182:236,2,67.9999979248048,10|2|2,2:2|2:2|2:2,0:0:0:0:
291,189,84566,2,0,L|354:166,2,67.9999979248048,2|2|2,3:2|2:2|2:2,0:0:0:0:
273,90,84839,2,0,L|327:51,2,67.9999979248048,10|2|2,2:2|2:2|2:2,0:0:0:0:
210,14,85111,5,2,3:2:0:0:
199,27,85202,2,0,P|177:68|182:118,1,67.9999979248048,2|2,2:2|2:2,0:0:0:0:
227,174,85384,1,2,1:2:0:0:
280,183,85475,1,2,1:2:0:0:
326,210,85566,1,2,1:2:0:0:
380,206,85657,2,0,B|477:182|477:182|551:217,2,152.999995330811,6|6|2,1:2|1:2|1:2,0:0:0:0:
414,298,86202,6,0,L|405:350,3,42.5,6|0|8|0,3:2|3:3|3:2|0:0,0:0:0:0:
313,333,86475,2,0,L|322:385,3,42.5,2|0|8|0,3:2|0:0|3:2|0:0,0:0:0:0:
229,285,86748,6,0,L|238:233,1,42.5,2|0,3:2|3:3,0:0:0:0:
140,308,86884,2,0,L|149:256,1,42.5,8|0,3:2|0:0,0:0:0:0:
51,334,87021,2,0,L|60:282,3,42.5,2|0|8|0,3:2|0:0|3:2|0:0,0:0:0:0:
41,200,87293,6,0,L|-11:209,2,42.5,2|0|8,3:2|3:3|3:2,0:0:0:0:
111,132,87566,1,2,3:2:0:0:
119,134,87634,1,0,3:3:0:0:
127,136,87702,1,8,3:2:0:0:
152,45,87839,2,0,L|100:36,2,42.5,2|0|8,3:2|3:3|3:2,0:0:0:0:
222,113,88112,1,2,3:2:0:0:
230,111,88180,1,0,3:3:0:0:
238,109,88248,1,8,3:2:0:0:
295,32,88384,6,0,L|347:23,3,42.5,2|0|8|0,3:2|3:3|3:2|0:0,0:0:0:0:
334,129,88657,2,0,L|386:138,3,42.5,2|0|8|0,3:2|0:0|3:2|0:0,0:0:0:0:
464,98,88930,6,0,L|473:150,1,42.5,2|0,3:2|3:3,0:0:0:0:
449,184,89066,2,0,L|458:236,1,42.5,8|0,3:2|0:0,0:0:0:0:
434,270,89202,2,0,L|443:322,3,42.5,2|0|8|0,3:2|0:0|3:2|0:0,0:0:0:0:
362,365,89475,5,2,3:2:0:0:
360,372,89543,1,0,3:3:0:0:
358,381,89611,1,8,3:2:0:0:
288,302,89748,1,2,3:2:0:0:
286,295,89816,1,0,3:3:0:0:
284,286,89884,1,8,3:2:0:0:
201,348,90021,1,2,3:2:0:0:
193,346,90089,1,0,3:3:0:0:
185,344,90158,2,0,L|81:356,1,85,8|2,3:2|3:2,0:0:0:0:
67,179,90566,6,0,L|15:170,3,42.5,6|0|8|0,3:2|3:3|3:2|0:0,0:0:0:0:
50,69,90839,2,0,L|-2:78,3,42.5,2|0|8|0,3:2|0:0|3:2|0:0,0:0:0:0:
147,88,91111,6,0,L|138:36,1,42.5,2|0,3:2|3:3,0:0:0:0:
236,111,91247,2,0,L|227:59,1,42.5,8|0,3:2|0:0,0:0:0:0:
325,137,91384,2,0,L|316:85,3,42.5,2|0|8|0,3:2|0:0|3:2|0:0,0:0:0:0:
257,207,91657,6,0,L|248:259,2,42.5,2|0|8,3:2|3:3|3:2,0:0:0:0:
154,263,91930,1,2,3:2:0:0:
156,271,91998,1,0,3:3:0:0:
158,279,92066,1,8,3:2:0:0:
231,342,92203,2,0,L|240:394,2,42.5,2|0|8,3:2|3:3|3:2,0:0:0:0:
327,324,92476,1,2,3:2:0:0:
329,316,92544,1,0,3:3:0:0:
331,308,92612,1,8,3:2:0:0:
431,315,92748,6,0,L|422:367,3,42.5,2|0|8|0,3:2|3:3|3:2|0:0,0:0:0:0:
503,248,93021,2,0,L|495:206,3,42.5,2|0|8|0,3:2|0:0|3:2|0:0,0:0:0:0:
457,113,93293,6,0,L|509:122,1,42.5,2|0,3:2|3:3,0:0:0:0:
371,79,93429,2,0,L|423:88,1,42.5,8|0,3:2|0:0,0:0:0:0:
286,47,93566,2,0,L|338:56,3,42.5,2|0|8|0,3:2|0:0|3:2|0:0,0:0:0:0:
195,22,93839,5,2,3:2:0:0:
193,29,93907,1,0,3:3:0:0:
191,38,93975,1,8,3:2:0:0:
118,104,94112,1,2,3:2:0:0:
120,111,94180,1,0,3:3:0:0:
122,120,94248,1,8,3:2:0:0:
145,217,94385,1,2,3:2:0:0:
143,225,94453,1,0,3:3:0:0:
141,233,94522,2,0,L|153:337,1,85,8|2,3:2|3:2,0:0:0:0:
48,13,94930,5,0,1:1:0:0:
41,21,94998,1,0,1:1:0:0:
34,29,95066,2,0,L|85:20,3,42.5,0|0|0|0,1:1|1:1|1:1|1:1,0:0:0:0:
77,103,95339,2,0,L|128:94,1,42.5,0|0,1:1|1:1,0:0:0:0:
37,192,95475,2,0,L|88:183,8,42.5,0|0|0|0|0|0|0|0|6,1:1|1:1|1:1|1:1|1:1|1:1|1:1|1:1|2:2,0:0:0:0:
285,375,104748,6,0,P|225:362|182:304,1,101.999996887207,6|0,3:2|1:1,0:0:0:0:
372,333,105020,2,0,P|411:300|461:293,1,101.999996887207,2|0,3:2|1:1,0:0:0:0:
483,207,105293,2,0,L|508:103,1,101.999996887207,2|0,3:2|1:1,0:0:0:0:
381,19,105566,2,0,L|404:119,1,101.999996887207,2|0,3:2|1:1,0:0:0:0:
336,191,105839,6,0,L|236:214,1,101.999996887207,2|0,3:2|1:1,0:0:0:0:
190,349,106111,1,2,3:2:0:0:
190,349,106248,1,2,1:2:0:0:
66,289,106384,2,0,P|46:209|70:161,1,101.999996887207,2|0,3:2|1:1,0:0:0:0:
160,78,106657,2,0,P|210:83|256:62,1,101.999996887207,2|0,3:2|1:1,0:0:0:0:
419,106,106929,6,0,P|426:40|398:-5,1,101.999996887207,6|2,3:2|3:2,0:0:0:0:
350,180,107202,2,0,P|403:219|456:217,1,101.999996887207,2|2,3:2|3:2,0:0:0:0:
500,297,107475,1,2,3:2:0:0:
387,370,107611,1,2,3:2:0:0:
387,370,107679,1,2,3:2:0:0:
387,370,107748,2,0,L|252:390,1,101.999996887207,2|2,3:2|3:2,0:0:0:0:
126,374,108020,5,2,3:2:0:0:
139,286,108156,1,2,3:2:0:0:
213,233,108293,1,2,3:2:0:0:
301,247,108429,1,2,3:2:0:0:
267,163,108566,2,0,B|156:202|174:128|41:180,1,203.999993774414,2|8,3:2|2:3,0:0:0:0:
55,35,108975,5,4,2:3:0:0:
44,28,109043,1,4,2:3:0:0:
35,21,109111,2,0,L|153:-5,1,101.999996887207,6|0,3:2|1:1,0:0:0:0:
279,66,109384,2,0,L|378:87,1,101.999996887207,2|0,3:2|1:1,0:0:0:0:
474,77,109657,2,0,P|455:30|405:-1,1,101.999996887207,2|0,3:2|1:1,0:0:0:0:
357,183,109929,2,0,P|407:185|448:214,1,101.999996887207,2|0,3:2|1:1,0:0:0:0:
499,342,110202,6,0,P|458:373|366:367,1,101.999996887207,2|0,3:2|1:1,0:0:0:0:
280,304,110475,1,2,3:2:0:0:
280,304,110611,1,2,1:2:0:0:
357,183,110748,2,0,L|343:71,1,101.999996887207,2|0,3:2|1:1,0:0:0:0:
209,0,111020,2,0,L|195:112,1,101.999996887207,2|0,3:2|1:1,0:0:0:0:
65,166,111293,6,0,P|122:183|157:235,1,101.999996887207,6|2,3:2|3:2,0:0:0:0:
80,384,111566,2,0,P|66:326|93:269,1,101.999996887207,2|2,3:2|3:2,0:0:0:0:
148,213,111839,1,2,3:2:0:0:
269,287,111975,1,2,3:2:0:0:
269,287,112043,1,2,3:2:0:0:
269,287,112111,2,0,L|386:268,1,101.999996887207,2|2,3:2|3:2,0:0:0:0:
369,170,112384,5,8,2:3:0:0:
410,177,112452,1,8,2:3:0:0:
450,164,112520,1,8,2:3:0:0:
478,133,112588,1,8,2:3:0:0:
487,93,112656,1,4,2:3:0:0:
413,21,112793,1,4,2:3:0:0:
371,14,112861,1,4,2:3:0:0:
329,7,112929,1,8,2:3:0:0:
259,85,113066,2,0,L|196:95,6,50.9999984436036,8|8|4|4|4|4|6,2:3|2:3|2:3|2:3|2:3|2:3|3:2,0:0:0:0:
352,256,117839,6,0,P|366:320|331:396,2,136,6|2|2,3:2|1:3|3:3,0:0:0:0:
435,212,118521,1,2,3:2:0:0:
435,212,118657,2,0,P|363:208|306:147,1,136,2|2,1:3|3:3,0:0:0:0:
353,23,119203,1,2,1:3:0:0:
353,23,119339,2,0,L|508:50,1,136,2|2,3:2|3:2,0:0:0:0:
273,80,119748,1,2,1:3:0:0:
90,125,120021,6,0,P|84:60|27:-1,2,136,2|2|2,3:3|1:3|2:3,0:0:0:0:
128,215,120703,1,2,3:2:0:0:
128,215,120839,2,0,P|74:237|59:256,1,68,2|2,1:3|3:2,0:0:0:0:
14,317,121112,2,0,L|25:390,2,68,2|2|2,3:3|3:2|1:3,0:0:0:0:
68,243,121521,2,0,P|141:288|214:276,1,136,2|0,3:2|3:0,0:0:0:0:
267,337,121930,1,2,1:3:0:0:
267,337,122202,6,0,P|231:282|271:168,1,170,6|2,3:2|1:2,0:0:0:0:
252,185,122611,2,0,P|214:243|97:224,1,170,2|2,2:2|3:2,0:0:0:0:
58,185,123021,2,0,P|61:139|92:90,1,85,2|2,1:2|2:2,0:0:0:0:
6,0,123293,6,0,L|102:23,1,85,2|2,3:2|2:2,0:0:0:0:
156,71,123566,2,0,B|186:37|186:37|261:16,1,85,2|2,1:2|3:2,0:0:0:0:
349,103,123839,1,2,2:2:0:0:
375,21,123975,1,2,3:2:0:0:
456,45,124111,2,0,L|472:185,1,127.5,2|0,1:2|0:0,0:0:0:0:
498,203,124384,6,0,P|450:212|405:327,1,170,2|2,3:2|1:2,0:0:0:0:
400,312,124793,1,0,0:0:0:0:
320,342,124930,2,0,P|288:345|244:372,2,56.6666666666667,2|2|2,3:2|2:2|2:2,0:0:0:0:
226,280,125202,2,0,P|199:298|175:343,2,56.6666666666667,2|2|2,1:2|2:2|2:2,0:0:0:0:
165,218,125475,6,0,P|151:188|152:137,2,56.6666666666667,2|2|2,3:2|2:2|2:2,0:0:0:0:
64,166,125748,2,0,P|67:133|94:90,2,56.6666666666667,2|2|2,1:2|2:2|2:2,0:0:0:0:
98,29,126021,2,0,P|65:26|18:45,2,56.6666666666667,2|2|2,3:2|2:2|2:2,0:0:0:0:
168,81,126293,1,2,1:2:0:0:
176,84,126384,2,0,P|208:86|256:67,1,56.6666666666667,2|2,2:2|2:2,0:0:0:0:
294,22,126566,6,0,L|272:227,1,170,6|2,3:2|1:2,0:0:0:0:
269,279,126975,2,0,P|216:221|108:227,1,170,2|2,2:2|3:2,0:0:0:0:
128,216,127384,2,0,P|84:282|118:385,1,170,2|2,1:2|3:2,0:0:0:0:
102,367,127930,6,0,L|211:350,1,85,2|2,1:2|3:2,0:0:0:0:
268,375,128202,2,0,B|286:335|286:335|274:283,1,85,2|2,2:2|3:2,0:0:0:0:
220,230,128475,1,2,1:2:0:0:
246,149,128611,1,2,2:2:0:0:
272,67,128748,6,0,P|269:35|242:-9,2,56.6666666666667,2|2|2,3:2|2:2|2:2,0:0:0:0:
341,119,129021,2,0,P|354:89|353:38,2,56.6666666666667,2|2|2,1:2|2:2|2:2,0:0:0:0:
374,198,129293,2,0,P|400:179|424:134,2,56.6666666666667,2|2|2,3:2|2:2|2:2,0:0:0:0:
363,283,129566,2,0,P|395:280|439:253,2,56.6666666666667,2|2|2,1:2|2:2|2:2,0:0:0:0:
399,365,129839,1,2,3:2:0:0:
363,336,129930,1,2,2:2:0:0:
319,321,130021,1,2,2:2:0:0:
274,327,130111,1,2,1:2:0:0:
233,348,130202,1,2,2:2:0:0:
188,355,130293,1,2,2:2:0:0:
144,341,130384,2,0,P|120:293|207:221,1,170,2|2,3:2|1:2,0:0:0:0:
282,129,130793,5,0,1:1:0:0:
282,129,130861,1,0,1:1:0:0:
282,129,130930,2,0,B|317:20|317:20|237:48,1,170,6|2,3:2|1:2,0:0:0:0:
264,38,131339,2,0,P|186:59|98:14,1,170,2|2,2:2|3:2,0:0:0:0:
107,24,131748,2,0,P|133:66|130:126,1,85,2|0,1:2|2:2,0:0:0:0:
88,171,132021,6,0,P|62:230|115:333,1,170,2|0,3:2|1:1,0:0:0:0:
100,322,132430,2,0,B|51:323|21:355|21:355|63:331|120:358,1,170,2|0,3:2|3:3,0:0:0:0:
100,350,132839,2,0,P|148:352|184:332,1,85,2|0,1:2|2:2,0:0:0:0:
246,281,133111,6,0,L|332:307,1,85,2|0,3:2|0:0,0:0:0:0:
390,362,133384,1,0,1:1:0:0:
472,339,133521,1,2,2:2:0:0:
491,256,133657,1,2,3:2:0:0:
439,188,133793,1,2,3:2:0:0:
420,104,133930,1,2,1:2:0:0:
461,29,134066,1,2,3:2:0:0:
448,181,134202,5,0,3:3:0:0:
381,127,134339,1,2,3:2:0:0:
296,115,134475,1,0,1:1:0:0:
214,139,134611,1,2,3:2:0:0:
164,208,134748,2,0,P|121:226|70:220,1,85,2|0,2:2|3:3,0:0:0:0:
19,113,135021,2,0,P|61:112|99:129,1,85,2|0,1:2|3:3,0:0:0:0:
25,309,135293,6,0,B|122:323|78:369|209:375,1,170,6|0,3:2|1:1,0:0:0:0:
252,328,135702,1,2,2:2:0:0:
252,328,135839,2,0,L|241:241,1,85,2|2,3:2|3:2,0:0:0:0:
175,190,136111,2,0,L|186:103,1,85,2|2,1:2|2:2,0:0:0:0:
138,34,136384,5,2,3:2:0:0:
194,98,136521,1,2,2:2:0:0:
278,109,136657,1,2,1:2:0:0:
360,89,136793,1,2,3:2:0:0:
407,17,136930,5,2,2:2:0:0:
447,139,137066,1,2,3:2:0:0:
367,239,137202,1,2,1:2:0:0:
407,361,137338,1,2,2:2:0:0:
280,384,137475,5,2,3:2:0:0:
194,371,137611,1,2,2:2:0:0:
207,285,137748,1,2,1:2:0:0:
293,298,137884,1,2,2:2:0:0:
198,273,138021,2,0,P|184:301|47:327,1,170,2|2,3:2|1:2,0:0:0:0:
20,80,138566,5,2,3:2:0:0:
67,49,138657,1,2,2:2:0:0:
122,40,138748,1,2,2:2:0:0:
178,47,138839,1,2,1:2:0:0:
221,83,138930,1,2,2:2:0:0:
244,135,139021,1,2,2:2:0:0:
248,190,139111,2,0,P|240:230|225:257,2,56.6666666666667,2|2|2,3:2|2:2|2:2,0:0:0:0:
327,154,139384,6,0,L|485:175,1,127.5,8|4,2:3|2:3,0:0:0:0:
489,146,139657,2,0,P|448:57|374:68,1,170,6|2,3:2|1:2,0:0:0:0:
311,20,140066,2,0,P|284:80|187:82,1,170,2|2,2:2|3:2,0:0:0:0:
118,35,140475,2,0,P|72:33|32:60,1,85,2|2,1:2|2:2,0:0:0:0:
13,133,140748,5,2,3:2:0:0:
93,158,140884,1,2,2:2:0:0:
30,216,141021,1,2,1:2:0:0:
91,338,141157,2,0,B|171:350|171:350|180:362|180:362|285:375,1,170,2|2,3:2|3:2,0:0:0:0:
253,371,141566,2,0,B|265:333|265:333|249:279,1,85,2|2,1:2|2:2,0:0:0:0:
302,220,141839,6,0,P|255:180|262:73,1,170,2|2,3:2|1:2,0:0:0:0:
329,31,142248,1,0,0:0:0:0:
401,75,142384,2,0,L|476:57,2,56.6666666666667,2|2|2,3:2|2:2|2:2,0:0:0:0:
430,153,142657,2,0,L|505:135,2,56.6666666666667,2|2|2,1:2|2:2|2:2,0:0:0:0:
474,226,142930,1,2,3:2:0:0:
433,207,143020,1,2,2:2:0:0:
389,215,143111,1,2,2:2:0:0:
356,246,143202,1,2,1:2:0:0:
347,289,143293,1,2,2:2:0:0:
363,331,143384,1,2,2:2:0:0:
403,353,143475,6,0,L|482:334,1,56.6666666666667,2|2,3:2|2:2,0:0:0:0:
315,310,143657,1,2,2:2:0:0:
303,314,143748,2,0,L|224:333,1,56.6666666666667,2|2,1:2|2:2,0:0:0:0:
152,306,143930,1,2,2:2:0:0:
140,310,144021,6,0,B|90:324|70:373|70:373|26:351|36:287,1,170,6|2,3:2|1:2,0:0:0:0:
34,314,144430,2,0,P|40:249|156:209,1,170,2|2,2:2|3:2,0:0:0:0:
151,40,144839,1,2,1:2:0:0:
151,40,144975,1,2,2:2:0:0:
91,111,145111,6,0,L|0:97,1,85,2|2,3:2|2:2,0:0:0:0:
124,200,145384,2,0,L|215:186,1,85,2|2,1:2|3:2,0:0:0:0:
284,148,145657,1,2,2:2:0:0:
330,77,145793,1,2,3:2:0:0:
412,55,145930,1,2,1:2:0:0:
494,75,146066,1,2,2:2:0:0:
422,196,146202,6,0,B|333:210|378:259|237:279,1,170,2|2,3:2|1:2,0:0:0:0:
273,272,146611,1,2,2:2:0:0:
242,384,146748,2,0,P|204:342|143:323,1,85,2|2,3:2|3:2,0:0:0:0:
33,327,147021,2,0,P|69:305|95:272,1,85,2|2,1:2|3:2,0:0:0:0:
120,188,147293,6,0,L|190:167,2,56.6666666666667,2|2|2,3:2|2:2|2:2,0:0:0:0:
83,110,147566,2,0,L|-14:91,1,85,2|0,1:2|0:0,0:0:0:0:
175,0,147839,1,2,3:2:0:0:
256,22,147975,1,2,1:2:0:0:
195,80,148111,1,2,1:2:0:0:
300,176,148248,5,0,1:1:0:0:
300,176,148316,1,0,1:1:0:0:
300,176,148384,2,0,B|165:59|28:174|28:174|85:282|220:240|220:240|95:264|150:399|277:387|218:278|354:337,1,815.999975097657,6|0,3:2|3:3,0:0:0:0:
416,358,149611,2,0,P|476:322|492:287,2,85,2|2|2,2:2|1:2|3:2,0:0:0:0:
318,324,150021,1,2,2:2:0:0:
318,324,150157,1,2,3:2:0:0:
395,257,150293,2,0,P|383:208|403:147,1,85,2|2,1:2|2:2,0:0:0:0:
502,55,150566,5,2,3:2:0:0:
388,174,150702,1,2,2:2:0:0:
388,174,150839,1,2,1:2:0:0:
354,23,150975,2,0,B|185:40|253:129|72:146|72:146|193:127|252:221|252:221|114:248|122:369,1,713.99997821045,2|0,2:2|1:1,0:0:0:0:
37,281,152066,2,0,P|24:322|28:375,2,85,2|2|2,3:2|2:2|3:2,0:0:0:0:
73,147,152475,2,0,P|120:193|129:237,1,85,2|2,3:2|3:2,0:0:0:0:
211,372,152748,6,0,P|247:328|376:346,1,170,4|2,3:2|1:2,0:0:0:0:
499,342,153157,2,0,L|323:365,1,170,2|2,2:2|3:2,0:0:0:0:
279,292,153566,2,0,L|300:206,1,85,2|2,1:2|2:2,0:0:0:0:
236,151,153839,5,2,3:2:0:0:
299,209,153975,1,2,2:2:0:0:
375,172,154111,1,2,1:2:0:0:
448,128,154248,2,0,B|479:97|461:40|461:40|346:20|305:110,1,255,2|0,3:2|1:1,0:0:0:0:
41,18,154930,5,2,3:2:0:0:
28,61,155020,1,2,2:2:0:0:
40,104,155111,1,2,2:2:0:0:
72,135,155202,1,2,1:2:0:0:
115,146,155293,1,2,2:2:0:0:
158,134,155384,1,2,2:2:0:0:
198,111,155475,1,2,3:2:0:0:
254,104,155565,1,2,2:2:0:0:
309,117,155656,1,2,2:2:0:0:
356,146,155747,1,2,1:2:0:0:
392,190,155838,1,2,2:2:0:0:
411,243,155929,1,2,2:2:0:0:
411,300,156021,6,0,B|389:376|282:346|282:264|334:228|334:228|440:151|406:51|345:3|259:6|200:62|212:132,1,611.999981323243,2|8,3:2|2:3,0:0:0:0:
213,110,156907,1,8,2:3:0:0:
214,120,156975,1,4,2:3:0:0:
215,130,157043,1,4,2:3:0:0:
216,140,157111,6,0,L|79:122,1,101.999996887207,6|0,3:2|2:2,0:0:0:0:
3,253,157384,2,0,L|105:267,1,101.999996887207,2|0,1:2|2:2,0:0:0:0:
124,138,157657,2,0,L|226:152,1,101.999996887207,2|0,3:2|3:3,0:0:0:0:
13,265,157930,2,0,L|115:279,1,101.999996887207,2|0,1:2|2:2,0:0:0:0:
134,150,158202,2,0,L|236:164,1,101.999996887207,2|0,3:2|2:2,0:0:0:0:
23,277,158475,2,0,L|125:291,1,101.999996887207,2|0,1:2|3:3,0:0:0:0:
144,162,158748,2,0,L|246:176,1,101.999996887207,2|0,2:2|3:3,0:0:0:0:
33,289,159021,2,0,L|135:303,1,101.999996887207,2|0,1:2|2:2,0:0:0:0:
154,174,159293,2,0,L|256:188,1,101.999996887207,2|0,3:2|2:2,0:0:0:0:
43,301,159566,2,0,L|145:315,1,101.999996887207,2|0,1:2|2:2,0:0:0:0:
164,186,159839,2,0,L|266:200,1,101.999996887207,2|0,3:2|3:3,0:0:0:0:
53,313,160112,2,0,L|155:327,1,101.999996887207,2|0,1:2|3:3,0:0:0:0:
174,198,160384,2,0,L|276:212,1,101.999996887207,2|0,3:2|3:3,0:0:0:0:
63,325,160657,2,0,L|165:339,1,101.999996887207,2|0,1:2|3:3,0:0:0:0:
184,210,160930,2,0,L|286:224,1,101.999996887207,2|0,2:2|3:3,0:0:0:0:
73,337,161202,2,0,L|175:351,1,101.999996887207,2|0,1:2|3:3,0:0:0:0:
300,105,161475,6,0,L|437:87,1,101.999996887207,6|0,3:2|2:2,0:0:0:0:
512,218,161748,2,0,L|410:231,1,101.999996887207,2|0,1:2|2:2,0:0:0:0:
391,103,162021,2,0,L|289:116,1,101.999996887207,2|0,3:2|3:3,0:0:0:0:
502,230,162294,2,0,L|400:243,1,101.999996887207,2|0,1:2|2:2,0:0:0:0:
381,115,162566,2,0,L|279:128,1,101.999996887207,2|0,3:2|2:2,0:0:0:0:
492,242,162839,2,0,L|390:255,1,101.999996887207,2|0,1:2|3:3,0:0:0:0:
371,127,163112,2,0,L|269:140,1,101.999996887207,2|0,2:2|3:3,0:0:0:0:
482,254,163385,2,0,L|380:267,1,101.999996887207,2|0,1:2|2:2,0:0:0:0:
361,139,163657,2,0,L|259:152,1,101.999996887207,2|0,3:2|2:2,0:0:0:0:
472,266,163930,2,0,L|370:279,1,101.999996887207,2|0,1:2|2:2,0:0:0:0:
351,151,164203,2,0,L|249:164,1,101.999996887207,2|0,3:2|3:3,0:0:0:0:
462,278,164476,2,0,L|360:291,1,101.999996887207,2|0,1:2|3:3,0:0:0:0:
341,163,164748,2,0,L|239:176,1,101.999996887207,2|0,3:2|3:3,0:0:0:0:
452,290,165021,2,0,L|350:303,1,101.999996887207,2|0,1:2|3:3,0:0:0:0:
331,175,165294,2,0,L|229:188,1,101.999996887207,2|0,2:2|3:3,0:0:0:0:
396,99,165566,1,2,1:2:0:0:
216,86,165702,5,0,1:1:0:0:
216,86,165771,1,0,1:1:0:0:
216,86,165839,2,0,L|234:223,1,101.999996887207,6|0,3:2|2:2,0:0:0:0:
103,299,166112,2,0,L|89:197,1,101.999996887207,2|0,1:2|2:2,0:0:0:0:
218,178,166385,2,0,L|204:76,1,101.999996887207,2|0,3:2|3:3,0:0:0:0:
91,289,166658,2,0,L|77:187,1,101.999996887207,2|0,1:2|2:2,0:0:0:0:
206,168,166930,2,0,L|192:66,1,101.999996887207,2|0,3:2|2:2,0:0:0:0:
79,279,167203,2,0,L|65:177,1,101.999996887207,2|0,1:2|3:3,0:0:0:0:
194,158,167476,2,0,L|180:56,1,101.999996887207,2|0,2:2|3:3,0:0:0:0:
67,269,167749,2,0,L|53:167,1,101.999996887207,2|0,1:2|2:2,0:0:0:0:
182,148,168021,2,0,L|168:46,1,101.999996887207,2|0,3:2|2:2,0:0:0:0:
55,259,168294,2,0,L|41:157,1,101.999996887207,2|0,1:2|2:2,0:0:0:0:
170,138,168567,2,0,L|156:36,1,101.999996887207,2|0,3:2|3:3,0:0:0:0:
43,249,168840,2,0,L|29:147,1,101.999996887207,2|0,1:2|3:3,0:0:0:0:
158,128,169112,2,0,L|144:26,1,101.999996887207,2|0,3:2|3:3,0:0:0:0:
31,239,169385,2,0,L|17:137,1,101.999996887207,2|0,1:2|3:3,0:0:0:0:
146,118,169658,2,0,L|132:16,1,101.999996887207,2|0,2:2|3:3,0:0:0:0:
19,229,169930,2,0,L|5:127,1,101.999996887207,2|0,1:2|3:3,0:0:0:0:
280,171,170202,6,0,L|262:308,1,101.999996887207,6|0,3:2|2:2,0:0:0:0:
393,384,170475,2,0,L|407:282,1,101.999996887207,2|0,1:2|2:2,0:0:0:0:
278,263,170748,2,0,L|292:161,1,101.999996887207,2|0,3:2|3:3,0:0:0:0:
405,374,171021,2,0,L|419:272,1,101.999996887207,2|0,1:2|2:2,0:0:0:0:
290,253,171293,2,0,L|304:151,1,101.999996887207,2|0,3:2|2:2,0:0:0:0:
417,364,171566,2,0,L|431:262,1,101.999996887207,2|0,1:2|3:3,0:0:0:0:
302,243,171839,2,0,L|316:141,1,101.999996887207,2|0,2:2|3:3,0:0:0:0:
429,354,172112,2,0,L|443:252,1,101.999996887207,2|0,1:2|2:2,0:0:0:0:
512,181,172384,1,2,3:3:0:0:
512,181,173278,6,0,P|452:146|386:277,1,255,6|0,3:2|0:0,0:0:0:0:
327,334,173722,2,0,L|257:321,5,56.6666666666667,0|0|0|2|2|2,3:3|0:0|0:0|3:2|2:2|2:2,0:0:0:0:
178,230,174166,2,0,L|248:217,5,56.6666666666667,2|2|2|2|2|2,3:2|2:2|2:2|3:2|2:2|2:2,0:0:0:0:
92,334,174611,2,0,L|22:321,2,56.6666666666667,2|2|2,3:2|2:2|2:2,0:0:0:0:
99,348,174833,2,0,L|29:335,2,56.6666666666667,2|0|0,3:2|0:0|0:0,0:0:0:0:
179,312,175055,6,0,P|188:278|169:215,1,85,2|2,3:2|1:2,0:0:0:0:
84,148,175278,1,2,3:2:0:0:
84,148,175389,1,2,1:2:0:0:
84,148,175500,2,0,L|-17:135,1,85,2|2,3:2|1:2,0:0:0:0:
176,61,175722,2,0,L|277:48,1,85,2|2,3:2|1:2,0:0:0:0:
378,32,175944,1,2,3:2:0:0:
359,97,176055,1,0,0:0:0:0:
380,161,176166,1,2,3:2:0:0:
437,198,176278,1,0,0:0:0:0:
504,198,176389,2,0,P|513:147|489:106,1,85,2|0,3:2|0:0,0:0:0:0:
464,293,176611,2,0,P|415:310|391:351,1,85,2|0,3:2|0:0,0:0:0:0:
223,292,176833,6,0,B|246:357|246:357|352:294|309:142,1,255,2|2,3:2|1:2,0:0:0:0:
314,26,177278,1,2,3:2:0:0:
393,73,177389,1,2,1:2:0:0:
393,73,177500,2,0,L|500:51,1,85,2|2,3:2|1:2,0:0:0:0:
238,144,177722,5,2,3:2:0:0:
238,144,177833,1,2,1:2:0:0:
238,144,177944,2,0,L|131:122,1,85,2|2,3:2|1:2,0:0:0:0:
51,179,178166,2,0,P|53:134|32:88,1,85,2|0,3:2|0:0,0:0:0:0:
136,321,178389,2,0,P|134:279|149:240,1,85,2|0,3:2|0:0,0:0:0:0:
311,365,178611,6,0,L|388:385,2,56.6666666666667,2|2|2,3:2|2:2|2:2,0:0:0:0:
361,293,178833,2,0,L|437:271,2,56.6666666666667,2|0|0,3:2|0:0|0:0,0:0:0:0:
368,205,179055,2,0,L|423:148,2,56.6666666666667,2|2|2,3:2|2:2|2:2,0:0:0:0:
330,125,179278,2,0,L|350:47,2,56.6666666666667,2|2|2,3:2|2:2|2:2,0:0:0:0:
442,29,179500,5,2,3:2:0:0:
442,29,179574,1,2,2:2:0:0:
442,29,179648,1,2,2:2:0:0:
442,29,179722,2,0,L|422:106,2,56.6666666666667,2|2|2,3:2|2:2|2:2,0:0:0:0:
488,149,179944,2,0,B|406:177|450:214|340:247,1,170,2|2,3:2|1:2,0:0:0:0:
114,91,180389,6,0,P|80:60|39:51,1,85,6|2,3:2|1:2,0:0:0:0:
0,130,180611,2,0,P|30:160|71:171,1,85,2|2,3:2|1:2,0:0:0:0:
124,301,180833,2,0,L|109:392,1,85,2|2,3:2|1:2,0:0:0:0:
201,378,181055,2,0,L|216:287,1,85,2|2,3:2|1:2,0:0:0:0:
350,243,181278,2,0,L|418:301,1,85,2|2,3:2|1:2,0:0:0:0:
497,261,181500,2,0,L|513:173,2,85,2|2|2,3:2|1:2|3:2,0:0:0:0:
414,298,181833,1,2,1:2:0:0:
414,298,181944,2,0,P|365:311|334:341,1,85,2|0,3:2|0:0,0:0:0:0:
254,216,182166,5,2,3:2:0:0:
186,206,182278,1,2,1:2:0:0:
123,233,182389,1,2,3:2:0:0:
89,291,182500,1,2,1:2:0:0:
101,357,182611,2,0,B|135:293|107:231|93:241|46:187|83:107,1,255,2|0,3:2|1:1,0:0:0:0:
0,29,183055,6,0,P|27:53|84:63,1,85,2|0,3:2|0:0,0:0:0:0:
176,171,183278,2,0,P|210:159|247:115,1,85,2|2,3:2|1:2,0:0:0:0:
353,40,183500,2,0,L|364:155,1,85,2|2,3:2|1:2,0:0:0:0:
473,10,183722,2,0,L|462:125,1,85,2|2,3:2|1:2,0:0:0:0:
447,199,183944,5,2,3:2:0:0:
447,199,184055,1,0,0:0:0:0:
447,199,184166,1,2,3:2:0:0:
463,223,184277,1,0,0:0:0:0:
487,237,184388,2,0,L|476:352,1,85,2|2,3:2|1:2,0:0:0:0:
344,381,184611,2,0,L|333:266,1,85,2|2,3:2|1:2,0:0:0:0:
233,174,184833,6,0,P|186:180|144:208,1,85,2|2,3:2|1:2,0:0:0:0:
19,319,185055,2,0,P|56:339|98:343,1,85,2|2,3:2|1:2,0:0:0:0:
224,268,185278,1,2,3:2:0:0:
229,200,185389,1,2,1:2:0:0:
203,136,185500,1,2,3:2:0:0:
148,95,185611,1,0,0:0:0:0:
80,84,185722,2,0,P|45:119|29:167,1,85,2|0,3:2|0:0,0:0:0:0:
227,49,185944,6,0,L|282:-7,2,56.6666666666667,2|2|2,3:2|2:2|2:2,0:0:0:0:
306,84,186166,2,0,L|382:63,2,56.6666666666667,2|2|2,3:2|2:2|2:2,0:0:0:0:
358,156,186388,2,0,L|434:176,2,56.6666666666667,2|2|2,3:2|2:2|2:2,0:0:0:0:
366,244,186611,2,0,L|423:300,2,56.6666666666667,2|2|2,3:2|2:2|2:2,0:0:0:0:
512,269,186833,5,2,3:2:0:0:
512,269,186907,1,2,2:2:0:0:
512,269,186981,1,2,0:0:0:0:
512,269,187055,2,0,L|455:213,2,56.6666666666667,2|0|0,1:2|0:0|0:0,0:0:0:0:
469,351,187277,2,0,P|423:346|367:392,1,113.333333333333,8|0,2:3|0:0,0:0:0:0:
346,383,187500,6,0,B|296:353|296:353|274:238|376:162,1,255,6|0,3:2|1:1,0:0:0:0:
326,22,187944,1,2,3:2:0:0:
397,68,188055,2,0,P|439:74|505:42,1,85,2|0,1:2|3:3,0:0:0:0:
269,143,188278,1,2,1:2:0:0:
269,143,188389,2,0,P|236:175|218:221,1,85,2|2,3:2|1:2,0:0:0:0:
209,352,188611,6,0,L|109:339,1,85,2|2,3:2|1:2,0:0:0:0:
13,230,188833,2,0,L|113:217,1,85,2|2,3:2|1:2,0:0:0:0:
163,98,189055,2,0,L|63:85,1,85,2|2,3:2|1:2,0:0:0:0:
133,9,189277,6,0,L|217:19,1,85,2|2,3:2|1:2,0:0:0:0:
248,145,189499,2,0,L|288:105,2,56.6666666666667,2|2|2,3:2|2:2|2:2,0:0:0:0:
309,248,189721,2,0,L|323:194,2,56.6666666666667,2|2|2,3:2|2:2|2:2,0:0:0:0:
414,304,189944,2,0,L|399:250,2,56.6666666666667,2|2|2,3:2|2:2|2:2,0:0:0:0:
468,194,190166,6,0,L|488:117,5,56.6666666666667,2|2|2|2|2|2,3:2|2:2|2:2|3:2|2:2|2:2,0:0:0:0:
408,16,190611,2,0,L|423:71,2,56.6666666666667,2|2|2,3:2|2:2|2:2,0:0:0:0:
399,25,190833,2,0,L|413:79,2,56.6666666666667,2|0|0,3:2|0:0|0:0,0:0:0:0:
311,21,191055,6,0,P|386:53|353:174,1,170,2|2,3:2|3:2,0:0:0:0:
272,212,191389,1,2,1:2:0:0:
272,212,191500,2,0,P|303:227|343:276,1,85,2|2,3:2|1:2,0:0:0:0:
461,327,191722,2,0,P|432:346|370:356,1,85,2|2,3:2|1:2,0:0:0:0:
215,380,191944,1,2,3:2:0:0:
189,357,192055,1,2,1:2:0:0:
157,343,192166,1,2,3:2:0:0:
123,340,192277,1,2,1:2:0:0:
89,347,192389,2,0,P|49:335|11:294,1,85,2|0,3:2|1:1,0:0:0:0:
54,172,192611,2,0,P|44:131|60:77,1,85,2|0,3:2|1:0,0:0:0:0:
208,24,192833,2,0,L|193:115,1,85,2|2,3:2|1:2,0:0:0:0:
275,157,193055,2,0,L|290:66,1,85,2|2,3:2|1:2,0:0:0:0:
415,27,193277,5,2,3:2:0:0:
461,98,193389,1,2,1:2:0:0:
458,182,193500,1,2,3:2:0:0:
413,254,193611,1,2,1:2:0:0:
329,269,193722,2,0,P|286:264|227:290,1,85,2|0,3:2|0:0,0:0:0:0:
377,373,193944,2,0,P|420:378|479:352,1,85,2|0,3:2|0:0,0:0:0:0:
491,288,194166,2,0,B|475:189|434:241|422:89,1,170,2|0,3:2|1:1,0:0:0:0:
51,35,194611,6,0,B|97:71|166:63|166:63|220:147|220:147|287:120|391:189,1,340,6|0,3:2|3:3,0:0:0:0:
165,279,195166,1,2,1:2:0:0:
201,189,195277,2,0,P|241:220|260:277,1,85,2|2,3:2|1:2,0:0:0:0:
47,321,195500,2,0,P|53:270|93:225,1,85,2|2,3:2|1:2,0:0:0:0:
238,346,195722,5,2,3:2:0:0:
320,365,195833,1,2,1:2:0:0:
402,345,195944,1,2,3:2:0:0:
462,285,196055,1,2,1:2:0:0:
484,203,196166,2,0,P|479:158|404:126,1,113.333333333333,2|2,3:2|0:0,0:0:0:0:
354,57,196389,6,0,L|361:0,2,56.6666666666667,2|2|2,3:2|2:2|2:2,0:0:0:0:
290,124,196611,2,0,L|297:67,3,56.6666666666667,2|2|2|2,3:2|2:2|2:2|3:2,0:0:0:0:
242,209,196907,2,0,L|234:265,1,56.6666666666667,2|2,2:2|2:2,0:0:0:0:
192,279,197055,2,0,L|199:335,2,56.6666666666667,2|2|2,3:2|2:2|2:2,0:0:0:0:
108,239,197277,2,0,L|52:232,5,56.6666666666667,2|2|2|2|2|2,3:2|2:2|2:2|3:2|2:2|2:2,0:0:0:0:
0,305,197722,2,0,P|65:299|94:417,1,170,2|2,3:2|3:2,0:0:0:0:
391,327,198166,6,0,L|461:316,5,56.6666666666667,2|2|2|2|2|2,3:2|0:2|0:2|3:2|0:2|0:2,0:0:0:0:
317,265,198611,1,2,3:2:0:0:
317,265,198685,1,2,0:2:0:0:
317,265,198759,1,2,0:2:0:0:
317,265,198833,2,0,L|247:254,2,56.6666666666667,2|2|0,3:2|0:0|0:0,0:0:0:0:
392,180,199055,2,0,L|403:110,5,56.6666666666667,2|2|2|2|0|0,3:2|0:2|0:2|3:2|0:0|0:0,0:0:0:0:
494,85,199500,2,0,L|483:15,5,56.6666666666667,2|2|2|2|0|0,3:2|0:2|0:2|3:2|0:0|0:0,0:0:0:0:
400,124,199944,6,0,L|330:113,5,56.6666666666667,2|2|2|2|2|2,3:2|0:2|0:2|3:2|0:2|0:2,0:0:0:0:
267,59,200389,1,2,3:2:0:0:
267,59,200463,1,2,0:2:0:0:
267,59,200537,1,2,0:2:0:0:
267,59,200611,2,0,L|197:70,2,56.6666666666667,2|2|0,3:2|0:0|0:0,0:0:0:0:
121,115,200833,2,0,L|110:45,5,56.6666666666667,2|2|2|2|2|2,3:2|0:2|0:2|3:2|0:2|0:2,0:0:0:0:
179,202,201277,2,0,L|168:272,2,56.6666666666667,2|0|0,1:2|0:0|0:0,0:0:0:0:
67,245,201500,2,0,L|78:315,2,56.6666666666667,8|0|0,2:3|0:0|0:0,0:0:0:0:
11,377,201722,5,4,3:2:0:0:
256,192,201776,12,4,205276,3:2:0:0:
171,17,207943,6,0,L|178:69,31,34,0|0|0|0|0|0|0|0|0|0|0|0|0|0|0|0|0|0|0|0|0|0|0|0|0|0|0|0|0|0|0|0,3:3|0:0|0:0|0:0|0:0|3:3|0:0|0:0|0:0|0:0|3:3|0:0|0:0|0:0|0:0|3:3|0:0|0:0|0:0|0:0|3:3|0:0|0:0|0:0|0:0|3:3|0:0|0:0|0:0|0:0|3:3|0:0,0:0:0:0:
85,45,210124,5,8,3:3:0:0:
73,234,210329,1,4,3:3:0:0:
243,150,210533,1,8,3:3:0:0:
122,74,210670,5,8,3:3:0:0:
61,252,210875,1,4,3:3:0:0:
246,215,211079,1,8,3:3:0:0:
294,296,211215,6,0,L|239:313,3,42.5,14|0|0|0,3:2|3:3|3:3|3:3,0:0:0:0:
369,234,211488,2,0,L|410:247,3,42.5,10|0|0|0,3:2|3:3|3:3|3:3,0:0:0:0:
319,156,211761,2,0,L|307:116,3,42.5,10|0|0|0,3:2|3:3|3:3|3:3,0:0:0:0:
221,73,212033,2,0,L|209:114,3,42.5,10|0|0|0,3:2|3:3|3:3|3:3,0:0:0:0:
121,141,212306,5,10,3:2:0:0:
112,138,212374,1,0,3:3:0:0:
103,135,212442,1,0,3:3:0:0:
78,40,212579,1,10,3:2:0:0:
87,37,212647,1,0,3:3:0:0:
96,34,212715,1,0,3:3:0:0:
0,115,212851,2,0,L|13:156,2,42.5,10|0|0,3:2|3:3|3:3,0:0:0:0:
77,232,213124,2,0,L|65:273,2,42.5,10|0|0,3:2|3:3|3:3,0:0:0:0:
131,350,213397,6,0,L|172:338,3,42.5,10|0|0|0,3:2|3:3|3:3|3:3,0:0:0:0:
261,301,213670,2,0,L|316:318,3,42.5,10|0|0|0,3:2|3:3|3:3|3:3,0:0:0:0:
366,247,213942,2,0,L|354:207,3,42.5,10|0|0|0,3:2|3:3|3:3|3:3,0:0:0:0:
456,272,214215,2,0,L|444:312,3,42.5,10|0|0|0,3:2|3:3|3:3|3:3,0:0:0:0:
490,185,214488,5,10,3:2:0:0:
487,176,214556,1,0,3:3:0:0:
484,167,214624,1,0,3:3:0:0:
419,92,214761,1,10,3:2:0:0:
422,83,214829,1,0,3:3:0:0:
425,74,214897,1,0,3:3:0:0:
344,17,215033,1,10,3:2:0:0:
336,19,215101,1,0,3:3:0:0:
328,21,215170,2,0,L|224:9,1,85,0|10,3:3|3:2,0:0:0:0:
238,216,215579,6,0,L|250:256,3,42.5,14|0|0|0,3:2|3:3|3:3|3:3,0:0:0:0:
182,318,215852,2,0,L|170:358,3,42.5,10|0|0|0,3:2|3:3|3:3|3:3,0:0:0:0:
90,275,216124,2,0,L|49:263,3,42.5,10|0|0|0,3:2|3:3|3:3|3:3,0:0:0:0:
51,166,216397,2,0,L|-4:183,3,42.5,10|0|0|0,3:2|3:3|3:3|3:3,0:0:0:0:
64,70,216670,5,10,3:2:0:0:
73,73,216738,1,0,3:3:0:0:
82,76,216806,1,0,3:3:0:0:
191,122,216942,1,10,3:2:0:0:
200,119,217010,1,0,3:3:0:0:
209,116,217078,1,0,3:3:0:0:
243,18,217215,2,0,L|298:35,2,42.5,10|0|0,3:2|3:3|3:3,0:0:0:0:
350,113,217488,2,0,L|309:125,2,42.5,10|0|0,3:2|3:3|3:3,0:0:0:0:
425,177,217761,6,0,L|413:217,3,42.5,10|0|0|0,3:2|3:3|3:3|3:3,0:0:0:0:
481,279,218034,2,0,L|493:319,3,42.5,10|0|0|0,3:2|3:3|3:3|3:3,0:0:0:0:
411,375,218306,2,0,L|370:363,3,42.5,10|0|0|0,3:2|3:3|3:3|3:3,0:0:0:0:
328,276,218579,2,0,L|273:293,3,42.5,10|0|0|0,3:2|3:3|3:3|3:3,0:0:0:0:
208,353,218851,5,10,3:2:0:0:
205,362,218919,1,0,3:3:0:0:
202,371,218987,1,0,3:3:0:0:
120,294,219124,1,10,3:2:0:0:
117,285,219192,1,0,3:3:0:0:
114,276,219260,1,0,3:3:0:0:
44,203,219397,2,0,L|55:145,7,42.5,10|0|0|0|0|0|0|0,3:2|3:3|3:3|3:3|3:3|3:3|3:3|3:3,0:0:0:0:
142,171,219943,5,0,1:1:0:0:
146,181,220011,1,0,1:1:0:0:
151,190,220079,2,0,L|202:199,3,42.5,0|0|0|0,1:1|1:1|1:1|1:1,0:0:0:0:
269,153,220352,2,0,L|320:162,1,42.5,0|0,1:1|1:1,0:0:0:0:
320,248,220488,2,0,L|371:257,8,42.5,0|0|0|0|0|0|0|0|0,1:1|1:1|1:1|1:1|1:1|1:1|1:1|1:1|0:0,0:0:0:0:
364,28,222670,6,0,L|424:7,7,42.5,4|8|8|8|4|4|4|4,1:2|2:3|2:3|2:3|2:3|2:3|2:3|2:3,0:0:0:0:
487,58,223215,2,0,L|470:149,1,85,6|2,3:2|1:2,0:0:0:0:
437,312,223488,2,0,L|420:221,1,85,0|2,3:2|1:2,0:0:0:0:
314,245,223761,1,2,3:2:0:0:
240,320,223897,1,2,1:2:0:0:
240,320,223965,1,2,3:2:0:0:
240,320,224033,2,0,L|149:337,1,85,2|2,3:2|1:2,0:0:0:0:
37,266,224306,5,2,3:2:0:0:
37,266,224443,1,2,1:2:0:0:
142,352,224579,2,0,L|225:336,1,85,2|2,3:2|1:2,0:0:0:0:
304,206,224852,2,0,L|288:123,1,85,2|0,3:2|1:1,0:0:0:0:
164,41,225124,2,0,L|172:0,3,42.5,0|0|0|0,3:3|3:3|1:1|3:3,0:0:0:0:
84,68,225397,6,0,P|125:92|149:148,1,85,2|0,3:2|1:1,0:0:0:0:
86,190,225670,2,0,P|45:166|21:110,1,85,2|0,3:2|1:1,0:0:0:0:
39,266,225943,2,0,L|48:358,1,85,2|0,3:2|1:1,0:0:0:0:
137,365,226215,2,0,L|128:273,1,85,2|0,3:2|1:1,0:0:0:0:
237,209,226488,6,0,L|329:218,1,85,2|0,3:2|1:1,0:0:0:0:
361,127,226761,1,2,3:2:0:0:
361,127,226897,1,2,1:2:0:0:
488,185,227033,2,0,L|479:277,1,85,2|0,3:2|1:1,0:0:0:0:
429,362,227306,2,0,L|438:270,1,85,2|0,3:2|1:1,0:0:0:0:
361,127,227579,6,0,P|344:82|354:27,1,85,6|2,3:2|3:2,0:0:0:0:
195,127,227852,2,0,P|196:169|180:208,1,85,0|2,3:3|3:2,0:0:0:0:
211,346,228124,1,2,3:2:0:0:
131,297,228261,1,2,3:2:0:0:
131,297,228329,1,2,3:2:0:0:
131,297,228397,2,0,L|32:288,1,85,2|2,3:2|3:2,0:0:0:0:
67,158,228670,5,8,2:3:0:0:
59,126,228738,1,8,2:3:0:0:
63,92,228806,1,8,2:3:0:0:
79,62,228874,1,8,2:3:0:0:
104,40,228942,1,4,2:3:0:0:
210,91,229079,1,4,2:3:0:0:
224,95,229147,1,4,2:3:0:0:
238,99,229215,2,0,L|186:122,2,42.5,8|8|8,2:3|2:3|2:3,0:0:0:0:
353,24,229488,2,0,L|336:63,1,42.5,4|4,2:3|2:3,0:0:0:0:
425,66,229624,2,0,L|408:105,1,42.5,4|4,2:3|2:3,0:0:0:0:
495,111,229760,5,6,3:2:0:0:
221,375,231943,1,6,3:2:0:0:
102,54,233579,2,0,P|53:62|29:78,5,67.9999979248048,2|2|2|10|10|6,1:2|1:2|1:2|2:3|2:3|2:3,0:0:0:0:
93,147,234124,6,0,P|86:180|62:209,2,67.9999979248048,6|2|2,3:2|2:2|2:2,0:0:0:0:
185,174,234397,2,0,P|196:207|190:244,2,67.9999979248048,10|2|2,2:2|2:2|2:2,0:0:0:0:
257,115,234670,2,0,P|250:82|226:53,2,67.9999979248048,2|2|2,3:2|2:2|2:2,0:0:0:0:
349,88,234943,2,0,P|360:56|354:19,2,67.9999979248048,10|2|2,2:2|2:2|2:2,0:0:0:0:
431,140,235215,5,2,3:2:0:0:
439,130,235306,2,0,L|516:114,1,67.9999979248048,2|2,2:2|2:2,0:0:0:0:
502,215,235488,1,10,2:2:0:0:
460,250,235579,1,2,2:2:0:0:
406,252,235670,1,2,2:2:0:0:
358,230,235760,2,0,P|289:219|204:322,1,203.999993774414,2|10,3:2|2:2,0:0:0:0:
204,309,236306,6,0,L|292:317,2,67.9999979248048,2|2|2,3:2|2:2|2:2,0:0:0:0:
161,221,236579,2,0,L|249:206,2,67.9999979248048,10|2|2,2:2|2:2|2:2,0:0:0:0:
77,165,236852,2,0,L|-11:173,2,67.9999979248048,2|2|2,3:2|2:2|2:2,0:0:0:0:
120,77,237125,2,0,L|32:62,2,67.9999979248048,10|2|2,2:2|2:2|2:2,0:0:0:0:
194,12,237397,5,2,3:2:0:0:
203,22,237488,2,0,P|218:61|208:109,1,67.9999979248048,2|2,2:2|2:2,0:0:0:0:
296,151,237670,1,10,2:2:0:0:
349,144,237760,1,2,2:2:0:0:
391,109,237851,1,2,2:2:0:0:
400,55,237942,2,0,P|349:167|431:250,1,203.999993774414,10|2,3:2|1:2,0:0:0:0:
385,228,238488,6,0,P|371:267|378:322,2,67.9999979248048,6|2|2,3:2|2:2|2:2,0:0:0:0:
276,298,238761,2,0,P|283:339|317:382,2,67.9999979248048,10|2|2,2:2|2:2|2:2,0:0:0:0:
188,248,239033,2,0,P|196:206|229:162,2,67.9999979248048,2|2|2,3:2|2:2|2:2,0:0:0:0:
129,131,239306,2,0,P|156:98|207:77,2,67.9999979248048,10|2|2,2:2|2:2|2:2,0:0:0:0:
38,119,239579,5,2,3:2:0:0:
32,135,239670,2,0,P|35:162|86:218,1,67.9999979248048,2|2,2:2|2:2,0:0:0:0:
20,291,239851,1,10,2:2:0:0:
57,251,239942,1,2,2:2:0:0:
108,235,240033,1,2,2:2:0:0:
161,244,240124,2,0,B|269:295|276:214|401:275,1,203.999993774414,2|10,3:2|2:2,0:0:0:0:
360,258,240670,6,0,L|297:281,2,67.9999979248048,2|2|2,3:2|2:2|2:2,0:0:0:0:
460,308,240942,2,0,L|405:347,2,67.9999979248048,10|2|2,2:2|2:2|2:2,0:0:0:0:
448,213,241215,2,0,L|511:190,2,67.9999979248048,2|2|2,3:2|2:2|2:2,0:0:0:0:
430,114,241488,2,0,L|484:75,2,67.9999979248048,10|2|2,2:2|2:2|2:2,0:0:0:0:
365,38,241760,5,2,3:2:0:0:
354,51,241852,2,0,P|332:92|337:142,1,67.9999979248048,2|2,2:2|2:2,0:0:0:0:
244,165,242033,1,2,1:2:0:0:
191,156,242124,1,2,1:2:0:0:
145,129,242215,1,2,1:2:0:0:
91,133,242306,2,0,B|109:32|109:32|82:-34,2,135.99999584961,6|0|0,1:2|0:0|0:0,0:0:0:0:
33,221,242852,6,0,L|42:273,3,42.5,6|0|8|0,3:2|3:3|3:2|0:0,0:0:0:0:
134,256,243125,2,0,L|125:308,3,42.5,2|0|8|0,3:2|0:0|3:2|0:0,0:0:0:0:
228,299,243397,6,0,L|269:291,1,42.5,2|0,3:2|3:3,0:0:0:0:
251,210,243534,2,0,L|292:202,1,42.5,8|0,3:2|0:0,0:0:0:0:
276,120,243671,2,0,L|317:112,3,42.5,2|0|8|0,3:2|0:0|3:2|0:0,0:0:0:0:
388,48,243943,6,0,L|379:-4,2,42.5,2|0|8,3:2|3:3|3:2,0:0:0:0:
409,139,244216,1,2,3:2:0:0:
407,147,244284,1,0,3:3:0:0:
405,155,244352,1,8,3:2:0:0:
495,191,244489,2,0,L|504:139,2,42.5,2|0|8,3:2|3:3|3:2,0:0:0:0:
426,254,244762,1,2,3:2:0:0:
428,262,244830,1,0,3:3:0:0:
430,270,244898,1,8,3:2:0:0:
370,354,245034,6,0,L|318:363,3,42.5,2|0|8|0,3:2|3:3|3:2|0:0,0:0:0:0:
331,257,245307,2,0,L|279:248,3,42.5,2|0|8|0,3:2|0:0|3:2|0:0,0:0:0:0:
229,187,245579,6,0,L|236:145,1,42.5,2|0,3:2|3:3,0:0:0:0:
140,210,245716,2,0,L|147:168,1,42.5,8|0,3:2|0:0,0:0:0:0:
50,235,245853,2,0,L|57:193,3,42.5,2|0|8|0,3:2|0:0|3:2|0:0,0:0:0:0:
120,299,246124,5,2,3:2:0:0:
122,306,246193,1,0,3:3:0:0:
124,315,246261,1,8,3:2:0:0:
171,218,246397,1,2,3:2:0:0:
173,211,246465,1,0,3:3:0:0:
175,202,246533,1,8,3:2:0:0:
123,119,246670,1,2,3:2:0:0:
125,111,246738,1,0,3:3:0:0:
127,103,246806,2,0,L|116:-1,1,85,8|2,3:2|3:2,0:0:0:0:
289,8,247215,6,0,L|341:17,3,42.5,6|0|8|0,3:2|3:3|3:2|0:0,0:0:0:0:
306,118,247488,2,0,L|358:109,3,42.5,2|0|8|0,3:2|0:0|3:2|0:0,0:0:0:0:
440,82,247761,6,0,L|449:134,1,42.5,2|0,3:2|3:3,0:0:0:0:
425,168,247897,2,0,L|434:220,1,42.5,8|0,3:2|0:0,0:0:0:0:
410,254,248033,2,0,L|419:306,3,42.5,2|0|8|0,3:2|0:0|3:2|0:0,0:0:0:0:
346,361,248306,6,0,L|294:352,2,42.5,2|0|8,3:2|3:3|3:2,0:0:0:0:
287,258,248579,1,2,3:2:0:0:
279,260,248647,1,0,3:3:0:0:
271,262,248715,1,8,3:2:0:0:
193,320,248852,2,0,L|141:329,2,42.5,2|0|8,3:2|3:3|3:2,0:0:0:0:
139,231,249124,1,2,3:2:0:0:
131,229,249194,1,0,3:3:0:0:
123,227,249261,1,8,3:2:0:0:
53,294,249397,6,0,L|62:346,3,42.5,2|0|8|0,3:2|3:3|3:2|0:0,0:0:0:0:
0,214,249670,2,0,L|8:172,3,42.5,2|0|8|0,3:2|0:0|3:2|0:0,0:0:0:0:
41,78,249943,6,0,L|-11:87,1,42.5,2|0,3:2|3:3,0:0:0:0:
127,44,250079,2,0,L|75:53,1,42.5,8|0,3:2|0:0,0:0:0:0:
212,12,250215,2,0,L|160:21,3,42.5,2|0|8|0,3:2|0:0|3:2|0:0,0:0:0:0:
210,113,250488,5,2,3:2:0:0:
212,120,250556,1,0,3:3:0:0:
214,129,250624,1,8,3:2:0:0:
295,186,250761,1,2,3:2:0:0:
293,193,250829,1,0,3:3:0:0:
291,202,250898,1,8,3:2:0:0:
235,284,251033,1,2,3:2:0:0:
237,292,251102,1,0,3:3:0:0:
239,300,251170,2,0,L|229:359,5,42.5,8|0|2|0|8|0,3:2|3:3|3:2|3:3|3:2|3:3,0:0:0:0:
229,205,251579,6,0,P|289:218|332:276,1,101.999996887207,6|0,3:2|1:1,0:0:0:0:
475,279,251852,2,0,P|436:312|386:319,1,101.999996887207,2|0,3:2|1:1,0:0:0:0:
440,188,252124,2,0,L|465:84,1,101.999996887207,2|0,3:2|1:1,0:0:0:0:
297,1,252397,2,0,L|320:101,1,101.999996887207,2|0,3:2|1:1,0:0:0:0:
205,178,252670,6,0,L|105:155,1,101.999996887207,2|0,3:2|1:1,0:0:0:0:
42,63,252942,1,2,3:2:0:0:
42,63,253079,1,2,1:2:0:0:
1,237,253215,2,0,P|81:257|129:233,1,101.999996887207,2|0,3:2|1:1,0:0:0:0:
248,325,253488,2,0,L|148:348,1,101.999996887207,2|0,3:2|1:1,0:0:0:0:
408,308,253760,6,0,P|468:334|493:381,1,101.999996887207,6|2,3:2|3:2,0:0:0:0:
318,250,254033,2,0,P|300:202|310:153,1,101.999996887207,2|2,3:2|3:2,0:0:0:0:
202,8,254306,1,2,3:2:0:0:
295,60,254442,1,2,3:2:0:0:
295,60,254510,1,2,3:2:0:0:
295,60,254579,2,0,L|430:40,1,101.999996887207,2|2,3:2|3:2,0:0:0:0:
486,147,254851,5,2,3:2:0:0:
423,210,254987,1,2,3:2:0:0:
424,300,255124,1,2,3:2:0:0:
487,363,255260,1,2,3:2:0:0:
412,309,255397,2,0,B|317:325|317:325|302:339|302:339|180:354,1,203.999993774414,2|8,3:2|2:3,0:0:0:0:
80,349,255806,5,4,2:3:0:0:
87,359,255874,1,4,2:3:0:0:
94,369,255942,2,0,L|120:251,1,101.999996887207,6|0,3:2|1:1,0:0:0:0:
14,99,256215,2,0,L|40:217,1,101.999996887207,2|0,3:2|1:1,0:0:0:0:
172,177,256488,2,0,P|222:174|263:145,1,101.999996887207,2|0,3:2|1:1,0:0:0:0:
238,37,256760,2,0,P|188:39|147:68,1,101.999996887207,2|0,3:2|1:1,0:0:0:0:
115,269,257033,6,0,P|164:276|205:307,1,101.999996887207,2|0,3:2|1:1,0:0:0:0:
342,384,257306,1,2,3:2:0:0:
342,384,257442,1,2,1:2:0:0:
455,305,257579,2,0,L|469:193,1,101.999996887207,2|0,3:2|1:1,0:0:0:0:
381,25,257851,2,0,L|395:137,1,101.999996887207,2|0,3:2|1:1,0:0:0:0:
267,206,258124,6,0,P|210:189|175:137,1,101.999996887207,6|2,3:2|3:2,0:0:0:0:
95,26,258397,2,0,P|38:43|3:95,1,101.999996887207,2|2,3:2|3:2,0:0:0:0:
101,216,258670,1,2,3:2:0:0:
22,284,258806,1,2,3:2:0:0:
22,284,258874,1,2,3:2:0:0:
22,284,258942,2,0,L|3:401,1,101.999996887207,2|2,3:2|3:2,0:0:0:0:
158,357,259215,5,8,2:3:0:0:
197,374,259283,1,8,2:3:0:0:
239,370,259351,1,8,2:3:0:0:
273,346,259419,1,8,2:3:0:0:
291,309,259487,1,4,2:3:0:0:
405,309,259624,1,4,2:3:0:0:
415,315,259692,1,4,2:3:0:0:
425,321,259761,2,0,L|443:386,2,42.5,8|8|8,2:3|2:3|2:3,0:0:0:0:
355,215,260033,2,0,L|373:150,3,42.5,4|4|4|4,2:3|2:3|2:3|2:3,0:0:0:0:
376,74,260306,6,0,P|316:87|273:145,1,101.999996887207,6|0,3:2|1:1,0:0:0:0:
112,21,260578,2,0,P|151:54|201:61,1,101.999996887207,2|0,3:2|1:1,0:0:0:0:
240,204,260851,2,0,L|136:229,1,101.999996887207,2|0,3:2|1:1,0:0:0:0:
1,306,261124,2,0,L|101:329,1,101.999996887207,2|0,3:2|1:1,0:0:0:0:
296,380,261397,6,0,L|196:357,1,101.999996887207,2|0,3:2|1:1,0:0:0:0:
324,269,261669,1,2,3:2:0:0:
324,269,261806,1,2,1:2:0:0:
445,346,261942,2,0,P|465:266|441:218,1,101.999996887207,2|0,3:2|1:1,0:0:0:0:
360,112,262215,2,0,P|410:107|456:128,1,101.999996887207,2|0,3:2|1:1,0:0:0:0:
274,175,262487,6,0,P|213:148|188:101,1,101.999996887207,6|2,3:2|3:2,0:0:0:0:
38,82,262760,2,0,P|91:43|144:45,1,101.999996887207,2|2,3:2|3:2,0:0:0:0:
194,119,263033,1,2,3:2:0:0:
312,17,263169,1,2,3:2:0:0:
312,17,263237,1,2,3:2:0:0:
312,17,263306,2,0,L|447:37,1,101.999996887207,2|2,3:2|3:2,0:0:0:0:
503,159,263578,5,2,3:2:0:0:
456,234,263714,1,2,3:2:0:0:
367,254,263851,1,2,3:2:0:0:
292,207,263987,1,2,3:2:0:0:
206,230,264124,2,0,B|88:237|134:298|-8:302,1,203.999993774414,2|8,3:2|2:3,0:0:0:0:
173,364,264533,5,4,2:3:0:0:
166,375,264601,1,4,2:3:0:0:
159,384,264669,2,0,L|133:266,1,101.999996887207,6|0,3:2|1:1,0:0:0:0:
302,214,264942,2,0,L|281:313,1,101.999996887207,2|0,3:2|1:1,0:0:0:0:
399,384,265215,2,0,P|430:344|432:285,1,101.999996887207,2|0,3:2|1:1,0:0:0:0:
496,158,265487,2,0,P|455:187|404:189,1,101.999996887207,2|0,3:2|1:1,0:0:0:0:
362,12,265760,6,0,P|411:19|452:50,1,101.999996887207,2|0,3:2|1:1,0:0:0:0:
288,107,266033,1,2,3:2:0:0:
288,107,266169,1,2,1:2:0:0:
171,18,266306,2,0,L|157:130,1,101.999996887207,2|0,3:2|1:1,0:0:0:0:
251,304,266578,2,0,L|237:192,1,101.999996887207,2|0,3:2|1:1,0:0:0:0:
56,123,266851,6,0,P|68:171|104:206,1,101.999996887207,6|2,3:2|3:2,0:0:0:0:
35,378,267124,2,0,P|21:320|48:263,1,101.999996887207,2|2,3:2|3:2,0:0:0:0:
123,331,267397,1,2,3:2:0:0:
253,263,267533,1,2,3:2:0:0:
253,263,267601,1,2,3:2:0:0:
253,263,267669,2,0,L|370:282,1,101.999996887207,2|2,3:2|3:2,0:0:0:0:
463,369,267942,5,8,2:3:0:0:
489,336,268010,1,8,2:3:0:0:
498,295,268078,1,8,2:3:0:0:
485,256,268146,1,8,2:3:0:0:
455,228,268214,1,4,2:3:0:0:
419,94,268352,1,4,2:3:0:0:
403,133,268420,1,4,2:3:0:0:
372,161,268488,1,8,2:3:0:0:
332,169,268556,1,8,2:3:0:0:
292,157,268624,1,8,2:3:0:0:
231,79,268761,2,0,L|176:72,3,50.9999984436036,4|4|4|4,2:3|2:3|2:3|2:3,0:0:0:0:
96,25,269033,6,0,P|145:65|95:296,1,297.5,6|0,3:2|0:0,0:0:0:0:
121,370,270097,2,0,P|70:261|250:314,1,382.500014591218,6|0,3:2|3:3,0:0:0:0:
319,356,271028,1,0,3:3:0:0:
312,347,271161,6,0,P|281:282|332:105,1,255.000009727478,6|0,1:2|3:3,0:0:0:0:
400,56,271959,1,0,3:3:0:0:
400,56,272225,2,0,L|411:-18,2,56.6666666666667,0|0|0,1:1|1:1|1:1,0:0:0:0:
442,224,272758,2,0,L|453:150,2,56.6666666666667,0|0|0,1:1|1:1|1:1,0:0:0:0:
512,288,273290,6,0,P|443:291|403:383,1,170,6|2,3:2|3:2,0:0:0:0:
303,339,274048,2,0,L|294:254,1,56.6666666666667,0|0,3:3|3:3,0:0:0:0:
202,300,274498,6,0,L|184:260,2,28.3333333333333,0|0|0,1:1|1:1|1:1,0:0:0:0:
105,278,274873,2,0,L|109:235,2,28.3333333333333,8|8|8,2:3|2:3|2:3,0:0:0:0:
31,211,275273,2,0,L|56:176,2,28.3333333333333,4|4|4,2:3|2:3|2:3,0:0:0:0:
0,115,275734,2,0,L|39:97,2,28.3333333333333,4|0|0,2:3|3:3|3:3,0:0:0:0:
21,17,276254,5,6,3:2:0:0:
256,192,276419,12,4,286062,2:3:0:0:
80,113,286725,6,0,B|137:185|228:143|230:143|231:143|330:119|372:183|321:239|260:239|196:214|196:214|299:265|347:186|469:261,1,680,6|4,3:2|3:2,0:0:0:0:
