osu file format v14

[General]
AudioFilename: audio.mp3
AudioLeadIn: 0
PreviewTime: 23628
Countdown: 0
SampleSet: Soft
StackLeniency: 0.7
Mode: 0
LetterboxInBreaks: 0
WidescreenStoryboard: 0

[Editor]
Bookmarks: 1763,10334,24048,37763,53191,66905,80620,94334,107620
DistanceSpacing: 2.8
BeatDivisor: 4
GridSize: 16
TimelineZoom: 1

[Metadata]
Title:Violet Perfume
TitleUnicode:바이올렛 퍼퓸
Artist:SHK
ArtistUnicode:SHK
Creator:ktgster
Version:SHD
Source:PUMP IT UP - 2015 PRIME -
Tags:펌프잇업 matrix sound​holic​k
BeatmapID:2115970
BeatmapSetID:1010865

[Difficulty]
HPDrainRate:6
CircleSize:5
OverallDifficulty:8
ApproachRate:8
SliderMultiplier:1.7
SliderTickRate:1

[Events]
//Background and Video events
0,0,"maxresdefault.jpg",0,0
Video,65,"vid.mp4"
//Break Periods
2,8405,9163
//Storyboard Layer 0 (Background)
//Storyboard Layer 1 (Fail)
//Storyboard Layer 2 (Pass)
//Storyboard Layer 3 (Foreground)
//Storyboard Layer 4 (Overlay)
//Storyboard Sound Samples

[TimingPoints]
1771,428.571428571429,4,2,1,40,1,0
24056,-100,4,2,1,50,0,0
37771,-100,4,2,1,40,0,0
44628,-100,4,2,1,50,0,0
52771,-100,4,2,1,40,0,0
66913,-100,4,2,1,50,0,0
107199,-100,4,2,1,60,0,0

[Colours]
Combo1 : 255,132,255
Combo2 : 191,128,255
Combo3 : 255,15,255
Combo4 : 124,0,249

[HitObjects]
27,64,1342,5,0,0:0:0:0:
57,33,1449,1,0,0:0:0:0:
87,63,1556,1,0,0:0:0:0:
117,93,1663,1,0,0:0:0:0:
147,62,1771,5,12,0:0:0:0:
206,0,1985,1,0,0:0:0:0:
267,62,2199,1,0,0:0:0:0:
177,153,2413,5,0,0:0:0:0:
207,123,2521,1,0,0:0:0:0:
237,154,2628,1,0,0:0:0:0:
206,233,2842,1,0,0:0:0:0:
177,153,3056,1,0,0:0:0:0:
290,221,3271,5,0,0:0:0:0:
320,251,3378,1,0,0:0:0:0:
350,220,3485,1,0,0:0:0:0:
410,159,3699,1,0,0:0:0:0:
471,221,3913,1,0,0:0:0:0:
381,312,4128,5,0,0:0:0:0:
411,282,4235,1,0,0:0:0:0:
441,313,4342,1,0,0:0:0:0:
471,221,4556,1,0,0:0:0:0:
350,220,4771,1,0,0:0:0:0:
380,129,4985,5,0,0:0:0:0:
410,159,5092,1,0,0:0:0:0:
440,128,5199,1,12,0:0:0:0:
499,68,5413,1,0,0:0:0:0:
438,7,5628,1,0,0:0:0:0:
499,68,5842,1,0,0:0:0:0:
440,128,6056,1,0,0:0:0:0:
499,68,6271,1,0,0:0:0:0:
438,7,6485,1,0,0:0:0:0:
494,69,6699,1,0,0:0:0:0:
440,128,6913,5,0,0:0:0:0:
409,158,7021,1,0,0:0:0:0:
439,188,7128,1,0,0:0:0:0:
469,218,7235,1,0,0:0:0:0:
438,248,7342,1,0,0:0:0:0:
469,278,7449,1,0,0:0:0:0:
439,308,7556,1,0,0:0:0:0:
409,338,7663,1,0,0:0:0:0:
439,368,7771,5,4,0:0:0:0:
273,185,9913,5,0,0:0:0:0:
243,154,10021,1,0,0:0:0:0:
213,184,10128,1,0,0:0:0:0:
183,214,10235,1,0,0:0:0:0:
155,183,10342,5,12,0:0:0:0:
94,122,10556,1,0,0:0:0:0:
33,184,10771,1,8,0:0:0:0:
123,276,10985,5,0,0:0:0:0:
93,245,11092,1,0,0:0:0:0:
63,275,11199,1,8,0:0:0:0:
216,121,11413,5,0,0:0:0:0:
246,152,11521,1,0,0:0:0:0:
276,122,11628,1,8,0:0:0:0:
246,42,11842,1,0,0:0:0:0:
183,214,12056,5,8,0:0:0:0:
244,276,12271,1,0,0:0:0:0:
302,212,12485,1,8,0:0:0:0:
244,361,12699,1,0,0:0:0:0:
183,214,12913,1,8,0:0:0:0:
244,276,13128,1,0,0:0:0:0:
302,212,13342,1,8,0:0:0:0:
216,121,13556,5,0,0:0:0:0:
246,151,13663,1,0,0:0:0:0:
274,120,13771,1,8,0:0:0:0:
335,59,13985,1,0,0:0:0:0:
396,121,14199,1,8,0:0:0:0:
215,245,14413,5,0,0:0:0:0:
245,275,14521,1,0,0:0:0:0:
273,244,14628,1,8,0:0:0:0:
333,184,14842,1,0,0:0:0:0:
396,121,15056,1,8,0:0:0:0:
456,246,15271,5,0,0:0:0:0:
426,276,15378,1,0,0:0:0:0:
398,245,15485,1,8,0:0:0:0:
335,59,15699,1,0,0:0:0:0:
272,245,15913,1,8,0:0:0:0:
94,123,16128,5,0,0:0:0:0:
124,153,16235,1,0,0:0:0:0:
152,122,16342,1,8,0:0:0:0:
212,61,16556,1,0,0:0:0:0:
272,122,16771,1,8,0:0:0:0:
212,61,16985,1,0,0:0:0:0:
357,183,17199,5,12,0:0:0:0:
418,122,17413,1,0,0:0:0:0:
479,184,17628,1,8,0:0:0:0:
389,276,17842,5,0,0:0:0:0:
419,245,17949,1,0,0:0:0:0:
449,275,18056,1,8,0:0:0:0:
296,121,18271,5,0,0:0:0:0:
266,152,18378,1,0,0:0:0:0:
236,122,18485,1,8,0:0:0:0:
266,42,18699,1,0,0:0:0:0:
329,214,18913,5,8,0:0:0:0:
268,276,19128,1,0,0:0:0:0:
210,212,19342,1,8,0:0:0:0:
268,361,19556,1,0,0:0:0:0:
329,214,19771,1,8,0:0:0:0:
268,276,19985,1,0,0:0:0:0:
210,212,20199,1,8,0:0:0:0:
296,121,20413,5,0,0:0:0:0:
266,151,20521,1,0,0:0:0:0:
238,120,20628,1,8,0:0:0:0:
177,59,20842,1,0,0:0:0:0:
116,121,21056,1,8,0:0:0:0:
297,245,21271,5,0,0:0:0:0:
267,275,21378,1,0,0:0:0:0:
239,244,21485,1,8,0:0:0:0:
179,184,21699,1,0,0:0:0:0:
116,121,21913,1,8,0:0:0:0:
57,241,22128,5,0,0:0:0:0:
87,271,22235,1,0,0:0:0:0:
115,240,22342,1,8,0:0:0:0:
179,184,22556,1,0,0:0:0:0:
239,244,22771,1,8,0:0:0:0:
178,304,22985,1,0,0:0:0:0:
115,240,23199,5,8,0:0:0:0:
243,128,23413,1,10,1:2:0:0:
355,256,23628,1,10,1:2:0:0:
385,287,23735,1,0,0:0:0:0:
415,257,23842,1,0,0:0:0:0:
445,227,23949,1,0,0:0:0:0:
475,258,24056,5,12,0:0:0:0:
402,329,24271,1,0,0:0:0:0:
329,258,24485,1,0,1:0:0:0:
438,150,24699,5,0,0:0:0:0:
402,187,24806,1,0,0:0:0:0:
366,150,24913,1,8,0:0:0:0:
184,329,25128,5,0,0:0:0:0:
220,292,25235,1,0,0:0:0:0:
256,329,25342,1,0,1:0:0:0:
329,258,25556,1,0,0:0:0:0:
148,116,25771,5,8,0:0:0:0:
220,189,25985,1,0,0:0:0:0:
292,117,26199,1,0,1:0:0:0:
220,292,26413,1,0,0:0:0:0:
148,116,26628,1,8,0:0:0:0:
220,189,26842,1,0,0:0:0:0:
292,117,27056,1,0,1:0:0:0:
184,7,27271,5,0,0:0:0:0:
220,44,27378,1,0,0:0:0:0:
256,7,27485,1,8,0:0:0:0:
327,78,27699,1,0,0:0:0:0:
399,5,27913,1,0,1:0:0:0:
184,151,28128,5,0,0:0:0:0:
220,188,28235,1,0,0:0:0:0:
256,151,28342,1,8,0:0:0:0:
327,79,28556,1,0,0:0:0:0:
399,152,28771,1,0,1:0:0:0:
184,294,28985,5,0,0:0:0:0:
220,331,29092,1,0,0:0:0:0:
256,294,29199,1,8,0:0:0:0:
327,79,29413,1,0,0:0:0:0:
399,294,29628,1,0,1:0:0:0:
471,151,29842,5,0,0:0:0:0:
435,188,29949,1,0,0:0:0:0:
399,151,30056,1,8,0:0:0:0:
327,79,30271,1,0,0:0:0:0:
256,151,30485,1,0,1:0:0:0:
328,223,30699,1,0,0:0:0:0:
183,258,30913,5,12,0:0:0:0:
110,329,31128,1,0,0:0:0:0:
37,258,31342,1,0,1:0:0:0:
146,150,31556,5,0,0:0:0:0:
110,187,31663,1,0,0:0:0:0:
74,150,31771,1,8,0:0:0:0:
256,329,31985,5,0,0:0:0:0:
292,292,32092,1,0,0:0:0:0:
328,329,32199,1,0,1:0:0:0:
399,257,32413,1,0,0:0:0:0:
364,116,32628,5,8,0:0:0:0:
292,189,32842,1,0,0:0:0:0:
220,117,33056,1,0,1:0:0:0:
292,292,33271,1,0,0:0:0:0:
364,116,33485,1,8,0:0:0:0:
292,189,33699,1,0,0:0:0:0:
220,117,33913,1,0,1:0:0:0:
328,7,34128,5,0,0:0:0:0:
292,44,34235,1,0,0:0:0:0:
256,7,34342,1,8,0:0:0:0:
185,78,34556,1,0,0:0:0:0:
113,5,34771,1,0,1:0:0:0:
328,150,34985,5,0,0:0:0:0:
292,187,35092,1,0,0:0:0:0:
256,150,35199,1,8,0:0:0:0:
185,78,35413,1,0,0:0:0:0:
113,150,35628,1,0,1:0:0:0:
328,293,35842,5,0,0:0:0:0:
292,330,35949,1,0,0:0:0:0:
256,293,36056,1,8,0:0:0:0:
184,221,36271,1,0,0:0:0:0:
113,293,36485,1,0,1:0:0:0:
185,365,36699,1,0,0:0:0:0:
327,221,36913,5,8,0:0:0:0:
183,79,37128,1,10,1:2:0:0:
41,223,37342,1,10,1:2:0:0:
185,365,37556,5,0,0:0:0:0:
215,334,37663,1,0,0:0:0:0:
184,303,37771,1,12,0:0:0:0:
123,242,37985,1,0,0:0:0:0:
183,181,38199,1,0,0:0:0:0:
243,120,38413,1,8,0:0:0:0:
182,59,38628,1,8,0:3:0:0:
151,29,38735,1,0,0:0:0:0:
120,60,38842,1,0,0:0:0:0:
60,119,39056,1,0,0:0:0:0:
0,179,39271,1,8,0:0:0:0:
123,242,39485,5,8,0:0:0:0:
184,303,39699,1,0,0:0:0:0:
123,364,39913,1,0,0:0:0:0:
298,334,40128,5,8,0:0:0:0:
268,303,40235,1,0,0:0:0:0:
299,272,40342,1,8,0:3:0:0:
377,303,40556,1,0,0:0:0:0:
298,334,40771,1,0,0:0:0:0:
268,193,40985,5,8,0:0:0:0:
299,163,41092,1,0,0:0:0:0:
330,194,41199,1,12,0:0:0:0:
389,253,41413,1,0,0:0:0:0:
449,192,41628,1,0,0:0:0:0:
268,84,41842,5,8,0:0:0:0:
299,54,41949,1,0,0:0:0:0:
330,85,42056,1,8,0:3:0:0:
390,24,42271,1,0,0:0:0:0:
450,84,42485,1,0,0:0:0:0:
268,193,42699,5,8,0:0:0:0:
237,223,42806,1,0,0:0:0:0:
206,192,42913,1,8,0:0:0:0:
147,133,43128,1,0,0:0:0:0:
87,194,43342,1,0,0:0:0:0:
147,254,43556,1,8,0:0:0:0:
265,130,43771,5,8,0:3:0:0:
141,12,43985,1,0,0:0:0:0:
23,136,44199,1,0,0:0:0:0:
147,254,44413,1,8,0:0:0:0:
177,284,44521,1,0,0:0:0:0:
146,314,44628,5,12,0:0:0:0:
73,384,44842,1,0,0:0:0:0:
0,311,45056,1,0,1:0:0:0:
238,224,45271,5,0,0:0:0:0:
274,187,45378,1,0,0:0:0:0:
310,223,45485,1,8,0:0:0:0:
382,150,45699,1,0,0:0:0:0:
454,222,45913,1,0,1:0:0:0:
310,78,46128,5,0,0:0:0:0:
274,41,46235,1,0,0:0:0:0:
238,77,46342,1,8,0:0:0:0:
166,149,46556,1,0,0:0:0:0:
94,76,46771,1,0,1:0:0:0:
22,223,46985,5,0,0:0:0:0:
58,186,47092,1,0,0:0:0:0:
94,222,47199,1,8,0:0:0:0:
166,149,47413,1,0,0:0:0:0:
238,221,47628,1,0,1:0:0:0:
274,41,47842,5,0,0:0:0:0:
310,78,47949,1,0,0:0:0:0:
346,42,48056,1,12,0:0:0:0:
418,115,48271,1,0,0:0:0:0:
490,43,48485,1,0,1:0:0:0:
418,115,48699,1,0,0:0:0:0:
345,187,48913,1,8,0:0:0:0:
418,115,49128,1,0,0:0:0:0:
490,187,49342,1,0,1:0:0:0:
418,115,49556,1,0,0:0:0:0:
346,42,49771,5,12,0:0:0:0:
310,78,49878,1,0,0:0:0:0:
274,114,49985,1,0,0:0:0:0:
238,78,50092,1,0,0:0:0:0:
201,41,50199,1,4,1:2:0:0:
164,77,50306,1,0,0:0:0:0:
127,113,50413,1,0,0:0:0:0:
94,78,50521,1,0,0:0:0:0:
56,113,50628,5,12,0:0:0:0:
20,77,50735,1,0,0:0:0:0:
57,41,50842,1,8,0:0:0:0:
57,195,51056,5,4,1:2:0:0:
93,231,51163,1,0,0:0:0:0:
129,195,51271,1,8,0:0:0:0:
165,159,51378,1,0,0:0:0:0:
201,195,51485,1,4,0:0:0:0:
455,195,52771,5,0,0:0:0:0:
425,165,52878,1,0,0:0:0:0:
395,194,52985,1,0,0:0:0:0:
365,224,53092,1,0,0:0:0:0:
335,193,53199,5,12,0:0:0:0:
275,133,53413,1,0,0:0:0:0:
214,193,53628,1,0,0:0:0:0:
153,134,53842,5,8,0:0:0:0:
122,104,53949,1,0,0:0:0:0:
91,135,54056,1,8,0:3:0:0:
152,194,54271,5,0,0:0:0:0:
183,224,54378,1,0,0:0:0:0:
214,193,54485,1,0,0:0:0:0:
273,133,54699,1,8,0:0:0:0:
333,72,54913,5,10,0:0:0:0:
393,132,55128,1,0,0:0:0:0:
334,192,55342,1,0,0:0:0:0:
393,132,55556,1,8,0:0:0:0:
453,71,55771,1,8,0:3:0:0:
393,132,55985,1,0,0:0:0:0:
453,192,56199,1,0,0:0:0:0:
392,252,56413,5,8,0:0:0:0:
422,283,56521,1,0,0:0:0:0:
391,314,56628,1,12,0:0:0:0:
330,374,56842,1,0,0:0:0:0:
269,313,57056,1,0,0:0:0:0:
330,374,57271,5,8,0:0:0:0:
360,343,57378,1,0,0:0:0:0:
329,312,57485,1,8,0:3:0:0:
268,372,57699,1,0,0:0:0:0:
207,313,57913,1,0,0:0:0:0:
268,252,58128,5,8,0:0:0:0:
298,283,58235,1,0,0:0:0:0:
267,314,58342,1,10,0:0:0:0:
208,251,58556,1,0,0:0:0:0:
145,313,58771,1,0,0:0:0:0:
208,251,58985,5,8,0:0:0:0:
238,282,59092,1,0,0:0:0:0:
207,313,59199,1,8,0:3:0:0:
146,252,59413,1,0,0:0:0:0:
85,312,59628,1,0,0:0:0:0:
145,372,59842,1,8,0:0:0:0:
177,193,60056,5,12,0:0:0:0:
237,133,60271,1,0,0:0:0:0:
298,193,60485,1,0,0:0:0:0:
359,134,60699,5,8,0:0:0:0:
390,104,60806,1,0,0:0:0:0:
421,135,60913,1,8,0:3:0:0:
360,194,61128,5,0,0:0:0:0:
329,224,61235,1,0,0:0:0:0:
298,193,61342,1,0,0:0:0:0:
239,133,61556,1,8,0:0:0:0:
179,72,61771,5,10,0:0:0:0:
119,132,61985,1,0,0:0:0:0:
178,192,62199,1,0,0:0:0:0:
119,132,62413,1,8,0:0:0:0:
59,71,62628,1,8,0:3:0:0:
119,132,62842,1,0,0:0:0:0:
59,192,63056,1,0,0:0:0:0:
120,252,63271,5,8,0:0:0:0:
90,283,63378,1,0,0:0:0:0:
121,314,63485,1,12,0:0:0:0:
182,374,63699,1,0,0:0:0:0:
243,313,63913,1,0,0:0:0:0:
182,374,64128,5,8,0:0:0:0:
152,343,64235,1,0,0:0:0:0:
183,312,64342,1,8,0:3:0:0:
244,372,64556,1,0,0:0:0:0:
305,313,64771,1,0,0:0:0:0:
244,252,64985,5,8,0:0:0:0:
214,283,65092,1,0,0:0:0:0:
245,314,65199,1,10,0:0:0:0:
304,251,65413,1,0,0:0:0:0:
367,313,65628,1,0,0:0:0:0:
306,373,65842,1,8,0:0:0:0:
428,253,66056,5,10,1:2:0:0:
308,131,66271,1,2,1:2:0:0:
186,251,66485,5,10,1:2:0:0:
150,215,66592,1,0,0:0:0:0:
114,251,66699,1,0,0:0:0:0:
78,287,66806,1,0,0:0:0:0:
42,251,66913,5,12,0:0:0:0:
114,178,67128,1,0,0:0:0:0:
186,251,67342,1,0,1:0:0:0:
78,360,67556,5,0,0:0:0:0:
114,324,67663,1,0,0:0:0:0:
150,360,67771,1,8,0:0:0:0:
258,178,67985,5,0,0:0:0:0:
294,214,68092,1,0,0:0:0:0:
330,178,68199,1,0,1:0:0:0:
294,82,68413,1,0,0:0:0:0:
294,360,68628,5,8,0:0:0:0:
366,287,68842,1,0,0:0:0:0:
438,359,69056,1,0,1:0:0:0:
294,214,69271,1,0,0:0:0:0:
438,359,69485,1,8,0:0:0:0:
366,287,69699,1,0,0:0:0:0:
438,215,69913,1,0,1:0:0:0:
330,178,70128,5,0,0:0:0:0:
294,214,70235,1,0,0:0:0:0:
258,178,70342,1,8,0:0:0:0:
186,249,70556,1,0,0:0:0:0:
113,321,70771,1,0,1:0:0:0:
330,178,70985,5,0,0:0:0:0:
294,214,71092,1,0,0:0:0:0:
258,178,71199,1,8,0:0:0:0:
186,106,71413,1,0,0:0:0:0:
113,180,71628,1,0,1:0:0:0:
330,178,71842,5,0,0:0:0:0:
294,214,71949,1,0,0:0:0:0:
258,178,72056,1,8,0:0:0:0:
113,35,72271,1,0,0:0:0:0:
113,321,72485,1,0,1:0:0:0:
330,178,72699,5,0,0:0:0:0:
294,214,72806,1,0,0:0:0:0:
258,178,72913,1,8,0:0:0:0:
186,106,73128,1,0,0:0:0:0:
113,180,73342,1,0,1:0:0:0:
186,249,73556,1,0,0:0:0:0:
470,251,73771,5,12,0:0:0:0:
398,178,73985,1,0,0:0:0:0:
326,251,74199,1,0,1:0:0:0:
434,360,74413,5,0,0:0:0:0:
398,324,74521,1,0,0:0:0:0:
362,360,74628,1,8,0:0:0:0:
254,178,74842,5,0,0:0:0:0:
218,214,74949,1,0,0:0:0:0:
182,178,75056,1,0,1:0:0:0:
218,82,75271,1,0,0:0:0:0:
218,360,75485,5,8,0:0:0:0:
146,287,75699,1,0,0:0:0:0:
74,359,75913,1,0,1:0:0:0:
218,214,76128,1,0,0:0:0:0:
74,359,76342,1,8,0:0:0:0:
146,287,76556,1,0,0:0:0:0:
74,215,76771,1,0,1:0:0:0:
182,178,76985,5,0,0:0:0:0:
218,214,77092,1,0,0:0:0:0:
254,178,77199,1,8,0:0:0:0:
326,249,77413,1,0,0:0:0:0:
399,321,77628,1,0,1:0:0:0:
182,178,77842,5,0,0:0:0:0:
218,214,77949,1,0,0:0:0:0:
254,178,78056,1,8,0:0:0:0:
326,106,78271,1,0,0:0:0:0:
399,180,78485,1,0,1:0:0:0:
182,178,78699,5,0,0:0:0:0:
218,214,78806,1,0,0:0:0:0:
254,178,78913,1,8,0:0:0:0:
326,106,79128,1,0,0:0:0:0:
399,180,79342,1,0,1:0:0:0:
325,249,79556,1,0,0:0:0:0:
473,111,79771,5,8,0:0:0:0:
325,249,79985,1,10,1:2:0:0:
177,111,80199,1,10,1:2:0:0:
325,249,80413,5,0,0:0:0:0:
361,285,80521,1,0,0:0:0:0:
325,321,80628,1,12,0:0:0:0:
252,248,80842,1,0,0:0:0:0:
324,175,81056,1,0,1:0:0:0:
396,247,81271,1,0,0:0:0:0:
324,175,81485,1,8,0:0:0:0:
288,139,81592,1,0,0:0:0:0:
324,103,81699,1,0,0:0:0:0:
395,31,81913,1,0,1:0:0:0:
467,103,82128,1,0,0:0:0:0:
253,175,82342,5,8,0:0:0:0:
324,103,82556,1,0,0:0:0:0:
396,175,82771,1,0,1:0:0:0:
289,285,82985,5,0,0:0:0:0:
325,249,83092,1,0,0:0:0:0:
361,285,83199,1,8,0:0:0:0:
288,357,83413,1,0,0:0:0:0:
215,284,83628,1,0,1:0:0:0:
289,213,83842,5,0,0:0:0:0:
325,249,83949,1,0,0:0:0:0:
361,213,84056,1,8,0:0:0:0:
433,285,84271,1,0,0:0:0:0:
360,357,84485,1,0,1:0:0:0:
253,177,84699,5,0,0:0:0:0:
289,213,84806,1,0,0:0:0:0:
325,177,84913,1,8,0:0:0:0:
397,249,85128,1,0,0:0:0:0:
469,176,85342,1,0,1:0:0:0:
217,141,85556,5,0,0:0:0:0:
253,177,85663,1,0,0:0:0:0:
289,141,85771,1,8,0:0:0:0:
361,68,85985,1,0,0:0:0:0:
433,140,86199,1,0,1:0:0:0:
361,211,86413,1,0,0:0:0:0:
217,71,86628,5,8,0:0:0:0:
361,211,86842,1,0,0:0:0:0:
217,351,87056,1,0,1:0:0:0:
73,211,87271,5,8,0:0:0:0:
37,175,87378,1,0,0:0:0:0:
73,139,87485,1,12,0:0:0:0:
156,55,87699,1,0,0:0:0:0:
240,139,87913,1,0,1:0:0:0:
113,265,88128,5,0,0:0:0:0:
155,308,88235,1,0,0:0:0:0:
197,266,88342,1,8,0:0:0:0:
281,350,88556,1,0,0:0:0:0:
365,265,88771,1,0,1:0:0:0:
198,182,88985,5,0,0:0:0:0:
240,139,89092,1,0,0:0:0:0:
282,181,89199,1,8,0:0:0:0:
366,265,89413,1,0,0:0:0:0:
450,349,89628,1,0,1:0:0:0:
283,265,89842,5,0,0:0:0:0:
325,308,89949,1,0,0:0:0:0:
367,266,90056,1,8,0:0:0:0:
451,181,90271,1,0,0:0:0:0:
366,96,90485,1,0,1:0:0:0:
283,265,90699,5,0,0:0:0:0:
241,308,90806,1,0,0:0:0:0:
199,266,90913,1,8,0:0:0:0:
115,181,91128,1,0,0:0:0:0:
30,96,91342,1,0,1:0:0:0:
115,181,91556,1,0,0:0:0:0:
199,96,91771,1,8,0:0:0:0:
115,181,91985,1,0,0:0:0:0:
30,265,92199,1,0,1:0:0:0:
115,181,92413,1,0,0:0:0:0:
199,265,92628,5,12,0:0:0:0:
235,301,92735,1,0,0:0:0:0:
271,264,92842,1,0,0:0:0:0:
307,227,92949,1,0,0:0:0:0:
343,263,93056,1,4,1:2:0:0:
379,299,93163,1,0,0:0:0:0:
415,262,93271,1,0,0:0:0:0:
451,225,93378,1,0,0:0:0:0:
487,261,93485,5,14,1:2:0:0:
402,345,93699,1,10,1:2:0:0:
343,263,93913,1,10,1:2:0:0:
307,227,94021,1,0,0:0:0:0:
271,264,94128,1,0,0:0:0:0:
235,301,94235,1,0,0:0:0:0:
199,265,94342,5,12,0:0:0:0:
115,181,94556,1,0,0:0:0:0:
31,266,94771,1,0,1:0:0:0:
73,104,94985,5,0,0:0:0:0:
115,62,95092,1,0,0:0:0:0:
157,105,95199,1,8,0:0:0:0:
157,307,95413,5,0,0:0:0:0:
115,350,95521,1,0,0:0:0:0:
73,308,95628,1,0,1:0:0:0:
115,181,95842,1,0,0:0:0:0:
259,348,96056,5,8,0:0:0:0:
343,263,96271,1,0,0:0:0:0:
259,178,96485,1,0,1:0:0:0:
427,348,96699,1,0,0:0:0:0:
343,263,96913,1,8,0:0:0:0:
427,178,97128,1,0,0:0:0:0:
343,263,97342,1,0,1:0:0:0:
259,178,97556,5,0,0:0:0:0:
217,220,97663,1,0,0:0:0:0:
175,177,97771,1,8,0:0:0:0:
90,261,97985,1,0,0:0:0:0:
174,345,98199,1,0,1:0:0:0:
301,220,98413,5,0,0:0:0:0:
259,178,98521,1,0,0:0:0:0:
217,221,98628,1,8,0:0:0:0:
132,305,98842,1,0,0:0:0:0:
47,220,99056,1,0,1:0:0:0:
343,178,99271,5,0,0:0:0:0:
301,220,99378,1,0,0:0:0:0:
259,177,99485,1,8,0:0:0:0:
90,8,99699,1,0,0:0:0:0:
90,261,99913,1,0,1:0:0:0:
259,177,100128,5,0,0:0:0:0:
301,134,100235,1,0,0:0:0:0:
343,176,100342,1,8,0:0:0:0:
427,260,100556,1,0,0:0:0:0:
511,175,100771,1,0,1:0:0:0:
426,90,100985,1,0,0:0:0:0:
319,264,101199,5,12,0:0:0:0:
403,180,101413,1,0,0:0:0:0:
487,265,101628,1,0,1:0:0:0:
445,103,101842,5,0,0:0:0:0:
403,61,101949,1,0,0:0:0:0:
361,104,102056,1,8,0:0:0:0:
361,306,102271,5,0,0:0:0:0:
403,349,102378,1,0,0:0:0:0:
445,307,102485,1,0,1:0:0:0:
403,180,102699,1,0,0:0:0:0:
259,347,102913,5,8,0:0:0:0:
175,262,103128,1,0,0:0:0:0:
259,177,103342,1,0,1:0:0:0:
259,347,103663,1,0,0:0:0:0:
216,305,103771,5,8,0:0:0:0:
91,177,103985,1,2,0:0:0:0:
219,52,104199,1,4,1:2:0:0:
344,180,104413,5,0,0:0:0:0:
387,222,104521,1,0,0:0:0:0:
345,264,104628,1,12,0:0:0:0:
260,348,104842,1,0,0:0:0:0:
175,263,105056,1,0,1:0:0:0:
345,96,105271,5,0,0:0:0:0:
302,138,105378,1,0,0:0:0:0:
344,180,105485,1,8,0:0:0:0:
428,264,105699,1,0,0:0:0:0:
343,348,105913,1,0,1:0:0:0:
164,348,106235,1,0,0:0:0:0:
164,288,106342,5,12,0:0:0:0:
207,245,106449,1,0,0:0:0:0:
250,288,106556,1,0,0:0:0:0:
293,331,106663,1,0,0:0:0:0:
335,288,106771,1,4,1:2:0:0:
378,245,106878,1,0,0:0:0:0:
421,288,106985,1,0,0:0:0:0:
464,331,107092,1,0,0:0:0:0:
507,288,107199,5,14,1:2:0:0:
336,122,107413,1,10,1:2:0:0:
164,288,107628,1,14,1:2:0:0:
