osu file format v14

[General]
AudioFilename: audio.mp3
AudioLeadIn: 0
PreviewTime: 23628
Countdown: 0
SampleSet: Soft
StackLeniency: 0.6
Mode: 0
LetterboxInBreaks: 0
WidescreenStoryboard: 1

[Editor]
Bookmarks: 1763,10334,24048,37763,53191,66905,80620,94334,107620
DistanceSpacing: 1
BeatDivisor: 4
GridSize: 4
TimelineZoom: 1

[Metadata]
Title:Violet Perfume
TitleUnicode:바이올렛 퍼퓸
Artist:SHK
ArtistUnicode:SHK
Creator:ktgster
Version:Normal
Source:PUMP IT UP - 2015 PRIME -
Tags:펌프잇업 matrix sound​holic​k
BeatmapID:2119141
BeatmapSetID:1010865

[Difficulty]
HPDrainRate:3
CircleSize:5
OverallDifficulty:5
ApproachRate:5
SliderMultiplier:0.8
SliderTickRate:1

[Events]
//Background and Video events
0,0,"maxresdefault.jpg",0,0
Video,65,"vid.mp4"
//Break Periods
2,8298,9014
//Storyboard Layer 0 (Background)
//Storyboard Layer 1 (Fail)
//Storyboard Layer 2 (Pass)
//Storyboard Layer 3 (Foreground)
//Storyboard Layer 4 (Overlay)
//Storyboard Sound Samples

[TimingPoints]
1771,428.571428571429,4,2,1,40,1,0
24056,-100,4,2,1,50,0,0
37771,-100,4,2,1,40,0,0
44628,-100,4,2,1,50,0,0
52771,-100,4,2,1,40,0,0
66913,-100,4,2,1,50,0,0
107199,-100,4,2,1,60,0,0

[Colours]
Combo1 : 255,132,255
Combo2 : 191,128,255
Combo3 : 255,15,255
Combo4 : 124,0,249

[HitObjects]
52,192,1771,5,12,0:0:0:0:
108,135,2199,1,0,0:0:0:0:
164,191,2628,1,0,0:0:0:0:
220,247,3056,1,0,0:0:0:0:
276,303,3485,5,0,0:0:0:0:
332,246,3913,1,0,0:0:0:0:
275,189,4342,1,0,0:0:0:0:
331,132,4771,1,0,0:0:0:0:
387,75,5199,5,12,0:0:0:0:
443,131,5628,1,0,0:0:0:0:
499,187,6056,1,0,0:0:0:0:
442,243,6485,1,0,0:0:0:0:
385,299,6913,5,0,0:0:0:0:
328,242,7342,1,0,0:0:0:0:
271,298,7771,1,4,0:0:0:0:
428,192,10342,5,12,0:0:0:0:
371,135,10771,1,8,0:0:0:0:
314,191,11199,1,8,0:0:0:0:
285,219,11413,1,0,0:0:0:0:
256,247,11628,1,8,0:0:0:0:
199,303,12056,5,8,0:0:0:0:
142,360,12485,1,8,0:0:0:0:
85,304,12913,1,8,0:0:0:0:
141,248,13342,1,8,0:0:0:0:
84,191,13771,5,8,0:0:0:0:
140,135,14199,1,8,0:0:0:0:
196,192,14628,1,8,0:0:0:0:
224,163,14842,1,0,0:0:0:0:
252,134,15056,1,8,0:0:0:0:
308,77,15485,5,8,0:0:0:0:
364,20,15913,1,8,0:0:0:0:
420,76,16342,1,8,0:0:0:0:
476,132,16771,1,8,0:0:0:0:
419,188,17199,5,12,0:0:0:0:
362,245,17628,1,8,0:0:0:0:
305,189,18056,1,8,0:0:0:0:
276,161,18271,1,0,0:0:0:0:
247,133,18485,1,8,0:0:0:0:
190,77,18913,5,8,0:0:0:0:
133,20,19342,1,8,0:0:0:0:
76,76,19771,1,8,0:0:0:0:
132,132,20199,1,8,0:0:0:0:
75,189,20628,5,8,0:0:0:0:
131,245,21056,1,8,0:0:0:0:
187,188,21485,1,8,0:0:0:0:
215,217,21699,1,0,0:0:0:0:
243,246,21913,1,8,0:0:0:0:
299,303,22342,5,8,0:0:0:0:
355,360,22771,1,8,0:0:0:0:
411,304,23199,1,8,0:0:0:0:
439,276,23413,1,10,1:2:0:0:
410,247,23628,1,10,1:2:0:0:
353,190,24056,5,12,0:0:0:0:
296,133,24485,1,0,1:0:0:0:
324,104,24699,1,0,0:0:0:0:
352,75,24913,1,8,0:0:0:0:
295,19,25342,1,0,1:0:0:0:
237,75,25771,5,8,0:0:0:0:
180,131,26199,1,0,1:0:0:0:
123,74,26628,1,8,0:0:0:0:
94,45,26842,1,0,0:0:0:0:
65,73,27056,1,0,1:0:0:0:
8,129,27485,5,8,0:0:0:0:
64,185,27913,1,0,1:0:0:0:
120,241,28342,1,8,0:0:0:0:
149,269,28556,1,0,0:0:0:0:
178,297,28771,1,0,1:0:0:0:
234,353,29199,5,8,0:0:0:0:
290,297,29628,1,0,1:0:0:0:
346,241,30056,1,8,0:0:0:0:
375,213,30271,1,0,0:0:0:0:
403,184,30485,1,0,1:0:0:0:
347,127,30913,5,12,0:0:0:0:
290,184,31342,1,0,1:0:0:0:
346,241,31771,1,8,0:0:0:0:
317,269,31985,1,0,0:0:0:0:
289,298,32199,1,0,1:0:0:0:
231,242,32628,5,8,0:0:0:0:
174,298,33056,1,0,1:0:0:0:
117,241,33485,1,8,0:0:0:0:
88,212,33699,1,0,0:0:0:0:
116,183,33913,1,0,1:0:0:0:
172,126,34342,5,8,0:0:0:0:
228,69,34771,1,0,1:0:0:0:
284,125,35199,1,8,0:0:0:0:
313,153,35413,1,0,0:0:0:0:
342,181,35628,1,0,1:0:0:0:
398,237,36056,5,8,0:0:0:0:
341,293,36485,1,0,1:0:0:0:
284,236,36913,1,8,0:0:0:0:
255,207,37128,1,10,1:2:0:0:
226,235,37342,1,10,1:2:0:0:
169,291,37771,5,12,0:0:0:0:
55,177,38628,1,8,0:3:0:0:
168,63,39485,1,8,0:0:0:0:
281,176,40342,1,8,0:3:0:0:
337,119,40771,1,0,0:0:0:0:
393,175,41199,5,12,0:0:0:0:
279,288,42056,1,8,0:3:0:0:
165,174,42913,1,8,0:0:0:0:
278,60,43771,1,8,0:3:0:0:
334,116,44199,1,0,0:0:0:0:
390,59,44628,5,12,0:0:0:0:
446,115,45056,1,0,1:0:0:0:
389,171,45485,1,8,0:0:0:0:
360,199,45699,1,0,0:0:0:0:
331,227,45913,1,0,1:0:0:0:
274,283,46342,5,8,0:0:0:0:
218,227,46771,1,0,1:0:0:0:
274,170,47199,1,8,0:0:0:0:
245,142,47413,1,0,0:0:0:0:
216,114,47628,1,0,1:0:0:0:
159,57,48056,5,12,0:0:0:0:
102,113,48485,1,0,1:0:0:0:
158,169,48913,1,8,0:0:0:0:
101,225,49342,1,0,1:0:0:0:
157,281,49771,5,12,0:0:0:0:
218,227,50199,1,4,1:2:0:0:
274,283,50628,1,12,0:0:0:0:
330,339,51056,1,4,1:2:0:0:
386,282,51485,1,4,0:0:0:0:
460,192,53199,5,12,0:0:0:0:
346,78,54056,1,8,0:3:0:0:
261,162,54699,1,8,0:0:0:0:
261,162,54913,5,10,0:0:0:0:
374,275,55771,1,8,0:3:0:0:
289,359,56413,1,8,0:0:0:0:
289,359,56628,5,12,0:0:0:0:
204,274,57271,1,8,0:0:0:0:
204,274,57485,1,8,0:3:0:0:
288,189,58128,1,8,0:0:0:0:
288,189,58342,1,10,0:0:0:0:
203,104,58985,1,8,0:0:0:0:
203,104,59199,1,8,0:3:0:0:
146,47,59628,1,0,0:0:0:0:
89,103,60056,5,12,0:0:0:0:
203,217,60913,1,8,0:3:0:0:
288,133,61556,1,8,0:0:0:0:
288,133,61771,5,10,0:0:0:0:
175,20,62628,1,8,0:3:0:0:
89,103,63271,1,8,0:0:0:0:
89,103,63485,5,12,0:0:0:0:
173,187,64128,1,8,0:0:0:0:
173,187,64342,1,8,0:3:0:0:
257,102,64985,1,8,0:0:0:0:
257,102,65199,1,10,0:0:0:0:
341,186,65842,1,8,0:0:0:0:
341,186,66056,1,10,1:2:0:0:
341,186,66271,1,2,1:2:0:0:
341,186,66485,1,10,1:2:0:0:
397,129,66913,5,12,0:0:0:0:
453,185,67342,1,0,1:0:0:0:
396,241,67771,1,8,0:0:0:0:
367,269,67985,1,0,0:0:0:0:
339,297,68199,1,0,1:0:0:0:
310,268,68413,1,0,0:0:0:0:
281,239,68628,5,8,0:0:0:0:
224,182,69056,1,0,1:0:0:0:
167,238,69485,1,8,0:0:0:0:
167,238,69699,1,0,0:0:0:0:
167,238,69913,1,0,1:0:0:0:
110,294,70342,5,8,0:0:0:0:
53,237,70771,1,0,1:0:0:0:
109,180,71199,1,8,0:0:0:0:
137,151,71413,1,0,0:0:0:0:
165,122,71628,1,0,1:0:0:0:
221,65,72056,5,8,0:0:0:0:
249,94,72271,1,0,0:0:0:0:
277,123,72485,1,0,1:0:0:0:
333,179,72913,1,8,0:0:0:0:
281,239,73342,1,0,1:0:0:0:
224,295,73771,5,12,0:0:0:0:
280,351,74199,1,0,1:0:0:0:
336,294,74628,1,8,0:0:0:0:
364,322,74842,1,0,0:0:0:0:
392,350,75056,1,0,1:0:0:0:
421,321,75271,1,0,0:0:0:0:
450,292,75485,5,8,0:0:0:0:
507,235,75913,1,0,1:0:0:0:
450,178,76342,1,8,0:0:0:0:
450,178,76556,1,0,0:0:0:0:
450,178,76771,1,0,1:0:0:0:
393,234,77199,5,8,0:0:0:0:
336,290,77628,1,0,1:0:0:0:
279,233,78056,1,8,0:0:0:0:
251,204,78271,1,0,0:0:0:0:
223,175,78485,1,0,1:0:0:0:
167,118,78913,5,8,0:0:0:0:
223,61,79342,1,0,1:0:0:0:
279,117,79771,1,8,0:0:0:0:
307,145,79985,1,10,1:2:0:0:
335,116,80199,1,10,1:2:0:0:
391,59,80628,5,12,0:0:0:0:
447,115,81056,1,0,1:0:0:0:
390,171,81485,1,8,0:0:0:0:
446,227,81913,1,0,1:0:0:0:
474,255,82128,1,0,0:0:0:0:
445,283,82342,5,8,0:0:0:0:
388,339,82771,1,0,1:0:0:0:
331,282,83199,1,8,0:0:0:0:
302,253,83413,1,0,0:0:0:0:
273,224,83628,1,0,1:0:0:0:
216,167,84056,5,8,0:0:0:0:
187,195,84271,1,0,0:0:0:0:
159,223,84485,1,0,1:0:0:0:
102,166,84913,1,8,0:0:0:0:
73,137,85128,1,0,0:0:0:0:
44,108,85342,1,0,1:0:0:0:
100,51,85771,5,8,0:0:0:0:
156,107,86199,1,0,1:0:0:0:
212,50,86628,1,8,0:0:0:0:
240,22,86842,1,0,0:0:0:0:
268,51,87056,1,0,1:0:0:0:
324,107,87485,5,12,0:0:0:0:
267,163,87913,1,0,1:0:0:0:
323,219,88342,1,8,0:0:0:0:
351,247,88556,1,0,0:0:0:0:
379,218,88771,1,0,1:0:0:0:
435,161,89199,5,8,0:0:0:0:
492,217,89628,1,0,1:0:0:0:
436,273,90056,1,8,0:0:0:0:
408,301,90271,1,0,0:0:0:0:
380,272,90485,1,0,1:0:0:0:
323,215,90913,5,8,0:0:0:0:
266,158,91342,1,0,1:0:0:0:
237,186,91556,1,0,0:0:0:0:
209,214,91771,1,8,0:0:0:0:
265,270,92199,1,0,1:0:0:0:
236,298,92413,1,0,0:0:0:0:
208,326,92628,5,12,0:0:0:0:
151,269,93056,1,4,1:2:0:0:
94,212,93485,1,14,1:2:0:0:
65,183,93699,1,10,1:2:0:0:
93,154,93913,1,10,1:2:0:0:
121,125,94128,1,0,0:0:0:0:
92,96,94342,5,12,0:0:0:0:
148,39,94771,1,0,1:0:0:0:
204,95,95199,1,8,0:0:0:0:
232,123,95413,1,0,0:0:0:0:
260,94,95628,1,0,1:0:0:0:
288,65,95842,1,0,0:0:0:0:
316,93,96056,5,8,0:0:0:0:
372,149,96485,1,0,1:0:0:0:
315,205,96913,1,8,0:0:0:0:
286,233,97128,1,0,0:0:0:0:
314,261,97342,1,0,1:0:0:0:
370,317,97771,5,8,0:0:0:0:
398,288,97985,1,0,0:0:0:0:
426,260,98199,1,0,1:0:0:0:
482,203,98628,1,8,0:0:0:0:
453,174,98842,1,0,0:0:0:0:
424,145,99056,1,0,1:0:0:0:
367,88,99485,5,8,0:0:0:0:
338,117,99699,1,0,0:0:0:0:
309,146,99913,1,0,1:0:0:0:
252,202,100342,1,8,0:0:0:0:
223,173,100556,1,0,0:0:0:0:
195,145,100771,1,0,1:0:0:0:
138,88,101199,5,12,0:0:0:0:
81,144,101628,1,0,1:0:0:0:
137,200,102056,1,8,0:0:0:0:
165,228,102271,1,0,0:0:0:0:
136,256,102485,1,0,1:0:0:0:
107,284,102699,1,0,0:0:0:0:
135,312,102913,5,8,0:0:0:0:
191,368,103342,1,0,1:0:0:0:
247,311,103771,1,8,0:0:0:0:
276,283,103985,1,2,0:0:0:0:
248,255,104199,1,4,1:2:0:0:
191,198,104628,5,12,0:0:0:0:
162,170,104842,1,0,0:0:0:0:
190,142,105056,1,0,1:0:0:0:
246,85,105485,1,8,0:0:0:0:
274,56,105699,1,0,0:0:0:0:
302,84,105913,1,0,1:0:0:0:
358,140,106342,5,12,0:0:0:0:
386,168,106556,1,0,0:0:0:0:
414,196,106771,1,4,1:2:0:0:
357,252,107199,1,14,1:2:0:0:
328,280,107413,1,10,1:2:0:0:
356,308,107628,1,14,1:2:0:0:
