osu file format v14

[General]
AudioFilename: audio.mp3
AudioLeadIn: 0
PreviewTime: 23628
Countdown: 0
SampleSet: Soft
StackLeniency: 0.6
Mode: 0
LetterboxInBreaks: 0
WidescreenStoryboard: 1

[Editor]
Bookmarks: 1763,10334,24048,37763,53191,66905,80620,94334,107620
DistanceSpacing: 1
BeatDivisor: 4
GridSize: 4
TimelineZoom: 1

[Metadata]
Title:Violet Perfume
TitleUnicode:바이올렛 퍼퓸
Artist:SHK
ArtistUnicode:SHK
Creator:ktgster
Version:Hard
Source:PUMP IT UP - 2015 PRIME -
Tags:펌프잇업 matrix sound​holic​k
BeatmapID:2118197
BeatmapSetID:1010865

[Difficulty]
HPDrainRate:4
CircleSize:5
OverallDifficulty:6
ApproachRate:6
SliderMultiplier:1.3
SliderTickRate:1

[Events]
//Background and Video events
0,0,"maxresdefault.jpg",0,0
Video,65,"vid.mp4"
//Break Periods
2,8513,9292
//Storyboard Layer 0 (Background)
//Storyboard Layer 1 (Fail)
//Storyboard Layer 2 (Pass)
//Storyboard Layer 3 (Foreground)
//Storyboard Layer 4 (Overlay)
//Storyboard Sound Samples

[TimingPoints]
1771,428.571428571429,4,2,1,40,1,0
24056,-100,4,2,1,50,0,0
37771,-100,4,2,1,40,0,0
44628,-100,4,2,1,50,0,0
52771,-100,4,2,1,40,0,0
66913,-100,4,2,1,50,0,0
107199,-100,4,2,1,60,0,0

[Colours]
Combo1 : 255,132,255
Combo2 : 191,128,255
Combo3 : 255,15,255
Combo4 : 124,0,249

[HitObjects]
113,170,1771,5,12,0:0:0:0:
203,78,2199,1,0,0:0:0:0:
293,170,2628,1,0,0:0:0:0:
338,216,2842,1,0,0:0:0:0:
383,170,3056,1,0,0:0:0:0:
293,78,3485,5,0,0:0:0:0:
203,170,3913,1,0,0:0:0:0:
293,262,4342,1,0,0:0:0:0:
338,308,4556,1,0,0:0:0:0:
293,354,4771,1,0,0:0:0:0:
163,354,5199,5,12,0:0:0:0:
73,262,5628,1,0,0:0:0:0:
163,170,6056,1,0,0:0:0:0:
253,262,6485,1,0,0:0:0:0:
343,170,6913,5,0,0:0:0:0:
354,182,7021,1,0,0:0:0:0:
365,193,7128,1,0,0:0:0:0:
411,239,7342,1,0,0:0:0:0:
400,251,7449,1,0,0:0:0:0:
389,262,7556,1,0,0:0:0:0:
342,308,7771,1,4,0:0:0:0:
399,170,10342,5,12,0:0:0:0:
309,78,10771,1,8,0:0:0:0:
219,170,11199,1,8,0:0:0:0:
174,216,11413,1,0,0:0:0:0:
174,216,11521,1,0,0:0:0:0:
174,216,11628,1,8,0:0:0:0:
219,261,11842,1,0,0:0:0:0:
264,306,12056,5,8,0:0:0:0:
356,213,12485,1,8,0:0:0:0:
447,304,12913,1,8,0:0:0:0:
356,213,13342,1,8,0:0:0:0:
402,166,13556,5,0,0:0:0:0:
402,166,13663,1,0,0:0:0:0:
402,166,13771,1,8,0:0:0:0:
447,120,13985,1,0,0:0:0:0:
401,74,14199,1,8,0:0:0:0:
270,74,14628,5,8,0:0:0:0:
225,120,14842,1,0,0:0:0:0:
271,166,15056,1,8,0:0:0:0:
363,258,15485,5,8,0:0:0:0:
408,304,15699,1,0,0:0:0:0:
362,350,15913,1,8,0:0:0:0:
231,350,16342,5,8,0:0:0:0:
186,304,16556,1,0,0:0:0:0:
232,258,16771,1,8,0:0:0:0:
278,211,16985,1,0,0:0:0:0:
231,164,17199,5,12,0:0:0:0:
321,72,17628,1,8,0:0:0:0:
411,164,18056,1,8,0:0:0:0:
365,209,18271,1,0,0:0:0:0:
365,209,18378,1,0,0:0:0:0:
365,209,18485,1,8,0:0:0:0:
410,254,18699,1,0,0:0:0:0:
366,300,18913,5,8,0:0:0:0:
274,207,19342,1,8,0:0:0:0:
182,298,19771,1,8,0:0:0:0:
274,207,20199,1,8,0:0:0:0:
228,161,20413,5,0,0:0:0:0:
228,161,20521,1,0,0:0:0:0:
228,161,20628,1,8,0:0:0:0:
273,115,20842,1,0,0:0:0:0:
227,69,21056,1,8,0:0:0:0:
96,69,21485,5,8,0:0:0:0:
50,114,21699,1,0,0:0:0:0:
95,159,21913,1,8,0:0:0:0:
187,251,22342,5,8,0:0:0:0:
232,296,22556,1,0,0:0:0:0:
278,342,22771,1,8,0:0:0:0:
323,296,22985,1,0,0:0:0:0:
368,250,23199,5,8,0:0:0:0:
413,204,23413,1,10,1:2:0:0:
459,250,23628,1,10,1:2:0:0:
367,341,24056,5,12,0:0:0:0:
274,248,24485,1,0,1:0:0:0:
228,202,24699,5,0,0:0:0:0:
217,190,24806,1,0,0:0:0:0:
206,178,24913,1,8,0:0:0:0:
159,131,25128,1,0,0:0:0:0:
113,176,25342,1,0,1:0:0:0:
67,221,25556,1,0,0:0:0:0:
113,267,25771,5,8,0:0:0:0:
204,358,26199,1,0,1:0:0:0:
113,267,26628,1,8,0:0:0:0:
206,178,27056,1,0,1:0:0:0:
252,224,27271,5,0,0:0:0:0:
263,236,27378,1,0,0:0:0:0:
274,248,27485,1,8,0:0:0:0:
319,293,27699,1,0,0:0:0:0:
364,247,27913,1,0,1:0:0:0:
364,116,28342,5,8,0:0:0:0:
319,71,28556,1,0,0:0:0:0:
274,117,28771,1,0,1:0:0:0:
181,209,29199,5,8,0:0:0:0:
136,254,29413,1,0,0:0:0:0:
91,208,29628,1,0,1:0:0:0:
91,77,30056,5,8,0:0:0:0:
136,32,30271,1,0,0:0:0:0:
181,78,30485,1,0,1:0:0:0:
134,124,30699,1,0,0:0:0:0:
88,169,30913,5,12,0:0:0:0:
181,262,31342,1,0,1:0:0:0:
227,308,31556,5,0,0:0:0:0:
238,320,31663,1,0,0:0:0:0:
249,332,31771,1,8,0:0:0:0:
295,378,31985,1,0,0:0:0:0:
340,332,32199,1,0,1:0:0:0:
385,286,32413,1,0,0:0:0:0:
338,239,32628,5,8,0:0:0:0:
246,147,33056,1,0,1:0:0:0:
338,54,33485,1,8,0:0:0:0:
246,147,33913,1,0,1:0:0:0:
199,193,34128,5,0,0:0:0:0:
188,205,34235,1,0,0:0:0:0:
177,217,34342,1,8,0:0:0:0:
131,262,34556,1,0,0:0:0:0:
85,216,34771,1,0,1:0:0:0:
86,86,35199,5,8,0:0:0:0:
131,41,35413,1,0,0:0:0:0:
176,87,35628,1,0,1:0:0:0:
268,179,36056,5,8,0:0:0:0:
313,224,36271,1,0,0:0:0:0:
358,178,36485,1,0,1:0:0:0:
403,133,36699,1,0,0:0:0:0:
448,179,36913,5,8,0:0:0:0:
401,225,37128,1,10,1:2:0:0:
358,178,37342,1,10,1:2:0:0:
265,85,37771,5,12,0:0:0:0:
265,85,38413,1,8,0:0:0:0:
218,131,38628,1,8,0:3:0:0:
126,222,39056,1,0,0:0:0:0:
79,268,39271,1,8,0:0:0:0:
124,313,39485,5,8,0:0:0:0:
124,313,40128,1,8,0:0:0:0:
171,267,40342,1,8,0:3:0:0:
262,175,40771,1,0,0:0:0:0:
307,129,40985,1,8,0:0:0:0:
352,174,41199,5,12,0:0:0:0:
352,174,41842,1,8,0:0:0:0:
397,219,42056,5,8,0:3:0:0:
259,356,42699,1,8,0:0:0:0:
213,311,42913,5,8,0:0:0:0:
75,173,43556,1,8,0:0:0:0:
29,218,43771,5,8,0:3:0:0:
121,310,44199,1,0,0:0:0:0:
213,217,44628,5,12,0:0:0:0:
258,171,44842,1,0,0:0:0:0:
303,216,45056,1,0,1:0:0:0:
349,262,45271,1,0,0:0:0:0:
360,274,45378,1,0,0:0:0:0:
371,286,45485,1,8,0:0:0:0:
416,331,45699,1,0,0:0:0:0:
461,285,45913,1,0,1:0:0:0:
461,147,46342,5,8,0:0:0:0:
416,101,46556,1,0,0:0:0:0:
371,146,46771,1,0,1:0:0:0:
325,192,46985,1,0,0:0:0:0:
314,204,47092,1,0,0:0:0:0:
303,216,47199,1,8,0:0:0:0:
258,261,47413,1,0,0:0:0:0:
213,215,47628,1,0,1:0:0:0:
120,122,48056,5,12,0:0:0:0:
27,214,48485,1,0,1:0:0:0:
118,305,48913,1,8,0:0:0:0:
213,216,49342,1,0,1:0:0:0:
305,123,49771,5,12,0:0:0:0:
316,111,49878,1,0,0:0:0:0:
327,99,49985,1,0,0:0:0:0:
372,53,50199,1,4,1:2:0:0:
464,145,50628,5,12,0:0:0:0:
453,157,50735,1,0,0:0:0:0:
442,169,50842,1,8,0:0:0:0:
396,214,51056,1,4,1:2:0:0:
407,226,51163,1,0,0:0:0:0:
418,238,51271,1,8,0:0:0:0:
465,284,51485,1,4,0:0:0:0:
260,352,53199,5,12,0:0:0:0:
122,214,53842,1,8,0:0:0:0:
167,168,54056,1,8,0:3:0:0:
259,260,54485,1,0,0:0:0:0:
304,305,54699,1,8,0:0:0:0:
349,259,54913,5,10,0:0:0:0:
486,121,55556,1,8,0:0:0:0:
439,74,55771,1,8,0:3:0:0:
393,119,55985,1,0,0:0:0:0:
438,164,56199,1,0,0:0:0:0:
349,259,56628,5,12,0:0:0:0:
303,304,56842,1,0,0:0:0:0:
257,258,57056,1,0,0:0:0:0:
164,165,57485,5,8,0:3:0:0:
119,119,57699,1,0,0:0:0:0:
74,164,57913,1,0,0:0:0:0:
74,294,58342,5,10,0:0:0:0:
119,340,58556,1,0,0:0:0:0:
164,295,58771,1,0,0:0:0:0:
256,202,59199,5,8,0:3:0:0:
301,156,59413,1,0,0:0:0:0:
346,201,59628,1,0,0:0:0:0:
391,247,59842,1,8,0:0:0:0:
436,201,60056,5,12,0:0:0:0:
298,63,60699,1,8,0:0:0:0:
252,108,60913,1,8,0:3:0:0:
159,200,61342,1,0,0:0:0:0:
113,245,61556,1,8,0:0:0:0:
67,199,61771,5,10,0:0:0:0:
204,61,62413,1,8,0:0:0:0:
250,14,62628,1,8,0:3:0:0:
295,59,62842,1,0,0:0:0:0:
249,104,63056,1,0,0:0:0:0:
156,196,63485,5,12,0:0:0:0:
110,241,63699,1,0,0:0:0:0:
155,286,63913,1,0,0:0:0:0:
285,286,64342,5,8,0:3:0:0:
330,240,64556,1,0,0:0:0:0:
284,194,64771,1,0,0:0:0:0:
191,101,65199,5,10,0:0:0:0:
236,55,65413,1,0,0:0:0:0:
282,101,65628,1,0,0:0:0:0:
327,146,65842,1,8,0:0:0:0:
372,100,66056,5,10,1:2:0:0:
325,53,66271,1,2,1:2:0:0:
282,101,66485,1,10,1:2:0:0:
190,192,66913,5,12,0:0:0:0:
282,284,67342,1,0,1:0:0:0:
327,238,67556,5,0,0:0:0:0:
338,226,67663,1,0,0:0:0:0:
349,214,67771,1,8,0:0:0:0:
395,167,67985,1,0,0:0:0:0:
440,212,68199,1,0,1:0:0:0:
485,257,68413,1,0,0:0:0:0:
438,303,68628,5,8,0:0:0:0:
308,303,69056,1,0,1:0:0:0:
261,256,69271,1,0,0:0:0:0:
306,210,69485,1,8,0:0:0:0:
260,164,69699,1,0,0:0:0:0:
305,118,69913,1,0,1:0:0:0:
351,71,70128,5,0,0:0:0:0:
340,59,70235,1,0,0:0:0:0:
329,47,70342,1,8,0:0:0:0:
283,1,70556,1,0,0:0:0:0:
236,47,70771,1,0,1:0:0:0:
236,176,71199,5,8,0:0:0:0:
282,221,71413,1,0,0:0:0:0:
329,175,71628,1,0,1:0:0:0:
374,220,71842,5,0,0:0:0:0:
386,231,71949,1,0,0:0:0:0:
398,242,72056,1,8,0:0:0:0:
444,288,72271,1,0,0:0:0:0:
398,333,72485,1,0,1:0:0:0:
352,287,72699,5,0,0:0:0:0:
340,298,72806,1,0,0:0:0:0:
328,309,72913,1,8,0:0:0:0:
281,355,73128,1,0,0:0:0:0:
235,309,73342,1,0,1:0:0:0:
189,263,73556,1,0,0:0:0:0:
142,309,73771,5,12,0:0:0:0:
50,217,74199,1,0,1:0:0:0:
95,171,74413,5,0,0:0:0:0:
106,159,74521,1,0,0:0:0:0:
117,147,74628,1,8,0:0:0:0:
163,100,74842,1,0,0:0:0:0:
208,145,75056,1,0,1:0:0:0:
253,190,75271,1,0,0:0:0:0:
206,236,75485,5,8,0:0:0:0:
335,236,75913,1,0,1:0:0:0:
381,189,76128,1,0,0:0:0:0:
335,143,76342,1,8,0:0:0:0:
380,97,76556,1,0,0:0:0:0:
334,51,76771,1,0,1:0:0:0:
287,4,76985,5,0,0:0:0:0:
276,16,77092,1,0,0:0:0:0:
265,28,77199,1,8,0:0:0:0:
219,73,77413,1,0,0:0:0:0:
265,119,77628,1,0,1:0:0:0:
356,210,78056,5,8,0:0:0:0:
401,255,78271,1,0,0:0:0:0:
354,301,78485,1,0,1:0:0:0:
308,255,78699,5,0,0:0:0:0:
296,266,78806,1,0,0:0:0:0:
284,277,78913,1,8,0:0:0:0:
237,323,79128,1,0,0:0:0:0:
191,368,79342,1,0,1:0:0:0:
145,322,79556,1,0,0:0:0:0:
98,275,79771,5,8,0:0:0:0:
52,320,79985,1,10,1:2:0:0:
97,365,80199,1,10,1:2:0:0:
189,272,80628,5,12,0:0:0:0:
234,226,80842,1,0,0:0:0:0:
188,180,81056,1,0,1:0:0:0:
141,133,81271,1,0,0:0:0:0:
186,87,81485,5,8,0:0:0:0:
198,76,81592,1,0,0:0:0:0:
210,65,81699,1,0,0:0:0:0:
255,110,81913,1,0,1:0:0:0:
301,63,82128,1,0,0:0:0:0:
346,108,82342,5,8,0:0:0:0:
391,153,82556,1,0,0:0:0:0:
344,199,82771,1,0,1:0:0:0:
252,290,83199,5,8,0:0:0:0:
206,335,83413,1,0,0:0:0:0:
252,381,83628,1,0,1:0:0:0:
297,335,83842,5,0,0:0:0:0:
309,324,83949,1,0,0:0:0:0:
321,313,84056,1,8,0:0:0:0:
366,267,84271,1,0,0:0:0:0:
319,220,84485,1,0,1:0:0:0:
227,128,84913,5,8,0:0:0:0:
181,82,85128,1,0,0:0:0:0:
227,35,85342,1,0,1:0:0:0:
272,80,85556,5,0,0:0:0:0:
284,91,85663,1,0,0:0:0:0:
296,102,85771,1,8,0:0:0:0:
341,147,85985,1,0,0:0:0:0:
294,193,86199,1,0,1:0:0:0:
248,239,86413,1,0,0:0:0:0:
294,285,86628,5,8,0:0:0:0:
339,239,86842,1,0,0:0:0:0:
294,193,87056,1,0,1:0:0:0:
163,193,87485,5,12,0:0:0:0:
117,238,87699,1,0,0:0:0:0:
162,283,87913,1,0,1:0:0:0:
208,329,88128,5,0,0:0:0:0:
220,318,88235,1,0,0:0:0:0:
232,307,88342,1,8,0:0:0:0:
277,261,88556,1,0,0:0:0:0:
323,307,88771,1,0,1:0:0:0:
414,215,89199,5,8,0:0:0:0:
459,169,89413,1,0,0:0:0:0:
413,123,89628,1,0,1:0:0:0:
366,76,89842,5,0,0:0:0:0:
354,87,89949,1,0,0:0:0:0:
342,98,90056,1,8,0:0:0:0:
296,143,90271,1,0,0:0:0:0:
249,96,90485,1,0,1:0:0:0:
203,141,90699,5,0,0:0:0:0:
191,152,90806,1,0,0:0:0:0:
179,163,90913,1,8,0:0:0:0:
133,208,91128,1,0,0:0:0:0:
86,161,91342,1,0,1:0:0:0:
40,206,91556,1,0,0:0:0:0:
86,252,91771,1,8,0:0:0:0:
131,297,91985,1,0,0:0:0:0:
176,251,92199,1,0,1:0:0:0:
221,296,92413,1,0,0:0:0:0:
267,249,92628,5,12,0:0:0:0:
279,238,92735,1,0,0:0:0:0:
291,227,92842,1,0,0:0:0:0:
355,227,93056,1,4,1:2:0:0:
367,216,93163,1,0,0:0:0:0:
379,205,93271,1,0,0:0:0:0:
425,251,93485,5,14,1:2:0:0:
470,205,93699,1,10,1:2:0:0:
424,159,93913,1,10,1:2:0:0:
331,66,94342,5,12,0:0:0:0:
238,158,94771,1,0,1:0:0:0:
284,204,94985,5,0,0:0:0:0:
296,215,95092,1,0,0:0:0:0:
308,226,95199,1,8,0:0:0:0:
308,290,95413,1,0,0:0:0:0:
296,301,95521,1,0,0:0:0:0:
284,312,95628,1,0,1:0:0:0:
237,358,95842,1,0,0:0:0:0:
191,312,96056,5,8,0:0:0:0:
98,219,96485,1,0,1:0:0:0:
143,174,96699,1,0,0:0:0:0:
188,220,96913,1,8,0:0:0:0:
234,267,97128,1,0,0:0:0:0:
279,222,97342,1,0,1:0:0:0:
324,267,97556,5,0,0:0:0:0:
336,256,97663,1,0,0:0:0:0:
348,245,97771,1,8,0:0:0:0:
394,198,97985,1,0,0:0:0:0:
348,152,98199,1,0,1:0:0:0:
217,152,98628,5,8,0:0:0:0:
170,106,98842,1,0,0:0:0:0:
215,61,99056,1,0,1:0:0:0:
261,107,99271,5,0,0:0:0:0:
273,118,99378,1,0,0:0:0:0:
285,129,99485,1,8,0:0:0:0:
331,176,99699,1,0,0:0:0:0:
285,222,99913,1,0,1:0:0:0:
239,267,100128,5,0,0:0:0:0:
227,256,100235,1,0,0:0:0:0:
215,245,100342,1,8,0:0:0:0:
168,198,100556,1,0,0:0:0:0:
122,244,100771,1,0,1:0:0:0:
76,289,100985,1,0,0:0:0:0:
30,243,101199,5,12,0:0:0:0:
123,153,101628,1,0,1:0:0:0:
168,198,101842,5,0,0:0:0:0:
180,209,101949,1,0,0:0:0:0:
192,220,102056,1,8,0:0:0:0:
257,220,102271,1,0,0:0:0:0:
269,209,102378,1,0,0:0:0:0:
281,198,102485,1,0,1:0:0:0:
328,152,102699,1,0,0:0:0:0:
373,106,102913,5,8,0:0:0:0:
420,153,103128,1,0,0:0:0:0:
375,199,103342,1,0,1:0:0:0:
282,291,103771,5,8,0:0:0:0:
235,337,103985,1,2,0:0:0:0:
280,382,104199,1,4,1:2:0:0:
325,336,104413,5,0,0:0:0:0:
337,325,104521,1,0,0:0:0:0:
349,314,104628,1,12,0:0:0:0:
395,267,104842,1,0,0:0:0:0:
349,221,105056,1,0,1:0:0:0:
302,267,105271,5,0,0:0:0:0:
290,256,105378,1,0,0:0:0:0:
278,245,105485,1,8,0:0:0:0:
231,198,105699,1,0,0:0:0:0:
276,152,105913,1,0,1:0:0:0:
405,152,106342,5,12,0:0:0:0:
417,163,106449,1,0,0:0:0:0:
429,172,106556,1,0,0:0:0:0:
475,218,106771,1,4,1:2:0:0:
463,229,106878,1,0,0:0:0:0:
451,240,106985,1,0,0:0:0:0:
405,285,107199,5,14,1:2:0:0:
450,330,107413,1,10,1:2:0:0:
403,376,107628,1,14,1:2:0:0:
