osu file format v14

[General]
AudioFilename: audio.mp3
AudioLeadIn: 0
PreviewTime: 23628
Countdown: 0
SampleSet: Soft
StackLeniency: 0.6
Mode: 0
LetterboxInBreaks: 0
WidescreenStoryboard: 1

[Editor]
Bookmarks: 1763,10334,24048,37763,53191,66905,80620,94334,107620
DistanceSpacing: 1
BeatDivisor: 4
GridSize: 4
TimelineZoom: 1

[Metadata]
Title:Violet Perfume
TitleUnicode:바이올렛 퍼퓸
Artist:SHK
ArtistUnicode:SHK
Creator:ktgster
Version:Easy
Source:PUMP IT UP - 2015 PRIME -
Tags:펌프잇업 matrix sound​holic​k
BeatmapID:2120608
BeatmapSetID:1010865

[Difficulty]
HPDrainRate:2
CircleSize:5
OverallDifficulty:4
ApproachRate:4
SliderMultiplier:0.7
SliderTickRate:1

[Events]
//Background and Video events
0,0,"maxresdefault.jpg",0,0
Video,65,"vid.mp4"
//Break Periods
2,8298,9022
//Storyboard Layer 0 (Background)
//Storyboard Layer 1 (Fail)
//Storyboard Layer 2 (Pass)
//Storyboard Layer 3 (Foreground)
//Storyboard Layer 4 (Overlay)
//Storyboard Sound Samples

[TimingPoints]
1771,428.571428571429,4,2,1,40,1,0
24056,-100,4,2,1,50,0,0
37771,-100,4,2,1,40,0,0
44628,-100,4,2,1,50,0,0
52771,-100,4,2,1,40,0,0
66913,-100,4,2,1,50,0,0
107199,-100,4,2,1,60,0,0

[Colours]
Combo1 : 255,132,255
Combo2 : 191,128,255
Combo3 : 255,15,255
Combo4 : 124,0,249

[HitObjects]
60,136,1771,5,12,0:0:0:0:
158,37,2628,1,0,0:0:0:0:
256,135,3485,1,0,0:0:0:0:
157,233,4342,1,0,0:0:0:0:
255,328,5199,5,12,0:0:0:0:
353,229,6056,1,0,0:0:0:0:
254,130,6913,1,0,0:0:0:0:
353,30,7771,1,4,0:0:0:0:
452,136,10342,5,12,0:0:0:0:
353,234,11199,1,8,0:0:0:0:
254,135,12056,1,8,0:0:0:0:
204,184,12485,1,8,0:0:0:0:
154,134,12913,1,8,0:0:0:0:
104,84,13342,1,8,0:0:0:0:
54,133,13771,5,8,0:0:0:0:
152,231,14628,1,8,0:0:0:0:
255,133,15485,1,8,0:0:0:0:
304,182,15913,1,8,0:0:0:0:
353,231,16342,1,8,0:0:0:0:
303,280,16771,1,8,0:0:0:0:
253,329,17199,5,12,0:0:0:0:
152,231,18056,1,8,0:0:0:0:
255,133,18913,1,8,0:0:0:0:
304,83,19342,1,8,0:0:0:0:
353,132,19771,1,8,0:0:0:0:
402,181,20199,1,8,0:0:0:0:
451,131,20628,5,8,0:0:0:0:
352,32,21485,1,8,0:0:0:0:
255,133,22342,1,8,0:0:0:0:
205,182,22771,1,8,0:0:0:0:
254,231,23199,1,8,0:0:0:0:
303,280,23628,1,10,1:2:0:0:
253,329,24056,5,12,0:0:0:0:
152,231,24913,1,8,0:0:0:0:
255,133,25771,1,8,0:0:0:0:
304,83,26199,1,0,1:0:0:0:
353,132,26628,1,8,0:0:0:0:
303,181,27056,1,0,1:0:0:0:
352,230,27485,5,8,0:0:0:0:
450,131,28342,1,8,0:0:0:0:
351,32,29199,5,8,0:0:0:0:
301,81,29628,1,0,1:0:0:0:
251,31,30056,1,8,0:0:0:0:
201,80,30485,1,0,1:0:0:0:
151,30,30913,5,12,0:0:0:0:
51,129,31771,1,8,0:0:0:0:
149,227,32628,5,8,0:0:0:0:
198,177,33056,1,0,1:0:0:0:
247,226,33485,1,8,0:0:0:0:
296,275,33913,1,0,1:0:0:0:
345,225,34342,5,8,0:0:0:0:
443,126,35199,1,8,0:0:0:0:
344,27,36056,1,8,0:0:0:0:
245,125,36913,1,8,0:0:0:0:
195,174,37342,1,10,1:2:0:0:
145,224,37771,5,12,0:0:0:0:
46,125,38628,1,8,0:3:0:0:
144,26,39485,1,8,0:0:0:0:
242,124,40342,1,8,0:3:0:0:
340,222,41199,5,12,0:0:0:0:
438,123,42056,1,8,0:3:0:0:
339,24,42913,1,8,0:0:0:0:
242,124,43771,1,8,0:3:0:0:
143,222,44628,5,12,0:0:0:0:
232,329,45485,1,8,0:0:0:0:
330,230,46342,1,8,0:0:0:0:
379,180,46771,1,0,1:0:0:0:
329,130,47199,1,8,0:0:0:0:
279,80,47628,1,0,1:0:0:0:
229,129,48056,5,12,0:0:0:0:
330,230,48913,1,8,0:0:0:0:
230,329,49771,5,12,0:0:0:0:
180,279,50199,1,4,1:2:0:0:
130,328,50628,1,12,0:0:0:0:
80,278,51056,1,4,1:2:0:0:
30,228,51485,1,4,0:0:0:0:
30,47,53199,5,12,0:0:0:0:
128,145,54056,1,8,0:3:0:0:
226,46,54913,1,10,0:0:0:0:
325,145,55771,1,8,0:3:0:0:
226,243,56628,5,12,0:0:0:0:
324,341,57485,1,8,0:3:0:0:
422,242,58342,1,10,0:0:0:0:
323,143,59199,1,8,0:3:0:0:
224,44,60056,5,12,0:0:0:0:
125,142,60913,1,8,0:3:0:0:
224,241,61771,1,10,0:0:0:0:
125,339,62628,1,8,0:3:0:0:
26,240,63485,5,12,0:0:0:0:
125,142,64342,1,8,0:3:0:0:
224,241,65199,1,10,0:0:0:0:
322,142,66056,1,10,1:2:0:0:
272,92,66485,1,10,1:2:0:0:
223,43,66913,5,12,0:0:0:0:
123,142,67771,1,8,0:0:0:0:
221,240,68628,1,8,0:0:0:0:
270,190,69056,1,0,1:0:0:0:
319,239,69485,1,8,0:0:0:0:
269,288,69913,1,0,1:0:0:0:
219,337,70342,5,8,0:0:0:0:
120,238,71199,1,8,0:0:0:0:
218,139,72056,1,8,0:0:0:0:
267,89,72485,1,0,1:0:0:0:
316,138,72913,1,8,0:0:0:0:
365,187,73342,1,0,1:0:0:0:
315,236,73771,5,12,0:0:0:0:
413,334,74628,1,8,0:0:0:0:
510,235,75485,5,8,0:0:0:0:
460,185,75913,1,0,1:0:0:0:
410,135,76342,1,8,0:0:0:0:
360,184,76771,1,0,1:0:0:0:
409,233,77199,5,8,0:0:0:0:
310,331,78056,1,8,0:0:0:0:
211,232,78913,1,8,0:0:0:0:
161,182,79342,1,0,1:0:0:0:
111,231,79771,1,8,0:0:0:0:
209,329,80628,5,12,0:0:0:0:
258,378,81056,1,0,1:0:0:0:
307,328,81485,1,8,0:0:0:0:
356,278,81913,1,0,1:0:0:0:
405,327,82342,5,8,0:0:0:0:
454,277,82771,1,0,1:0:0:0:
404,227,83199,1,8,0:0:0:0:
453,177,83628,1,0,1:0:0:0:
403,127,84056,5,8,0:0:0:0:
353,176,84485,1,0,1:0:0:0:
303,225,84913,1,8,0:0:0:0:
253,175,85342,1,0,1:0:0:0:
203,125,85771,5,8,0:0:0:0:
153,174,86199,1,0,1:0:0:0:
202,223,86628,1,8,0:0:0:0:
152,272,87056,1,0,1:0:0:0:
201,321,87485,5,12,0:0:0:0:
299,221,88342,1,8,0:0:0:0:
397,319,89199,1,8,0:0:0:0:
495,219,90056,1,8,0:0:0:0:
395,119,90913,5,8,0:0:0:0:
299,221,91771,1,8,0:0:0:0:
200,122,92628,5,12,0:0:0:0:
150,171,93056,1,4,1:2:0:0:
199,220,93485,1,14,1:2:0:0:
248,269,93913,1,10,1:2:0:0:
198,318,94342,5,12,0:0:0:0:
148,268,94771,1,0,1:0:0:0:
98,218,95199,1,8,0:0:0:0:
150,171,95628,1,0,1:0:0:0:
199,121,96056,5,8,0:0:0:0:
248,170,96485,1,0,1:0:0:0:
297,120,96913,1,8,0:0:0:0:
346,169,97342,1,0,1:0:0:0:
395,119,97771,5,8,0:0:0:0:
444,168,98199,1,0,1:0:0:0:
394,217,98628,1,8,0:0:0:0:
443,266,99056,1,0,1:0:0:0:
393,315,99485,5,8,0:0:0:0:
343,265,99913,1,0,1:0:0:0:
293,314,100342,1,8,0:0:0:0:
243,363,100771,1,0,1:0:0:0:
193,313,101199,5,12,0:0:0:0:
242,263,101628,1,0,1:0:0:0:
192,213,102056,1,8,0:0:0:0:
241,163,102485,1,0,1:0:0:0:
191,113,102913,5,8,0:0:0:0:
240,63,103342,1,0,1:0:0:0:
289,112,103771,1,8,0:0:0:0:
241,163,104199,1,4,1:2:0:0:
192,213,104628,5,12,0:0:0:0:
242,263,105056,1,0,1:0:0:0:
291,312,105485,1,8,0:0:0:0:
340,262,105913,1,0,1:0:0:0:
389,212,106342,5,12,0:0:0:0:
339,162,106771,1,4,1:2:0:0:
388,112,107199,1,14,1:2:0:0:
437,161,107628,1,14,1:2:0:0:
