osu file format v14

[General]
AudioFilename: [Pump It Up] SHK - Take Out.mp3
AudioLeadIn: 0
PreviewTime: 15273
Countdown: 0
SampleSet: Normal
StackLeniency: 0.4
Mode: 0
LetterboxInBreaks: 1
WidescreenStoryboard: 1

[Editor]
Bookmarks: 18097,40685,43508,54802,67508,68920,116920
DistanceSpacing: 1.2
BeatDivisor: 4
GridSize: 4
TimelineZoom: 1

[Metadata]
Title:Take Out
TitleUnicode:테이크 아웃
Artist:SHK
ArtistUnicode:SHK
Creator:BrujoAzul
Version:Normal
Source:Pump It Up 2011 FIESTA EX
Tags:SoundHolicK LZD
BeatmapID:734809
BeatmapSetID:201761

[Difficulty]
HPDrainRate:4
CircleSize:3
OverallDifficulty:6
ApproachRate:6
SliderMultiplier:1
SliderTickRate:1

[Events]
//Background and Video events
0,0,"SHK+bg.jpg",0,0
//Break Periods
//Storyboard Layer 0 (Background)
//Storyboard Layer 1 (Fail)
//Storyboard Layer 2 (Pass)
//Storyboard Layer 3 (Foreground)
//Storyboard Sound Samples

[TimingPoints]
-255.851178941705,352.941176470588,4,1,0,70,1,0
6802,-80,4,2,0,50,0,0
18097,-80,4,2,0,70,0,1
29391,-80,4,1,0,70,0,0
31155,-80,4,1,0,5,0,0
31332,-80,4,1,0,70,0,0
31685,-80,4,1,0,5,0,0
31861,-80,4,1,0,70,0,0
33979,-80,4,1,0,5,0,0
34155,-80,4,1,0,70,0,0
34508,-80,4,1,0,5,0,0
34685,-80,4,1,0,70,0,0
40685,-200,4,1,0,70,0,0
43508,-200,4,1,0,70,0,0
54802,-133.333333333333,4,1,0,70,0,0
67332,-133.333333333333,4,1,0,5,0,0
67861,-117.647058823529,4,1,0,25,0,0
68214,-105.263157894737,4,1,0,50,0,0
68567,-95.2380952380952,4,1,0,70,0,0
68920,-66.6666666666667,4,1,0,70,0,1
80214,-80,4,1,0,70,0,1
91508,-80,4,1,0,70,0,0
91530,-80,4,1,0,70,0,1
102802,-80,4,1,0,70,0,0

[Colours]
Combo1 : 105,114,222
Combo2 : 255,70,70
Combo3 : 255,255,106
Combo4 : 153,255,51
Combo5 : 94,255,255

[HitObjects]
128,180,1155,6,0,B|192:204|192:204|236:200,1,100
372,168,1861,2,0,P|424:164|488:188,1,100
452,256,2391,1,0,0:0:0:0:
416,328,2567,2,0,P|328:360|308:352,1,100
176,328,3273,2,0,L|236:324,1,50
248,244,3626,2,0,L|316:240,1,50
332,164,3979,6,0,B|332:112|380:92|380:92|444:64|444:12,2,200
224,272,5744,1,0,0:0:0:0:
76,280,6097,2,0,L|32:264,4,25
240,188,6802,6,0,P|288:168|376:192,1,125
452,192,7332,1,0,0:0:0:0:
504,272,7508,2,0,B|492:336|492:336|440:380,2,125
500,176,8391,1,0,0:0:0:0:
428,116,8567,2,0,P|372:84|292:88,1,125
224,108,9097,1,0,0:0:0:0:
132,132,9273,2,0,P|70:129|16:97,1,125
168,208,9979,6,0,L|244:256,1,62.5
300,288,10332,2,0,P|344:312|424:280,1,125
408,104,11038,2,0,B|460:72|460:72|484:0,2,125
224,148,12097,1,0,0:0:0:0:
224,148,12273,1,0,0:0:0:0:
224,148,12450,6,0,P|260:184|264:268,1,125
236,344,12979,1,0,0:0:0:0:
148,308,13155,2,0,P|112:272|108:188,2,125
236,344,14038,1,0,0:0:0:0:
328,340,14214,2,0,B|400:332|400:332|488:352,2,125
148,280,15273,6,0,P|216:240|288:268,1,125
348,276,15802,1,0,0:0:0:0:
440,300,15979,2,0,P|488:288|508:212,2,125
348,276,16861,1,0,0:0:0:0:
260,240,17038,2,0,L|176:224,1,62.5
108,208,17391,6,0,L|88:168,4,31.25
256,96,18097,6,0,P|304:112|388:80,1,125
444,32,18626,1,0,0:0:0:0:
460,124,18802,2,0,L|472:200,1,62.5
400,248,19155,2,0,L|412:336,1,62.5
324,348,19508,6,0,P|272:360|204:336,2,125
272,268,20391,1,0,0:0:0:0:
236,184,20567,2,0,P|220:140|220:104,1,62.5
296,72,20920,5,0,0:0:0:0:
296,72,21097,1,0,0:0:0:0:
380,32,21273,2,0,L|448:52,1,62.5
428,132,21626,2,0,P|456:168|460:204,2,62.5
256,64,22332,5,0,0:0:0:0:
256,64,22508,2,0,L|180:40,2,62.5
188,140,23038,1,0,0:0:0:0:
188,140,23215,2,0,L|112:116,2,62.5
276,176,23744,6,0,B|332:208|332:208|368:260,2,125
184,152,24626,2,0,P|140:148|104:124,2,62.5
276,176,25155,2,0,B|340:180|340:180|408:152,1,125
496,36,25861,2,0,B|432:32|432:32|364:60,1,125
284,84,26391,1,0,0:0:0:0:
192,76,26567,6,0,P|124:72|68:120,1,125
120,288,27273,2,0,L|184:316,1,62.5
264,344,27626,2,0,L|336:316,2,62.5
256,156,28332,5,0,0:0:0:0:
108,40,28685,2,0,P|116:76|104:124,1,62.5
92,180,29038,2,0,P|89:211|97:241,1,62.5
132,328,29391,6,0,P|168:360|264:364,3,125
328,332,30626,1,0,0:0:0:0:
412,288,30802,2,0,B|456:244|456:244|472:172,1,125
300,104,31508,2,0,B|256:148|256:148|240:220,1,125
252,304,32038,6,0,L|268:380,1,62.5
120,248,32567,2,0,P|100:216|92:168,1,62.5
92,100,32920,2,0,P|144:116|216:88,1,125
284,36,33450,1,0,0:0:0:0:
376,24,33626,6,0,L|440:20,1,62.5
308,164,34155,2,0,L|360:216,1,62.5
160,236,34685,2,0,L|156:320,2,62.5
172,48,35391,6,0,P|220:72|248:72,1,62.5
320,84,35744,2,0,P|380:76|460:112,2,125
264,160,36626,2,0,P|252:232|284:288,1,125
348,332,37155,1,0,0:0:0:0:
196,220,37508,2,0,L|132:156,1,62.5
84,112,37861,2,0,P|128:128|208:96,1,125
384,140,38567,2,0,P|324:123|268:147,2,125
428,224,39450,1,0,0:0:0:0:
424,316,39626,2,0,P|380:332|340:332,1,62.5
272,324,39979,2,0,L|232:316,4,31.25
256,192,40685,12,0,43155,0:0:0:0:
84,80,43508,6,0,P|120:96|156:148,1,100
168,232,44567,2,0,B|192:292|192:292|228:316,1,100
312,344,45626,1,0,0:0:0:0:
408,332,45979,1,0,0:0:0:0:
476,264,46332,6,0,P|488:224|472:164,2,100
388,232,48097,2,0,L|332:212,2,50
392,144,49155,6,0,P|368:124|336:60,2,100
480,180,50920,1,0,0:0:0:0:
404,232,51273,2,0,L|348:248,1,50
268,268,51979,6,0,P|312:284|340:332,1,100
260,352,53038,1,0,0:0:0:0:
192,296,53391,1,0,0:0:0:0:
200,212,53744,2,0,P|224:192|300:188,1,100
416,212,54802,6,0,P|372:200|340:96,1,150.000005722046
368,8,55861,1,0,0:0:0:0:
264,32,56214,2,0,L|188:52,1,75.0000028610231
232,136,56920,2,0,L|156:156,1,75.0000028610231
60,184,57626,6,0,P|44:220|100:320,1,150.000005722046
184,348,58685,2,0,L|228:280,1,75.0000028610231
292,212,59391,1,0,0:0:0:0:
396,200,59744,1,0,0:0:0:0:
496,228,60097,1,0,0:0:0:0:
396,200,60450,6,0,B|296:168|296:168|256:140,1,150.000005722046
336,88,61508,1,0,0:0:0:0:
248,48,61861,2,0,P|224:48|168:80,1,75.0000028610231
100,140,62567,2,0,P|67:158|30:161,1,75.0000028610231
30,161,63273,6,0,P|20:232|78:297,2,150.000005722046
104,88,65038,1,0,0:0:0:0:
204,96,65391,2,0,L|288:120,1,75.0000028610231
256,192,66097,12,0,68567,0:0:0:0:
72,80,68920,6,0,P|104:120|224:112,1,150.000005722046
280,96,69450,1,0,0:0:0:0:
364,68,69626,2,0,B|412:56|412:56|464:68|464:68|524:56,2,150.000005722046
348,156,70508,2,0,L|360:248,2,75.0000028610231
308,76,71038,2,0,P|252:52|152:100,1,150.000005722046
112,148,71567,1,0,0:0:0:0:
116,240,71744,6,0,B|108:316|108:316|76:364,2,112.500004291535
196,196,72450,2,0,B|204:120|204:120|236:72,2,112.500004291535
192,284,73155,2,0,P|244:328|344:312,1,150.000005722046
408,292,73685,2,0,L|480:332,1,75.0000028610231
372,180,74214,2,0,L|288:132,1,75.0000028610231
228,100,74567,6,0,B|216:188|216:188|248:268,1,150.000005722046
312,300,75097,1,0,0:0:0:0:
400,320,75273,2,0,P|468:308|508:220,2,150.000005722046
312,300,76155,2,0,P|248:320|164:272,1,150.000005722046
112,224,76685,2,0,B|88:168|88:168|104:60,1,150.000005722046
156,8,77214,1,0,0:0:0:0:
244,16,77391,6,0,P|288:28|316:124,1,150.000005722046
308,208,77920,2,0,L|332:308,1,75.0000028610231
152,324,78450,2,0,L|180:240,1,75.0000028610231
204,168,78802,2,0,P|224:120|212:64,2,75.0000028610231
116,184,79332,1,0,0:0:0:0:
32,148,79508,2,0,L|16:108,4,37.5000014305115
64,296,80214,6,0,P|116:316|204:228,1,187.5
216,148,80920,2,0,B|272:128|272:128|272:128|272:128|308:88,2,93.75
120,168,81626,2,0,P|96:208|144:332,2,187.5
296,116,83038,6,0,L|332:200,1,62.5
408,204,83391,2,0,L|444:288,1,62.5
448,352,83744,2,0,P|392:368|340:344,2,93.75
504,276,84450,2,0,P|484:224|512:96,2,187.5
328,264,85861,5,0,0:0:0:0:
248,216,86038,1,0,0:0:0:0:
208,132,86214,1,0,0:0:0:0:
200,44,86391,2,0,P|168:20|76:28,1,125
56,180,87097,2,0,P|88:204|180:196,1,125
336,128,87802,2,0,B|356:76|440:80|480:120|464:200|440:216|396:228|396:228|408:256|400:296,1,312.5
332,332,88861,5,0,0:0:0:0:
240,328,89038,2,0,L|160:312,1,62.5
88,304,89391,2,0,L|68:264,4,31.25
168,200,90097,6,0,P|196:164|288:144,1,125
420,136,90802,2,0,L|380:140,4,31.25
264,144,91508,6,0,P|228:180|240:264,1,125
268,328,92038,1,0,0:0:0:0:
356,356,92214,2,0,B|400:360|400:360|472:296,1,125
476,220,92744,2,0,L|456:144,2,62.5
328,184,93450,2,0,L|308:108,1,62.5
168,168,93979,2,0,L|148:92,1,62.5
152,107,94332,6,0,P|192:128|208:224,2,125
296,120,95391,2,0,L|380:132,1,62.5
448,140,95744,1,0,0:0:0:0:
396,208,95920,2,0,P|376:252|408:332,2,125
448,140,96802,2,0,L|464:56,1,62.5
372,64,97155,6,0,B|356:128|356:128|292:164,1,125
212,188,97685,2,0,L|132:172,1,62.5
188,356,98214,2,0,P|228:364|264:360,1,62.5
340,340,98567,1,0,0:0:0:0:
428,308,98744,2,0,B|464:284|464:284|492:200,2,125
340,340,99626,2,0,P|296:336|264:320,1,62.5
192,296,99979,6,0,P|160:264|156:168,1,125
176,104,100508,1,0,0:0:0:0:
252,56,100685,2,0,B|332:72|332:72|380:68,1,125
464,52,101214,1,0,0:0:0:0:
440,144,101391,6,0,L|360:156,1,62.5
296,188,101744,1,0,0:0:0:0:
232,256,101920,2,0,L|236:288,8,31.25
256,192,102802,12,0,105273,0:0:0:0:
