osu file format v14

[General]
AudioFilename: [Pump It Up] SHK - Take Out.mp3
AudioLeadIn: 0
PreviewTime: 15273
Countdown: 0
SampleSet: Normal
StackLeniency: 0.4
Mode: 0
LetterboxInBreaks: 1
WidescreenStoryboard: 1

[Editor]
Bookmarks: 18097,40685,43508,54802,67508,68920,116920
DistanceSpacing: 1.4
BeatDivisor: 4
GridSize: 4
TimelineZoom: 1

[Metadata]
Title:Take Out
TitleUnicode:테이크 아웃
Artist:SHK
ArtistUnicode:SHK
Creator:BrujoAzul
Version:Hard
Source:Pump It Up 2011 FIESTA EX
Tags:SoundHolicK LZD
BeatmapID:728121
BeatmapSetID:201761

[Difficulty]
HPDrainRate:6
CircleSize:4
OverallDifficulty:7
ApproachRate:8
SliderMultiplier:1.4
SliderTickRate:1

[Events]
//Background and Video events
0,0,"SHK+bg.jpg",0,0
//Break Periods
//Storyboard Layer 0 (Background)
//Storyboard Layer 1 (Fail)
//Storyboard Layer 2 (Pass)
//Storyboard Layer 3 (Foreground)
//Storyboard Layer 4 (Overlay)
//Storyboard Sound Samples

[TimingPoints]
-255.851178941705,352.941176470588,4,1,0,70,1,0
6802,-80,4,2,0,50,0,0
18097,-80,4,2,0,70,0,1
29391,-80,4,1,0,70,0,0
31155,-80,4,1,0,5,0,0
31332,-80,4,1,0,70,0,0
31685,-80,4,1,0,5,0,0
31861,-80,4,1,0,70,0,0
33979,-80,4,1,0,5,0,0
34155,-80,4,1,0,70,0,0
34508,-80,4,1,0,5,0,0
34685,-80,4,1,0,70,0,0
40685,-200,4,1,0,70,0,0
43508,-200,4,1,0,70,0,0
54802,-133.333333333333,4,1,0,70,0,0
67332,-133.333333333333,4,1,0,5,0,0
67861,-117.647058823529,4,1,0,25,0,0
68214,-105.263157894737,4,1,0,50,0,0
68567,-95.2380952380952,4,1,0,70,0,0
68920,-66.6666666666667,4,1,0,70,0,1
80214,-80,4,1,0,70,0,1
91508,-80,4,1,0,70,0,0
91530,-80,4,1,0,70,0,1
102802,-80,4,1,0,70,0,0

[Colours]
Combo1 : 105,114,222
Combo2 : 255,70,70
Combo3 : 255,255,106
Combo4 : 153,255,51
Combo5 : 94,255,255

[HitObjects]
124,124,1155,6,0,P|168:112|248:184,1,140
436,244,1861,1,0,0:0:0:0:
260,360,2214,2,0,L|180:368,1,70
108,304,2567,2,0,P|160:280|180:204,2,140
44,220,3450,1,0,0:0:0:0:
80,120,3626,1,0,0:0:0:0:
176,80,3802,1,0,0:0:0:0:
280,92,3979,2,0,B|312:112|356:96|356:96|388:120|388:120|428:104|476:136,1,210
408,40,4685,2,0,B|364:12|316:32|316:32|288:16|248:24,1,140
176,80,5214,1,0,0:0:0:0:
256,192,5391,12,0,6450,0:0:0:0:
356,184,6802,6,0,P|404:196|476:156,2,131.25
248,260,7508,2,0,P|200:248|128:288,2,131.25
220,132,8214,1,0,0:0:0:0:
344,172,8391,2,0,P|400:152|416:32,1,175
436,180,8920,2,0,B|440:272|440:272|524:344,1,175
372,296,9450,1,0,0:0:0:0:
244,320,9626,2,0,P|180:280|168:216,2,131.25
248,160,10332,2,0,P|312:200|324:264,2,131.25
128,108,11038,1,0,0:0:0:0:
228,24,11214,2,0,B|272:72|272:72|336:72|360:148,1,175
412,252,11744,2,0,P|408:328|316:372,1,175
304,372,12185,2,0,L|232:356,1,43.75
140,316,12450,6,0,P|104:280|108:192,1,131.25
120,188,12802,2,0,L|192:256,1,87.5
284,332,13155,2,0,L|264:200,1,131.25
268,232,13508,2,0,P|324:260|376:244,1,87.5
472,224,13861,1,0,0:0:0:0:
348,180,14038,2,0,L|244:140,1,87.5
346,257,14391,1,0,0:0:0:0:
222,213,14568,2,0,L|118:173,1,87.5
220,284,14920,1,0,0:0:0:0:
220,284,15097,1,0,0:0:0:0:
96,248,15273,6,0,P|56:200|80:128,2,131.25
222,213,15979,2,0,P|262:261|238:333,2,131.25
348,168,16685,1,0,0:0:0:0:
472,212,16861,1,0,0:0:0:0:
436,84,17038,1,0,0:0:0:0:
308,60,17214,2,0,L|256:72,1,43.75
244,76,17391,2,0,L|188:60,4,43.75
368,116,17920,1,0,0:0:0:0:
272,204,18097,6,0,P|292:264|376:276,1,131.25
372,284,18450,2,0,L|420:320,3,43.75
376,264,18802,2,0,L|412:176,1,87.5
297,120,19155,2,0,L|261:236,1,87.5
188,100,19508,2,0,L|164:164,1,43.75
168,164,19685,2,0,L|184:212,1,43.75
184,228,19861,2,0,L|164:280,1,43.75
160,288,20038,2,0,L|172:336,1,43.75
176,348,20214,2,0,L|220:364,3,43.75
236,360,20567,2,0,L|284:344,3,43.75
296,336,20920,6,0,B|344:320|344:320|388:268,1,87.5
380,280,21185,2,0,L|436:272,4,43.75
368,264,21626,2,0,L|308:192,1,87.5
220,292,21979,2,0,P|160:312|116:296,1,87.5
8,276,22332,2,0,L|44:232,1,43.75
52,224,22508,2,0,L|104:216,5,43.75
112,216,23038,2,0,B|156:200|156:200|232:196,1,87.5
328,208,23391,2,0,B|376:212|376:212|448:188,1,87.5
400,332,23744,6,0,P|352:300|272:308,1,131.25
264,316,24097,2,0,L|224:288,3,43.75
272,300,24450,2,0,L|248:236,3,43.75
284,288,24802,2,0,L|296:224,3,43.75
296,228,25155,2,0,P|352:240|396:224,1,87.5
480,148,25508,1,0,0:0:0:0:
360,100,25685,2,0,L|320:72,1,43.75
308,68,25861,2,0,L|240:80,3,43.75
248,80,26214,2,0,L|188:56,3,43.75
184,72,26567,6,0,P|144:104|76:104,1,87.5
92,108,26832,2,0,L|40:92,4,43.75
104,124,27273,2,0,L|140:160,1,43.75
148,172,27450,2,0,L|196:224,1,43.75
192,220,27626,2,0,L|224:260,3,43.75
208,208,27979,2,0,P|272:224|308:212,1,87.5
312,212,28244,1,0,0:0:0:0:
328,208,28332,2,0,L|380:216,3,43.75
340,192,28685,2,0,L|400:136,3,43.75
332,176,29038,2,0,L|340:112,3,43.75
316,168,29391,6,0,P|256:160|220:96,1,131.25
220,92,29744,2,0,L|184:192,1,87.5
88,260,30097,2,0,L|124:164,1,87.5
240,224,30450,2,0,L|198:342,2,87.5
372,244,30979,1,0,0:0:0:0:
496,200,31155,1,0,0:0:0:0:
372,244,31332,1,0,0:0:0:0:
244,228,31508,2,0,P|200:172|252:72,1,175
348,16,32038,1,0,0:0:0:0:
356,148,32214,6,0,B|376:248|376:248|352:336,1,175
248,244,32744,1,0,0:0:0:0:
156,340,32920,2,0,B|136:240|136:240|160:152,1,175
244,72,33450,1,0,0:0:0:0:
112,72,33626,2,0,P|48:60|20:32,1,87.5
32,180,33979,1,0,0:0:0:0:
164,192,34155,1,0,0:0:0:0:
92,300,34332,2,0,B|172:328|172:328|288:332,1,175
392,336,34861,1,0,0:0:0:0:
320,224,35038,6,0,P|296:164|336:96,2,131.25
452,236,35744,2,0,B|480:176|480:176|440:88,2,131.25
340,168,36450,1,0,0:0:0:0:
224,180,36626,2,0,L|124:164,1,87.5
200,52,36979,1,0,0:0:0:0:
137,166,37155,2,0,P|97:234|133:346,2,175
376,60,38214,2,0,P|416:76|468:72,1,87.5
360,160,38567,2,0,B|336:192|336:192|340:280|340:280|292:336,1,175
196,380,39097,1,0,0:0:0:0:
84,308,39273,2,0,L|32:312,3,43.75
100,292,39626,2,0,L|28:268,3,43.75
120,288,39979,2,0,L|76:244,3,43.75
140,288,40332,2,0,P|180:304|248:292,1,87.5
256,192,40685,12,0,43332,0:0:0:0:
184,124,43508,6,0,P|152:140|84:120,1,105
200,52,44214,2,0,P|165:50|136:68,1,70
184,124,44744,1,0,0:0:0:0:
232,184,44920,2,0,P|260:220|296:232,2,70
348,124,45979,1,0,0:0:0:0:
360,256,46332,2,0,P|420:264|496:228,1,140
452,137,47391,2,0,P|416:197|432:265,1,140
336,232,48450,2,0,P|344:200|340:160,1,70
208,120,49155,6,0,L|248:132,2,35
128,132,49685,1,0,0:0:0:0:
68,184,49861,2,0,P|52:228|64:264,1,70
128,228,50391,1,0,0:0:0:0:
192,184,50567,2,0,P|208:224|152:304,2,140
252,136,52155,1,0,0:0:0:0:
332,140,52332,2,0,P|372:128|380:124,1,35
288,208,52685,2,0,B|300:248|300:248|332:276,2,70
224,248,53567,2,0,L|216:208,1,35
432,212,54097,2,0,P|388:204|352:148,1,105
372,72,54802,6,0,P|320:88|192:8,2,210.000008010865
472,104,56391,1,0,0:0:0:0:
384,164,56567,1,0,0:0:0:0:
480,212,56744,1,0,0:0:0:0:
388,264,56920,1,0,0:0:0:0:
480,316,57097,1,0,0:0:0:0:
388,364,57273,1,0,0:0:0:0:
296,312,57450,1,0,0:0:0:0:
192,316,57626,6,0,P|140:332|48:264,1,157.500006008148
64,176,58332,2,0,P|124:216|136:264,2,105.000004005432
140,104,59214,2,0,L|216:88,1,52.5000020027161
276,156,59567,2,0,L|212:176,1,52.5000020027161
316,228,59920,2,0,L|388:204,2,52.5000020027161
212,256,60450,2,0,P|148:296|136:372,1,157.500006008148
144,268,61155,2,0,B|152:212|152:212|144:148,1,105.000004005432
116,64,61685,1,0,0:0:0:0:
216,96,61861,2,0,P|248:64|288:64,1,78.7500030040742
264,104,62214,2,0,P|309:108|334:139,1,78.7500030040742
288,140,62567,2,0,P|318:173|317:213,1,78.7500030040742
278,187,62920,2,0,P|271:231|239:255,1,78.7500030040742
216,264,63273,6,0,B|268:252|268:252|336:264,1,105.000004005432
144,140,63979,2,0,B|92:152|92:152|24:140,1,105.000004005432
216,264,64685,2,0,L|220:328,1,52.5000020027161
304,244,65038,2,0,L|284:316,1,52.5000020027161
400,244,65391,2,0,L|364:292,1,52.5000020027161
452,304,65744,2,0,L|504:272,1,52.5000020027161
256,192,65942,12,0,68567,0:0:0:0:
128,72,68920,6,0,P|160:116|264:104,1,157.500006008148
276,100,69273,2,0,L|340:184,1,105.000004005432
224,288,69626,2,0,P|256:244|252:196,1,105.000004005432
100,160,69979,2,0,P|68:204|72:252,1,105.000004005432
184,140,70332,1,0,0:0:0:0:
140,292,70508,2,0,P|168:348|304:320,1,210.000008010865
352,184,71038,2,0,P|280:184|232:320,1,210.000008010865
184,144,71567,1,0,0:0:0:0:
336,104,71744,6,0,P|396:108|464:28,1,157.500006008148
456,16,72097,2,0,P|440:72|468:148,2,105.000004005432
276,172,72714,1,0,0:0:0:0:
260,192,72802,2,0,P|244:256|280:312,1,105.000004005432
176,156,73155,2,0,P|120:180|84:228,1,105.000004005432
188,340,73508,1,0,0:0:0:0:
344,320,73685,2,0,B|296:300|296:300|236:252,1,105.000004005432
140,160,74038,1,0,0:0:0:0:
284,100,74214,2,0,P|356:80|416:104,1,105.000004005432
360,232,74567,6,0,B|360:292|360:292|300:320|284:364,2,157.500006008148
216,196,75273,2,0,B|185:247|185:247|222:302|213:348,2,157.500006008148
320,92,75979,2,0,P|376:104|440:68,1,105.000004005432
284,28,76332,1,0,0:0:0:0:
320,168,76508,1,0,0:0:0:0:
184,108,76685,2,0,B|208:176|176:212|176:212|232:220|248:284,1,210.000008010865
104,240,77214,1,0,0:0:0:0:
180,112,77391,6,0,P|152:204|100:236,1,157.500006008148
128,224,77744,2,0,P|180:212|248:232,1,105.000004005432
424,236,78097,2,0,P|360:292|288:264,1,157.500006008148
300,200,78450,2,0,L|304:96,1,105.000004005432
160,60,78802,1,0,0:0:0:0:
20,108,78979,1,0,0:0:0:0:
128,208,79155,1,0,0:0:0:0:
268,164,79332,2,0,L|336:152,1,52.5000020027161
336,140,79508,2,0,L|408:128,4,52.5000020027161
256,48,80038,1,0,0:0:0:0:
268,168,80214,6,0,B|280:256|280:256|248:352,1,175
132,348,80744,1,0,0:0:0:0:
80,236,80920,2,0,P|96:188|56:104,2,131.25
200,252,81626,2,0,P|248:256|292:224,1,87.5
260,116,81979,2,0,P|212:112|168:144,1,87.5
88,216,82332,2,0,L|40:276,3,43.75
104,208,82685,2,0,P|152:184|212:200,1,87.5
304,216,83038,6,0,L|348:208,3,43.75
304,240,83391,2,0,L|356:248,3,43.75
300,260,83744,2,0,P|240:280|212:344,1,131.25
208,360,84097,2,0,L|192:268,1,87.5
256,192,84450,12,0,85508,0:0:0:0:
152,96,85861,5,0,0:0:0:0:
272,120,86038,1,0,0:0:0:0:
380,176,86214,1,0,0:0:0:0:
436,284,86391,2,0,P|416:348|364:368,1,87.5
280,348,86744,2,0,L|152:332,1,87.5
72,312,87097,2,0,B|56:280|76:236|76:236|104:184|60:112,2,175
168,236,87979,2,0,P|208:204|332:232,1,175
84,160,88685,6,0,L|56:108,3,43.75
92,156,89038,2,0,L|84:108,3,43.75
104,152,89391,2,0,L|108:104,3,43.75
116,152,89744,2,0,P|172:164|208:208,1,87.5
284,264,90097,2,0,L|332:304,3,43.75
288,252,90450,2,0,L|360:272,3,43.75
288,240,90802,2,0,L|360:232,3,43.75
284,232,91155,2,0,P|260:180|284:128,1,87.5
294,38,91508,6,0,P|306:90|234:162,1,131.25
240,156,91861,2,0,L|328:148,1,87.5
432,208,92214,2,0,P|420:156|492:84,1,131.25
486,90,92567,2,0,L|398:98,1,87.5
276,100,92920,1,0,0:0:0:0:
164,48,93097,2,0,P|120:84|8:44,1,175
36,176,93626,2,0,B|96:236|96:236|120:324,1,175
224,260,94155,1,0,0:0:0:0:
336,212,94332,6,0,P|360:300|412:324,2,131.25
388,100,95038,2,0,B|328:124|328:124|256:108,2,131.25
312,196,95744,2,0,L|216:176,1,87.5
108,152,96097,1,0,0:0:0:0:
92,272,96273,2,0,L|80:368,2,87.5
208,316,96802,1,0,0:0:0:0:
328,284,96979,2,0,P|368:264|432:272,1,87.5
404,140,97332,6,0,L|348:108,1,43.75
340,108,97508,2,0,P|288:136|236:128,1,87.5
140,124,97861,2,0,L|204:252,1,131.25
208,232,98214,2,0,P|248:208|316:228,1,87.5
408,236,98567,1,0,0:0:0:0:
340,136,98744,2,0,P|272:108|236:16,1,175
348,68,99273,2,0,P|288:88|252:212,1,175
236,308,99802,1,0,0:0:0:0:
136,240,99979,6,0,B|164:200|164:200|156:160|156:160|184:108,2,131.25
236,168,100685,2,0,P|292:124|284:52,2,131.25
328,248,101391,2,0,L|400:304,1,87.5
280,344,101744,2,0,L|388:372,2,87.5
260,336,102185,2,0,L|240:280,3,43.75
220,200,102626,1,0,0:0:0:0:
256,192,102802,12,0,105626,0:0:0:0:
