osu file format v14

[General]
AudioFilename: audio.mp3
AudioLeadIn: 0
PreviewTime: 56716
Countdown: 0
SampleSet: Soft
StackLeniency: 0.7
Mode: 3
LetterboxInBreaks: 0
SpecialStyle: 0
WidescreenStoryboard: 0

[Editor]
DistanceSpacing: 1.4
BeatDivisor: 4
GridSize: 32
TimelineZoom: 2.9

[Metadata]
Title:Identity Part 5
TitleUnicode:Identity Part 5
Artist:SHK
ArtistUnicode:SHK
Creator:-[Apple]-
Version:NM
Source:O2Jam U
Tags:dubstep identity part 4 ip4 ip5 soundholick trance biemote critical_star
BeatmapID:1073635
BeatmapSetID:504222

[Difficulty]
HPDrainRate:7
CircleSize:4
OverallDifficulty:7
ApproachRate:5
SliderMultiplier:1.4
SliderTickRate:1

[Events]
//Background and Video events
0,0,"57922492_p0.jpg",0,0
//Break Periods
//Storyboard Layer 0 (Background)
//Storyboard Layer 1 (Fail)
//Storyboard Layer 2 (Pass)
//Storyboard Layer 3 (Foreground)
//Storyboard Sound Samples

[TimingPoints]
145,428.571428571429,4,2,1,30,1,0
56716,-100,4,2,1,30,0,1
70430,-100,4,2,1,30,0,0
97859,-100,4,2,1,30,0,1
125287,-100,4,2,1,30,0,0

[HitObjects]
448,192,1430,5,0,0:0:0:0:
64,192,1537,1,0,0:0:0:0:
192,192,1645,1,0,0:0:0:0:
320,192,1752,1,0,0:0:0:0:
448,192,1859,1,0,0:0:0:0:
64,192,2502,1,0,0:0:0:0:
448,192,3145,1,0,0:0:0:0:
192,192,3573,1,0,0:0:0:0:
320,192,4216,1,0,0:0:0:0:
64,192,4859,1,0,0:0:0:0:
320,192,5287,1,0,0:0:0:0:
448,192,5930,1,0,0:0:0:0:
64,192,6573,1,0,0:0:0:0:
448,192,7002,1,0,0:0:0:0:
64,192,7216,1,0,0:0:0:0:
320,192,7430,1,0,0:0:0:0:
192,192,7645,1,0,0:0:0:0:
448,192,8287,1,0,0:0:0:0:
64,192,8395,1,0,0:0:0:0:
192,192,8502,1,0,0:0:0:0:
320,192,8609,1,0,0:0:0:0:
448,192,8716,1,2,0:0:0:0:
64,192,8716,1,0,0:0:0:0:
192,192,9145,1,2,0:0:0:0:
64,192,9359,1,0,0:0:0:0:
448,192,9573,1,2,0:0:0:0:
64,192,10002,1,0,0:0:0:0:
192,192,10002,1,2,0:0:0:0:
448,192,10430,1,0,0:0:0:0:
320,192,10430,1,2,0:0:0:0:
64,192,10859,1,2,0:0:0:0:
320,192,11073,1,0,0:0:0:0:
448,192,11287,1,2,0:0:0:0:
64,192,11716,1,0,0:0:0:0:
320,192,11716,1,2,0:0:0:0:
448,192,12145,1,0,0:0:0:0:
192,192,12145,1,2,0:0:0:0:
64,192,12573,1,2,0:0:0:0:
320,192,12787,1,0,0:0:0:0:
448,192,13002,1,2,0:0:0:0:
64,192,13430,1,2,0:0:0:0:
448,192,13859,1,2,0:0:0:0:
192,192,14073,1,2,0:0:0:0:
320,192,14287,1,2,0:0:0:0:
64,192,14502,1,2,0:0:0:0:
192,192,14716,1,2,0:0:0:0:
320,192,14930,1,2,0:0:0:0:
448,192,15145,128,2,15573:0:0:0:0:
64,192,15573,1,4,0:0:0:0:
192,192,15573,1,2,0:0:0:0:
192,192,16002,1,2,0:0:0:0:
448,192,16216,1,0,0:0:0:0:
320,192,16430,1,2,0:0:0:0:
64,192,16859,1,8,0:0:0:0:
448,192,16859,1,0,0:0:0:0:
320,192,17287,1,2,0:0:0:0:
192,192,17716,1,8,0:0:0:0:
448,192,17930,1,0,0:0:0:0:
64,192,18145,1,2,0:0:0:0:
448,192,18573,1,0,0:0:0:0:
192,192,18573,1,8,0:0:0:0:
320,192,19002,1,2,0:0:0:0:
64,192,19002,1,0,0:0:0:0:
192,192,19430,1,8,0:0:0:0:
448,192,19645,1,0,0:0:0:0:
64,192,19859,1,2,0:0:0:0:
320,192,20287,1,8,0:0:0:0:
64,192,20287,1,0,0:0:0:0:
192,192,20716,1,2,0:0:0:0:
448,192,20716,1,0,0:0:0:0:
320,192,20930,1,0,0:0:0:0:
64,192,21145,1,8,0:0:0:0:
448,192,21145,1,0,0:0:0:0:
192,192,21359,1,0,0:0:0:0:
320,192,21359,1,0,0:0:0:0:
448,192,21573,1,2,0:0:0:0:
64,192,21787,1,0,0:0:0:0:
448,192,22002,1,0,0:0:0:0:
320,192,22109,1,8,0:0:0:0:
64,192,22216,1,0,0:0:0:0:
192,192,22323,1,0,0:0:0:0:
320,192,22430,1,2,0:0:0:0:
448,192,22430,1,0,0:0:0:0:
192,192,22859,1,8,0:0:0:0:
448,192,23073,1,0,0:0:0:0:
320,192,23287,1,2,0:0:0:0:
64,192,23716,1,8,0:0:0:0:
320,192,23716,1,0,0:0:0:0:
448,192,24145,1,0,0:0:0:0:
192,192,24145,1,2,0:0:0:0:
320,192,24573,1,8,0:0:0:0:
448,192,24787,1,0,0:0:0:0:
64,192,25002,1,2,0:0:0:0:
320,192,25430,1,8,0:0:0:0:
448,192,25430,1,0,0:0:0:0:
64,192,25859,1,0,0:0:0:0:
192,192,25859,1,2,0:0:0:0:
448,192,26287,1,8,0:0:0:0:
192,192,26502,1,0,0:0:0:0:
320,192,26716,1,2,0:0:0:0:
448,192,27145,1,0,0:0:0:0:
192,192,27145,1,8,0:0:0:0:
64,192,27573,1,2,0:0:0:0:
320,192,28002,1,2,0:0:0:0:
448,192,28430,1,2,0:0:0:0:
64,192,28859,1,2,0:0:0:0:
320,192,28966,1,0,0:0:0:0:
192,192,29073,1,0,0:0:0:0:
64,192,29180,1,0,0:0:0:0:
448,192,29287,1,2,0:0:0:0:
320,192,29287,1,4,0:0:0:0:
192,192,29502,1,0,0:0:0:0:
320,192,29716,1,8,0:0:0:0:
448,192,29930,1,0,0:0:0:0:
64,192,30359,1,0,0:0:0:0:
320,192,30573,1,8,0:0:0:0:
448,192,30573,1,0,0:0:0:0:
192,192,30787,1,0,0:0:0:0:
64,192,31002,1,2,0:0:0:0:
448,192,31002,1,0,0:0:0:0:
192,192,31216,1,0,0:0:0:0:
320,192,31430,1,8,0:0:0:0:
448,192,31430,1,0,0:0:0:0:
192,192,31645,1,0,0:0:0:0:
448,192,32073,1,0,0:0:0:0:
320,192,32287,1,8,0:0:0:0:
64,192,32287,1,0,0:0:0:0:
448,192,32502,1,0,0:0:0:0:
192,192,32716,1,2,0:0:0:0:
320,192,32716,1,0,0:0:0:0:
64,192,32930,1,0,0:0:0:0:
448,192,33145,1,8,0:0:0:0:
192,192,33359,1,0,0:0:0:0:
64,192,33787,1,0,0:0:0:0:
192,192,34002,1,8,0:0:0:0:
448,192,34216,1,0,0:0:0:0:
192,192,34430,1,0,0:0:0:0:
64,192,34430,1,2,0:0:0:0:
320,192,34645,1,0,0:0:0:0:
448,192,34859,1,8,0:0:0:0:
64,192,34859,1,0,0:0:0:0:
320,192,35073,1,0,0:0:0:0:
64,192,35287,1,2,0:0:0:0:
320,192,35502,1,0,0:0:0:0:
448,192,35716,1,8,0:0:0:0:
320,192,35823,1,0,0:0:0:0:
192,192,35930,1,0,0:0:0:0:
64,192,36037,1,0,0:0:0:0:
320,192,36145,1,2,0:0:0:0:
448,192,36145,1,4,0:0:0:0:
192,192,36359,1,0,0:0:0:0:
64,192,36573,1,8,0:0:0:0:
320,192,36787,1,0,0:0:0:0:
448,192,37216,1,0,0:0:0:0:
64,192,37430,1,0,0:0:0:0:
192,192,37430,1,8,0:0:0:0:
320,192,37645,1,0,0:0:0:0:
448,192,37859,1,0,0:0:0:0:
64,192,37859,1,2,0:0:0:0:
320,192,38073,1,0,0:0:0:0:
64,192,38287,1,8,0:0:0:0:
320,192,38502,1,0,0:0:0:0:
64,192,38716,1,0,0:0:0:0:
448,192,38716,1,2,0:0:0:0:
192,192,38930,1,0,0:0:0:0:
448,192,39145,1,0,0:0:0:0:
320,192,39145,1,8,0:0:0:0:
192,192,39359,1,0,0:0:0:0:
448,192,39573,1,2,0:0:0:0:
64,192,39573,1,0,0:0:0:0:
192,192,39787,1,0,0:0:0:0:
448,192,40002,1,2,0:0:0:0:
64,192,40216,1,0,0:0:0:0:
192,192,40430,1,2,0:0:0:0:
448,192,40645,1,0,0:0:0:0:
64,192,40859,1,2,0:0:0:0:
448,192,41073,1,0,0:0:0:0:
320,192,41287,1,4,0:0:0:0:
64,192,41287,1,2,0:0:0:0:
448,192,41502,1,0,0:0:0:0:
320,192,41716,1,2,0:0:0:0:
64,192,41716,1,4,0:0:0:0:
192,192,41930,1,0,0:0:0:0:
320,192,42145,1,2,0:0:0:0:
448,192,42145,1,4,0:0:0:0:
64,192,42359,128,0,42573:0:0:0:0:
448,192,42573,1,4,0:0:0:0:
320,192,42573,1,8,0:0:0:0:
192,192,42787,128,0,43002:0:0:0:0:
448,192,43002,1,4,0:0:0:0:
64,192,43002,128,2,43859:0:0:0:0:
448,192,43859,1,0,0:0:0:0:
192,192,44180,1,0,0:0:0:0:
320,192,44502,1,0,0:0:0:0:
448,192,44716,1,0,0:0:0:0:
64,192,45037,1,0,0:0:0:0:
320,192,45359,1,0,0:0:0:0:
192,192,45573,1,0,0:0:0:0:
448,192,46002,1,0,0:0:0:0:
64,192,46430,128,0,48145:0:0:0:0:
448,192,48145,1,0,0:0:0:0:
64,192,49002,1,0,0:0:0:0:
448,192,49859,1,4,0:0:0:0:
192,192,49859,1,2,0:0:0:0:
64,192,50716,1,0,0:0:0:0:
320,192,51037,1,0,0:0:0:0:
448,192,51359,1,0,0:0:0:0:
64,192,51573,1,0,0:0:0:0:
448,192,52216,1,0,0:0:0:0:
192,192,52645,1,0,0:0:0:0:
320,192,52859,1,0,0:0:0:0:
448,192,53287,128,0,55002:0:0:0:0:
64,192,55002,1,0,0:0:0:0:
192,192,55002,1,4,0:0:0:0:
448,192,55859,1,4,0:0:0:0:
320,192,55859,1,0,0:0:0:0:
64,192,56287,1,0,0:0:0:0:
192,192,56395,1,0,0:0:0:0:
448,192,56502,1,0,0:0:0:0:
320,192,56609,1,0,0:0:0:0:
64,192,56716,1,0,0:0:0:0:
192,192,56716,1,2,0:0:0:0:
192,192,57359,1,2,0:0:0:0:
320,192,57573,1,0,0:0:0:30:snare.wav
448,192,57573,1,0,0:0:0:0:
192,192,58216,1,2,0:0:0:0:
448,192,58430,1,4,0:0:0:0:
64,192,58430,1,2,0:0:0:0:
192,192,58752,1,2,0:0:0:0:
192,192,59073,1,2,0:0:0:0:
320,192,59287,1,0,0:0:0:30:snare.wav
448,192,59287,1,0,0:0:0:0:
64,192,59502,1,0,0:0:0:0:
192,192,59716,1,0,0:0:0:0:
320,192,59930,1,2,0:0:0:0:
64,192,60145,1,2,0:0:0:0:
448,192,60145,1,4,0:0:0:0:
192,192,60573,1,0,0:0:0:30:snare.wav
448,192,60573,1,0,0:0:0:0:
320,192,60787,1,2,0:0:0:0:
64,192,61216,1,0,0:0:0:40:snare.wav
320,192,61216,1,0,0:0:0:0:
448,192,61430,1,0,0:0:0:0:
192,192,61645,1,2,0:0:0:0:
64,192,61859,1,2,0:0:0:0:
448,192,61859,1,0,0:0:0:0:
192,192,62073,1,0,0:0:0:30:snare.wav
448,192,62180,1,2,0:0:0:0:
320,192,62395,1,0,0:0:0:30:snare.wav
64,192,62502,1,2,0:0:0:0:
320,192,62716,128,0,63145:0:0:0:20:snare.wav
448,192,63145,1,0,0:0:0:0:
64,192,63252,1,0,0:0:0:0:
192,192,63359,1,0,0:0:0:0:
448,192,63466,1,0,0:0:0:0:
320,192,63573,1,2,0:0:0:0:
64,192,63573,1,4,0:0:0:0:
448,192,64216,1,2,0:0:0:0:
320,192,64430,1,0,0:0:0:30:snare.wav
64,192,64430,1,0,0:0:0:0:
320,192,65073,1,2,0:0:0:0:
192,192,65287,1,2,0:0:0:0:
192,192,65609,1,2,0:0:0:0:
192,192,65930,1,2,0:0:0:0:
320,192,66145,1,0,0:0:0:30:snare.wav
448,192,66145,1,0,0:0:0:0:
64,192,66787,1,2,0:0:0:0:
64,192,67002,1,2,0:0:0:0:
192,192,67430,1,0,0:0:0:30:snare.wav
448,192,67430,1,0,0:0:0:0:
320,192,67645,1,2,0:0:0:0:
448,192,68073,1,0,0:0:0:70:snare.wav
64,192,68073,1,0,0:0:0:0:
192,192,68502,1,2,0:0:0:0:
448,192,68716,1,2,0:0:0:0:
64,192,68930,1,0,0:0:0:30:snare.wav
192,192,69037,1,2,0:0:0:0:
448,192,69252,1,0,0:0:0:30:snare.wav
320,192,69359,1,2,0:0:0:0:
320,192,69573,1,0,0:0:0:30:snare.wav
448,192,69573,1,0,0:0:0:0:
64,192,69680,1,0,0:0:0:0:
192,192,69787,1,0,0:0:0:0:
448,192,69895,1,0,0:0:0:0:
320,192,70002,1,0,0:0:0:0:
64,192,70216,1,0,0:0:0:0:
448,192,70430,1,0,0:0:0:0:
64,192,70430,1,2,0:0:0:0:
320,192,70537,1,0,0:0:0:0:
192,192,70645,1,0,0:0:0:0:
64,192,70752,1,0,0:0:0:0:
448,192,70859,1,2,0:0:0:0:
192,192,71073,1,0,0:0:0:0:
448,192,71287,1,0,0:0:0:0:
64,192,71287,1,2,0:0:0:0:
320,192,71502,1,0,0:0:0:0:
192,192,71716,1,2,0:0:0:0:
64,192,71716,1,0,0:0:0:0:
448,192,71930,1,0,0:0:0:0:
320,192,72145,1,2,0:0:0:0:
64,192,72145,1,0,0:0:0:0:
192,192,72466,1,0,0:0:0:0:
448,192,72573,1,2,0:0:0:0:
320,192,72787,1,0,0:0:0:0:
64,192,73002,1,2,0:0:0:0:
448,192,73216,1,0,0:0:0:0:
192,192,73430,1,2,0:0:0:0:
448,192,73645,1,0,0:0:0:0:
320,192,73859,1,2,0:0:0:0:
64,192,73859,1,0,0:0:0:0:
448,192,74073,1,0,0:0:0:0:
320,192,74287,1,2,0:0:0:0:
192,192,74502,1,0,0:0:0:0:
64,192,74716,1,2,0:0:0:0:
448,192,74930,1,0,0:0:0:0:
320,192,75145,1,2,0:0:0:0:
64,192,75359,1,0,0:0:0:0:
448,192,75573,1,2,0:0:0:0:
320,192,75787,1,0,0:0:0:0:
192,192,76002,1,2,0:0:0:0:
448,192,76216,1,0,0:0:0:0:
64,192,76430,1,2,0:0:0:0:
192,192,76645,1,0,0:0:0:0:
320,192,76859,1,2,0:0:0:0:
192,192,77073,1,0,0:0:0:0:
64,192,77287,1,4,0:0:0:0:
448,192,77287,1,0,0:0:0:0:
320,192,77395,1,0,0:0:0:0:
192,192,77502,1,0,0:0:0:0:
64,192,77609,1,0,0:0:0:0:
320,192,77716,1,2,0:0:0:0:
448,192,77930,1,0,0:0:0:0:
64,192,78145,1,2,0:0:0:0:
320,192,78359,1,0,0:0:0:0:
448,192,78573,1,2,0:0:0:0:
192,192,78573,1,8,0:0:0:0:
64,192,78787,1,0,0:0:0:0:
320,192,79002,1,2,0:0:0:0:
448,192,79002,1,4,0:0:0:0:
192,192,79323,1,0,0:0:0:0:
64,192,79430,1,2,0:0:0:0:
448,192,79645,1,0,0:0:0:0:
192,192,79859,1,2,0:0:0:0:
320,192,80073,1,0,0:0:0:0:
64,192,80287,1,2,0:0:0:0:
192,192,80502,1,0,0:0:0:0:
448,192,80716,1,4,0:0:0:0:
320,192,80716,1,2,0:0:0:0:
64,192,80823,1,0,0:0:0:0:
448,192,80930,1,0,0:0:0:0:
192,192,81145,1,2,0:0:0:0:
320,192,81359,1,0,0:0:0:0:
64,192,81573,1,2,0:0:0:0:
192,192,81787,1,0,0:0:0:0:
448,192,82002,1,2,0:0:0:0:
320,192,82216,1,0,0:0:0:0:
64,192,82430,1,4,0:0:0:0:
448,192,82430,1,2,0:0:0:0:
192,192,82645,1,0,0:0:0:0:
448,192,82859,1,4,0:0:0:0:
64,192,82859,1,2,0:0:0:0:
320,192,83073,1,0,0:0:0:0:
64,192,83287,1,2,0:0:0:0:
192,192,83287,1,4,0:0:0:0:
448,192,83502,1,0,0:0:0:0:
320,192,83716,1,4,0:0:0:0:
64,192,83716,1,2,0:0:0:0:
192,192,83930,1,0,0:0:0:0:
320,192,84145,1,2,0:0:0:0:
448,192,84145,1,4,0:0:0:0:
192,192,84787,1,0,0:0:0:0:
448,192,85430,1,0,0:0:0:0:
64,192,85859,1,0,0:0:0:0:
320,192,86502,1,0,0:0:0:0:
192,192,87145,1,0,0:0:0:0:
448,192,87573,1,0,0:0:0:0:
64,192,88216,1,0,0:0:0:0:
448,192,88859,1,0,0:0:0:0:
64,192,89287,1,0,0:0:0:0:
320,192,89502,1,0,0:0:0:0:
192,192,89716,1,0,0:0:0:0:
448,192,89930,1,0,0:0:0:0:
448,192,90573,1,0,0:0:0:0:
320,192,90680,1,0,0:0:0:0:
64,192,90787,1,0,0:0:0:0:
192,192,90895,1,0,0:0:0:0:
320,192,91002,1,2,0:0:0:0:
448,192,91002,1,0,0:0:0:0:
192,192,91645,1,0,0:0:0:0:
448,192,92287,1,0,0:0:0:0:
64,192,92716,1,0,0:0:0:0:
320,192,93359,1,0,0:0:0:0:
448,192,94002,1,0,0:0:0:0:
64,192,94430,1,0,0:0:0:0:
320,192,95073,1,0,0:0:0:0:
448,192,95716,1,0,0:0:0:0:
64,192,96145,1,4,0:0:0:0:
192,192,96145,1,2,0:0:0:0:
320,192,96359,1,2,0:0:0:0:
448,192,96573,1,2,0:0:0:0:
64,192,96787,1,2,0:0:0:0:
320,192,97002,1,2,0:0:0:0:
64,192,97216,1,2,0:0:0:0:
192,192,97430,1,2,0:0:0:0:
320,192,97537,1,0,0:0:0:0:
448,192,97645,1,2,0:0:0:0:
192,192,97752,1,0,0:0:0:0:
320,192,97859,1,4,0:0:0:0:
64,192,97859,1,0,0:0:0:0:
448,192,98073,1,0,0:0:0:0:
320,192,98287,1,2,0:0:0:0:
64,192,98502,1,0,0:0:0:0:
192,192,98716,1,2,0:0:0:0:
448,192,98716,1,0,0:0:0:0:
320,192,98930,1,0,0:0:0:0:
64,192,99145,1,0,0:0:0:0:
448,192,99145,1,2,0:0:0:0:
192,192,99359,1,0,0:0:0:0:
448,192,99573,1,0,0:0:0:0:
320,192,99573,1,2,0:0:0:0:
192,192,99787,1,0,0:0:0:0:
64,192,100002,1,2,0:0:0:0:
448,192,100216,1,0,0:0:0:0:
192,192,100430,1,2,0:0:0:0:
320,192,100645,1,0,0:0:0:0:
192,192,100859,1,2,0:0:0:0:
64,192,100859,1,0,0:0:0:0:
448,192,101073,1,0,0:0:0:0:
320,192,101287,1,0,0:0:0:0:
64,192,101287,1,2,0:0:0:0:
448,192,101502,1,0,0:0:0:0:
64,192,101716,1,2,0:0:0:0:
320,192,101930,1,0,0:0:0:0:
448,192,102145,1,2,0:0:0:0:
64,192,102359,1,0,0:0:0:0:
448,192,102573,1,2,0:0:0:0:
192,192,102787,1,0,0:0:0:0:
320,192,103002,1,2,0:0:0:0:
448,192,103002,1,0,0:0:0:0:
192,192,103216,1,0,0:0:0:0:
64,192,103430,1,2,0:0:0:0:
448,192,103430,1,0,0:0:0:0:
320,192,103645,1,0,0:0:0:0:
64,192,103859,1,2,0:0:0:0:
448,192,104073,1,0,0:0:0:0:
320,192,104287,1,2,0:0:0:0:
448,192,104395,1,0,0:0:0:0:
64,192,104502,1,0,0:0:0:0:
192,192,104609,1,0,0:0:0:0:
320,192,104716,1,2,0:0:0:0:
448,192,104716,1,4,0:0:0:0:
192,192,104930,1,0,0:0:0:0:
64,192,105145,1,2,0:0:0:0:
320,192,105359,1,0,0:0:0:0:
448,192,105573,1,2,0:0:0:0:
64,192,105787,1,0,0:0:0:0:
192,192,106002,128,2,106430:0:0:0:0:
448,192,106430,1,4,0:0:0:0:
64,192,106430,1,2,0:0:0:0:
320,192,106645,1,0,0:0:0:0:
64,192,106859,1,2,0:0:0:0:
192,192,107073,1,0,0:0:0:0:
448,192,107287,1,2,0:0:0:0:
320,192,107502,1,0,0:0:0:0:
64,192,107716,1,2,0:0:0:0:
192,192,107930,1,0,0:0:0:0:
320,192,108145,1,2,0:0:0:0:
448,192,108145,1,4,0:0:0:0:
192,192,108359,1,0,0:0:0:0:
64,192,108573,1,2,0:0:0:0:
448,192,108787,1,0,0:0:0:0:
320,192,109002,1,2,0:0:0:0:
64,192,109216,1,0,0:0:0:0:
192,192,109430,1,2,0:0:0:0:
320,192,109645,1,0,0:0:0:0:
448,192,109859,1,4,0:0:0:0:
64,192,109859,1,2,0:0:0:0:
192,192,110073,1,0,0:0:0:0:
448,192,110287,1,4,0:0:0:0:
320,192,110287,1,2,0:0:0:0:
64,192,110502,1,0,0:0:0:0:
192,192,110716,1,2,0:0:0:0:
448,192,110716,1,4,0:0:0:0:
320,192,110930,1,0,0:0:0:0:
448,192,111145,1,4,0:0:0:0:
64,192,111145,1,2,0:0:0:0:
192,192,111359,1,0,0:0:0:0:
448,192,111573,1,4,0:0:0:0:
64,192,111573,128,2,112002:0:0:0:0:
320,192,112002,1,0,0:0:0:0:
448,192,112002,1,2,0:0:0:0:
192,192,112216,1,0,0:0:0:0:
448,192,112430,1,2,0:0:0:0:
64,192,112645,1,0,0:0:0:0:
192,192,112859,1,2,0:0:0:0:
448,192,112859,1,0,0:0:0:0:
320,192,113073,1,0,0:0:0:0:
64,192,113287,1,2,0:0:0:0:
448,192,113287,128,0,113716:0:0:0:0:
192,192,113716,1,2,0:0:0:0:
64,192,113716,1,0,0:0:0:0:
448,192,113930,1,0,0:0:0:0:
320,192,114145,1,2,0:0:0:0:
64,192,114359,1,0,0:0:0:0:
192,192,114573,1,2,0:0:0:0:
448,192,114573,1,0,0:0:0:0:
320,192,114787,1,0,0:0:0:0:
64,192,115002,1,0,0:0:0:0:
192,192,115002,1,2,0:0:0:0:
448,192,115216,1,0,0:0:0:0:
320,192,115430,1,2,0:0:0:0:
64,192,115430,1,0,0:0:0:0:
192,192,115645,1,0,0:0:0:0:
320,192,115859,1,2,0:0:0:0:
448,192,115859,1,0,0:0:0:0:
192,192,116073,1,0,0:0:0:0:
64,192,116287,1,2,0:0:0:0:
448,192,116287,1,0,0:0:0:0:
320,192,116502,1,0,0:0:0:0:
192,192,116716,1,2,0:0:0:0:
64,192,116716,1,0,0:0:0:0:
448,192,116930,1,0,0:0:0:0:
320,192,117145,1,2,0:0:0:0:
64,192,117145,1,0,0:0:0:0:
192,192,117359,1,0,0:0:0:0:
320,192,117573,1,0,0:0:0:0:
448,192,117573,128,2,118430:0:0:0:0:
64,192,118430,1,4,0:0:0:0:
320,192,118645,1,0,0:0:0:0:
64,192,118859,1,2,0:0:0:0:
320,192,119073,1,0,0:0:0:0:
448,192,119287,1,2,0:0:0:0:
64,192,119502,1,0,0:0:0:0:
192,192,119716,1,0,0:0:0:0:
320,192,119716,128,2,120145:0:0:0:0:
448,192,120145,1,4,0:0:0:0:
64,192,120359,1,0,0:0:0:0:
192,192,120573,1,2,0:0:0:0:
448,192,120787,1,0,0:0:0:0:
320,192,121002,1,2,0:0:0:0:
64,192,121216,1,0,0:0:0:0:
192,192,121430,1,2,0:0:0:0:
448,192,121645,1,0,0:0:0:0:
320,192,121859,1,2,0:0:0:0:
64,192,121859,1,4,0:0:0:0:
448,192,122073,1,0,0:0:0:0:
64,192,122287,1,2,0:0:0:0:
192,192,122502,1,0,0:0:0:0:
448,192,122716,1,2,0:0:0:0:
64,192,122930,1,0,0:0:0:0:
192,192,123145,1,2,0:0:0:0:
448,192,123359,1,0,0:0:0:0:
320,192,123573,1,2,0:0:0:0:
64,192,123573,1,4,0:0:0:0:
192,192,123787,1,0,0:0:0:0:
320,192,124002,1,2,0:0:0:0:
448,192,124002,1,4,0:0:0:0:
192,192,124216,1,0,0:0:0:0:
64,192,124430,1,2,0:0:0:0:
448,192,124430,1,4,0:0:0:0:
320,192,124645,1,0,0:0:0:0:
192,192,124859,1,2,0:0:0:0:
64,192,124859,1,4,0:0:0:0:
320,192,125073,1,0,0:0:0:0:
448,192,125287,1,0,0:0:0:0:
64,192,125287,128,2,128716:0:0:0:0:
448,192,126145,128,0,128716:0:0:0:0:
320,192,128716,1,4,0:0:0:0:
