osu file format v14

[General]
AudioFilename: audio.mp3
AudioLeadIn: 0
PreviewTime: 56716
Countdown: 0
SampleSet: Soft
StackLeniency: 0.7
Mode: 3
LetterboxInBreaks: 0
SpecialStyle: 0
WidescreenStoryboard: 0

[Editor]
Bookmarks: 114680
DistanceSpacing: 1.4
BeatDivisor: 4
GridSize: 32
TimelineZoom: 2.9

[Metadata]
Title:Identity Part 5
TitleUnicode:Identity Part 5
Artist:SHK
ArtistUnicode:SHK
Creator:-[Apple]-
Version:MX
Source:O2Jam U
Tags:dubstep identity part 4 ip4 ip5 soundholick trance biemote critical_star
BeatmapID:1072857
BeatmapSetID:504222

[Difficulty]
HPDrainRate:8
CircleSize:4
OverallDifficulty:8
ApproachRate:5
SliderMultiplier:1.4
SliderTickRate:1

[Events]
//Background and Video events
0,0,"57922492_p0.jpg",0,0
//Break Periods
//Storyboard Layer 0 (Background)
//Storyboard Layer 1 (Fail)
//Storyboard Layer 2 (Pass)
//Storyboard Layer 3 (Foreground)
//Storyboard Sound Samples

[TimingPoints]
145,428.571428571429,4,2,1,30,1,0
56716,-100,4,2,1,30,0,1
58430,-222.222222222221,4,2,1,30,0,1
58537,-100,4,2,1,30,0,1
58752,-222.222222222222,4,2,1,30,0,1
58859,-100,4,2,1,30,0,1
59073,-222.222222222222,4,2,1,30,0,1
59180,-100,4,2,1,30,0,1
62073,-133.333333333333,4,2,1,30,0,1
62180,-83.3333333333333,4,2,1,30,0,1
62287,-100,4,2,1,30,0,1
62395,-133.333333333333,4,2,1,30,0,1
62502,-83.3333333333333,4,2,1,30,0,1
62609,-100,4,2,1,30,0,1
63145,-133.333333333333,4,2,1,30,0,1
63252,-83.3333333333333,4,2,1,30,0,1
63359,-133.333333333333,4,2,1,30,0,1
63466,-83.3333333333333,4,2,1,30,0,1
63573,-100,4,2,1,30,0,1
64966,-250,4,2,1,30,0,1
65073,-90.9090909090909,4,2,1,30,0,1
65180,-250,4,2,1,30,0,1
65287,-100,4,2,1,30,0,1
65502,-250,4,2,1,30,0,1
65609,-90.9090909090909,4,2,1,30,0,1
65716,-100,4,2,1,30,0,1
65823,-250,4,2,1,30,0,1
65930,-90.9090909090909,4,2,1,30,0,1
66037,-100,4,2,1,30,0,1
68930,-133.333333333333,4,2,1,30,0,1
69037,-83.3333333333333,4,2,1,30,0,1
69145,-100,4,2,1,30,0,1
69252,-133.333333333333,4,2,1,30,0,1
69359,-83.3333333333333,4,2,1,30,0,1
69466,-100,4,2,1,30,0,1
70430,-100,4,2,1,30,0,0
97859,-100,4,2,1,30,0,1
125287,-100,4,2,1,30,0,0

[HitObjects]
448,192,1430,5,0,0:0:0:0:
320,192,1537,1,0,0:0:0:0:
192,192,1645,1,0,0:0:0:0:
64,192,1752,1,0,0:0:0:0:
320,192,1859,1,0,0:0:0:0:
448,192,1859,128,0,2502:0:0:0:0:
192,192,2502,1,0,0:0:0:0:
64,192,2502,128,0,3145:0:0:0:0:
320,192,3145,1,0,0:0:0:0:
192,192,3145,128,0,3573:0:0:0:0:
64,192,3573,1,0,0:0:0:0:
448,192,3573,128,0,4216:0:0:0:0:
64,192,4216,1,0,0:0:0:0:
192,192,4216,128,0,4859:0:0:0:0:
448,192,4859,1,0,0:0:0:0:
64,192,4859,128,0,5287:0:0:0:0:
448,192,5287,1,0,0:0:0:0:
320,192,5287,128,0,5930:0:0:0:0:
448,192,5930,128,0,6573:0:0:0:0:
64,192,5930,1,0,0:0:0:0:
192,192,6573,1,0,0:0:0:0:
64,192,6573,128,0,7002:0:0:0:0:
448,192,7002,128,0,7216:0:0:0:0:
320,192,7002,1,0,0:0:0:0:
64,192,7216,128,0,7430:0:0:0:0:
448,192,7430,128,0,7645:0:0:0:0:
64,192,7645,1,0,0:0:0:0:
192,192,7645,128,0,7859:0:0:0:0:
64,192,8287,1,0,0:0:0:0:
192,192,8395,1,0,0:0:0:0:
320,192,8502,1,0,0:0:0:0:
448,192,8609,1,0,0:0:0:0:
320,192,8716,1,2,0:0:0:0:
64,192,8716,1,0,0:0:0:0:
192,192,9145,1,2,0:0:0:0:
448,192,9145,1,0,0:0:0:0:
320,192,9359,1,0,0:0:0:0:
64,192,9573,1,2,0:0:0:0:
448,192,9573,1,0,0:0:0:0:
320,192,10002,1,2,0:0:0:0:
448,192,10002,1,0,0:0:0:0:
64,192,10002,1,0,0:0:0:0:
64,192,10430,1,2,0:0:0:0:
448,192,10430,1,0,0:0:0:0:
192,192,10430,1,0,0:0:0:0:
320,192,10859,1,2,0:0:0:0:
64,192,10859,1,0,0:0:0:0:
448,192,11073,1,0,0:0:0:0:
192,192,11287,1,2,0:0:0:0:
320,192,11287,1,0,0:0:0:0:
64,192,11716,1,2,0:0:0:0:
320,192,11716,1,0,0:0:0:0:
448,192,11716,1,0,0:0:0:0:
192,192,12145,1,2,0:0:0:0:
448,192,12145,1,0,0:0:0:0:
64,192,12145,1,0,0:0:0:0:
64,192,12573,1,2,0:0:0:0:
320,192,12573,1,0,0:0:0:0:
448,192,12787,1,0,0:0:0:0:
192,192,13002,1,2,0:0:0:0:
64,192,13002,1,0,0:0:0:0:
64,192,13430,1,2,0:0:0:0:
448,192,13430,1,0,0:0:0:0:
320,192,13430,1,0,0:0:0:0:
448,192,13859,1,2,0:0:0:0:
64,192,13859,1,0,0:0:0:0:
192,192,13859,1,0,0:0:0:0:
320,192,13966,1,0,0:0:0:0:
64,192,14073,1,2,0:0:0:0:
192,192,14180,1,0,0:0:0:0:
320,192,14287,1,2,0:0:0:0:
448,192,14395,1,0,0:0:0:0:
192,192,14502,1,2,0:0:0:0:
320,192,14609,1,0,0:0:0:0:
448,192,14716,1,2,0:0:0:0:
320,192,14770,1,0,0:0:0:0:
192,192,14823,1,0,0:0:0:0:
64,192,14877,1,0,0:0:0:0:
448,192,14930,1,2,0:0:0:0:
320,192,14984,1,0,0:0:0:0:
192,192,15037,1,0,0:0:0:0:
64,192,15091,1,0,0:0:0:0:
448,192,15145,1,2,0:0:0:0:
320,192,15198,1,0,0:0:0:0:
64,192,15252,1,0,0:0:0:0:
192,192,15305,1,0,0:0:0:0:
448,192,15359,1,2,0:0:0:0:
320,192,15412,1,0,0:0:0:0:
64,192,15466,1,0,0:0:0:0:
192,192,15520,1,0,0:0:0:0:
448,192,15573,1,2,0:0:0:0:
64,192,15573,1,4,0:0:0:0:
320,192,15573,1,0,0:0:0:0:
192,192,15787,1,0,0:0:0:0:
320,192,15895,1,0,0:0:0:0:
448,192,16002,1,2,0:0:0:0:
64,192,16002,1,8,0:0:0:0:
192,192,16216,1,0,0:0:0:0:
448,192,16216,1,0,0:0:0:0:
64,192,16323,1,0,0:0:0:0:
320,192,16430,1,2,0:0:0:0:
448,192,16430,1,0,0:0:0:0:
64,192,16537,1,0,0:0:0:0:
192,192,16645,1,0,0:0:0:0:
320,192,16752,1,0,0:0:0:0:
64,192,16859,1,2,0:0:0:0:
448,192,16859,1,8,0:0:0:0:
192,192,16859,1,0,0:0:0:0:
320,192,16966,1,0,0:0:0:0:
192,192,17073,1,0,0:0:0:0:
64,192,17180,1,0,0:0:0:0:
192,192,17287,1,2,0:0:0:0:
448,192,17287,1,0,0:0:0:0:
320,192,17287,1,0,0:0:0:0:
320,192,17502,1,0,0:0:0:0:
192,192,17609,1,0,0:0:0:0:
448,192,17716,1,2,0:0:0:0:
64,192,17716,1,8,0:0:0:0:
320,192,17930,1,0,0:0:0:0:
448,192,17930,1,0,0:0:0:0:
192,192,18037,1,0,0:0:0:0:
64,192,18145,1,2,0:0:0:0:
448,192,18145,1,0,0:0:0:0:
320,192,18252,1,0,0:0:0:0:
192,192,18359,1,0,0:0:0:0:
320,192,18466,1,0,0:0:0:0:
192,192,18573,1,2,0:0:0:0:
448,192,18573,1,8,0:0:0:0:
64,192,18573,1,0,0:0:0:0:
320,192,18680,1,0,0:0:0:0:
192,192,18787,1,0,0:0:0:0:
448,192,18895,1,0,0:0:0:0:
320,192,19002,1,2,0:0:0:0:
64,192,19002,1,0,0:0:0:0:
192,192,19002,1,0,0:0:0:0:
448,192,19109,1,0,0:0:0:0:
320,192,19216,1,0,0:0:0:0:
192,192,19323,1,0,0:0:0:0:
320,192,19430,1,2,0:0:0:0:
64,192,19430,1,8,0:0:0:0:
448,192,19537,1,0,0:0:0:0:
320,192,19645,1,0,0:0:0:0:
64,192,19645,1,0,0:0:0:0:
192,192,19752,1,0,0:0:0:0:
64,192,19859,1,2,0:0:0:0:
448,192,19859,1,0,0:0:0:0:
320,192,19966,1,0,0:0:0:0:
192,192,20073,1,0,0:0:0:0:
64,192,20180,1,0,0:0:0:0:
192,192,20287,1,2,0:0:0:0:
320,192,20287,1,8,0:0:0:0:
448,192,20287,1,0,0:0:0:0:
64,192,20395,1,0,0:0:0:0:
448,192,20502,1,0,0:0:0:0:
320,192,20609,1,0,0:0:0:0:
192,192,20716,1,2,0:0:0:0:
64,192,20716,1,0,0:0:0:0:
64,192,20930,1,0,0:0:0:0:
448,192,20930,1,0,0:0:0:0:
192,192,21037,1,0,0:0:0:0:
320,192,21145,1,2,0:0:0:0:
448,192,21145,1,8,0:0:0:0:
64,192,21145,1,0,0:0:0:0:
192,192,21252,1,0,0:0:0:0:
320,192,21359,1,0,0:0:0:0:
448,192,21359,1,0,0:0:0:0:
192,192,21466,1,0,0:0:0:0:
320,192,21573,1,2,0:0:0:0:
64,192,21573,1,0,0:0:0:0:
448,192,21680,1,0,0:0:0:0:
320,192,21787,1,0,0:0:0:0:
192,192,21895,1,0,0:0:0:0:
64,192,22002,1,2,0:0:0:0:
320,192,22002,1,8,0:0:0:0:
192,192,22109,1,0,0:0:0:0:
320,192,22109,1,0,0:0:0:0:
64,192,22216,1,0,0:0:0:0:
448,192,22216,1,0,0:0:0:0:
64,192,22323,1,0,0:0:0:0:
320,192,22323,1,0,0:0:0:0:
192,192,22430,1,2,0:0:0:0:
448,192,22430,1,0,0:0:0:0:
320,192,22645,1,0,0:0:0:0:
192,192,22752,1,0,0:0:0:0:
64,192,22859,1,2,0:0:0:0:
448,192,22859,1,8,0:0:0:0:
320,192,22966,1,0,0:0:0:0:
192,192,23073,1,0,0:0:0:0:
448,192,23073,1,0,0:0:0:0:
64,192,23180,1,0,0:0:0:0:
320,192,23287,1,2,0:0:0:0:
192,192,23287,1,0,0:0:0:0:
64,192,23395,1,0,0:0:0:0:
448,192,23502,1,0,0:0:0:0:
320,192,23609,1,0,0:0:0:0:
64,192,23716,1,2,0:0:0:0:
448,192,23716,1,8,0:0:0:0:
192,192,23716,1,0,0:0:0:0:
320,192,23823,1,0,0:0:0:0:
64,192,23930,1,0,0:0:0:0:
192,192,24037,1,0,0:0:0:0:
448,192,24145,1,2,0:0:0:0:
320,192,24145,1,0,0:0:0:0:
64,192,24145,1,0,0:0:0:0:
64,192,24359,1,0,0:0:0:0:
192,192,24466,1,0,0:0:0:0:
448,192,24573,1,2,0:0:0:0:
64,192,24573,1,8,0:0:0:0:
192,192,24680,1,0,0:0:0:0:
320,192,24787,1,0,0:0:0:0:
448,192,24787,1,0,0:0:0:0:
192,192,24895,1,0,0:0:0:0:
64,192,25002,1,2,0:0:0:0:
448,192,25002,1,0,0:0:0:0:
320,192,25109,1,0,0:0:0:0:
64,192,25216,1,0,0:0:0:0:
192,192,25323,1,0,0:0:0:0:
448,192,25430,1,2,0:0:0:0:
64,192,25430,1,8,0:0:0:0:
320,192,25430,1,0,0:0:0:0:
320,192,25645,1,0,0:0:0:0:
192,192,25752,1,0,0:0:0:0:
64,192,25859,1,2,0:0:0:0:
448,192,25859,1,0,0:0:0:0:
320,192,25859,1,0,0:0:0:0:
320,192,26073,1,0,0:0:0:0:
192,192,26180,1,0,0:0:0:0:
64,192,26287,1,2,0:0:0:0:
448,192,26287,1,8,0:0:0:0:
192,192,26395,1,0,0:0:0:0:
320,192,26502,1,0,0:0:0:0:
448,192,26502,1,0,0:0:0:0:
64,192,26609,1,0,0:0:0:0:
192,192,26716,1,2,0:0:0:0:
448,192,26716,1,0,0:0:0:0:
64,192,26823,1,0,0:0:0:0:
448,192,26930,1,0,0:0:0:0:
320,192,27037,1,0,0:0:0:0:
192,192,27145,1,2,0:0:0:0:
64,192,27145,1,8,0:0:0:0:
448,192,27145,1,0,0:0:0:0:
320,192,27252,1,0,0:0:0:0:
64,192,27359,1,0,0:0:0:0:
320,192,27466,1,0,0:0:0:0:
448,192,27573,1,2,0:0:0:0:
64,192,27573,1,0,0:0:0:0:
192,192,27573,1,0,0:0:0:0:
320,192,27680,1,0,0:0:0:0:
448,192,27787,1,0,0:0:0:0:
320,192,27895,1,0,0:0:0:0:
192,192,28002,1,2,0:0:0:0:
64,192,28002,1,8,0:0:0:0:
320,192,28109,1,0,0:0:0:0:
448,192,28216,1,0,0:0:0:0:
320,192,28323,1,0,0:0:0:0:
64,192,28430,1,2,0:0:0:0:
192,192,28430,1,0,0:0:0:0:
320,192,28537,1,0,0:0:0:0:
448,192,28645,1,0,0:0:0:0:
320,192,28752,1,0,0:0:0:0:
192,192,28859,1,2,0:0:0:0:
64,192,28859,1,8,0:0:0:0:
448,192,28966,1,0,0:0:0:0:
64,192,28966,1,0,0:0:0:0:
448,192,29073,1,0,0:0:0:0:
192,192,29073,1,0,0:0:0:0:
320,192,29180,1,0,0:0:0:0:
64,192,29180,1,0,0:0:0:0:
448,192,29287,1,2,0:0:0:0:
64,192,29287,1,4,0:0:0:0:
192,192,29287,128,0,29502:0:0:0:0:
320,192,29502,128,0,29716:0:0:0:0:
448,192,29716,1,2,0:0:0:0:
448,192,29930,128,0,30145:0:0:0:0:
64,192,30145,1,2,0:0:0:0:
192,192,30359,1,0,0:0:0:0:
320,192,30359,128,0,30573:0:0:0:0:
448,192,30573,128,2,30787:0:0:0:0:
64,192,30573,1,8,0:0:0:0:
64,192,30787,128,0,31002:0:0:0:0:
320,192,31002,128,2,31216:0:0:0:0:
448,192,31002,1,0,0:0:0:0:
192,192,31216,128,0,31430:0:0:0:0:
320,192,31430,1,2,0:0:0:0:
448,192,31645,128,0,31859:0:0:0:0:
64,192,31859,1,2,0:0:0:0:
448,192,32073,128,0,32287:0:0:0:0:
320,192,32287,128,2,32502:0:0:0:0:
192,192,32287,1,8,0:0:0:0:
64,192,32502,128,0,32716:0:0:0:0:
320,192,32716,128,2,32930:0:0:0:0:
448,192,32716,1,0,0:0:0:0:
192,192,32930,128,0,33145:0:0:0:0:
448,192,33145,1,2,0:0:0:0:
64,192,33359,128,0,33573:0:0:0:0:
192,192,33573,1,2,0:0:0:0:
448,192,33787,128,0,34002:0:0:0:0:
320,192,34002,1,2,0:0:0:0:
64,192,34216,128,0,34430:0:0:0:0:
320,192,34430,128,2,34645:0:0:0:0:
448,192,34645,128,0,34859:0:0:0:0:
192,192,34859,128,2,35073:0:0:0:0:
64,192,34859,1,8,0:0:0:0:
320,192,35073,128,0,35287:0:0:0:0:
448,192,35287,1,2,0:0:0:0:
192,192,35502,1,0,0:0:0:0:
448,192,35716,1,2,0:0:0:0:
64,192,35716,1,0,0:0:0:0:
320,192,35823,1,0,0:0:0:0:
192,192,35930,1,0,0:0:0:0:
320,192,36037,1,0,0:0:0:0:
64,192,36145,1,2,0:0:0:0:
192,192,36145,1,0,0:0:0:0:
448,192,36145,128,0,36359:0:0:0:0:
64,192,36359,128,0,36573:0:0:0:0:
448,192,36573,1,2,0:0:0:0:
192,192,36787,128,0,37002:0:0:0:0:
64,192,37002,1,2,0:0:0:0:
448,192,37216,128,0,37430:0:0:0:0:
64,192,37430,128,2,37645:0:0:0:0:
192,192,37430,1,8,0:0:0:0:
320,192,37645,128,0,37859:0:0:0:0:
448,192,37859,1,2,0:0:0:0:
64,192,37859,128,0,38073:0:0:0:0:
192,192,38073,128,0,38287:0:0:0:0:
448,192,38287,1,2,0:0:0:0:
320,192,38502,128,0,38716:0:0:0:0:
64,192,38716,1,2,0:0:0:0:
448,192,38930,128,0,39145:0:0:0:0:
64,192,39145,128,2,39359:0:0:0:0:
192,192,39145,1,8,0:0:0:0:
320,192,39359,128,0,39573:0:0:0:0:
448,192,39573,1,2,0:0:0:0:
64,192,39573,128,0,39787:0:0:0:0:
448,192,39787,128,0,40002:0:0:0:0:
64,192,40002,1,2,0:0:0:0:
320,192,40216,128,0,40430:0:0:0:0:
192,192,40430,1,2,0:0:0:0:
192,192,40645,128,0,40859:0:0:0:0:
64,192,40859,1,2,0:0:0:0:
64,192,41073,128,0,41287:0:0:0:0:
448,192,41287,128,2,41502:0:0:0:0:
192,192,41287,1,4,0:0:0:0:
192,192,41502,128,0,41716:0:0:0:0:
320,192,41716,128,2,41930:0:0:0:0:
64,192,41930,128,0,42145:0:0:0:0:
448,192,42145,1,2,0:0:0:0:
320,192,42198,1,0,0:0:0:0:
192,192,42252,1,0,0:0:0:0:
64,192,42305,1,0,0:0:0:0:
448,192,42359,1,0,0:0:0:0:
320,192,42412,1,0,0:0:0:0:
192,192,42466,1,0,0:0:0:0:
64,192,42520,1,0,0:0:0:0:
448,192,42573,1,2,0:0:0:0:
320,192,42627,1,0,0:0:0:0:
64,192,42680,1,0,0:0:0:0:
192,192,42734,1,0,0:0:0:0:
448,192,42787,1,0,0:0:0:0:
320,192,42841,1,0,0:0:0:0:
64,192,42895,1,0,0:0:0:0:
192,192,42948,1,0,0:0:0:0:
448,192,43002,1,2,0:0:0:0:
320,192,43002,1,8,0:0:0:0:
448,192,43216,1,0,0:0:0:0:
64,192,43323,1,0,0:0:0:0:
192,192,43430,1,0,0:0:0:0:
320,192,43537,1,0,0:0:0:0:
448,192,43645,1,0,0:0:0:0:
192,192,43752,1,0,0:0:0:0:
448,192,43859,1,0,0:0:0:0:
64,192,43859,1,0,0:0:0:0:
320,192,43966,1,0,0:0:0:0:
192,192,44073,1,0,0:0:0:0:
64,192,44180,1,0,0:0:0:0:
320,192,44180,1,0,0:0:0:0:
448,192,44287,1,0,0:0:0:0:
320,192,44395,1,0,0:0:0:0:
192,192,44502,1,0,0:0:0:0:
448,192,44502,1,0,0:0:0:0:
64,192,44609,1,0,0:0:0:0:
448,192,44716,1,0,0:0:0:0:
320,192,44716,1,0,0:0:0:0:
64,192,44823,1,0,0:0:0:0:
320,192,44930,1,0,0:0:0:0:
192,192,45037,1,0,0:0:0:0:
448,192,45037,1,0,0:0:0:0:
64,192,45145,1,0,0:0:0:0:
448,192,45252,1,0,0:0:0:0:
64,192,45359,1,0,0:0:0:0:
320,192,45359,1,0,0:0:0:0:
192,192,45466,1,0,0:0:0:0:
320,192,45573,1,0,0:0:0:0:
448,192,45573,1,0,0:0:0:0:
192,192,45680,1,0,0:0:0:0:
64,192,45787,1,0,0:0:0:0:
448,192,45895,1,0,0:0:0:0:
320,192,46002,1,0,0:0:0:0:
64,192,46002,1,0,0:0:0:0:
448,192,46109,1,0,0:0:0:0:
192,192,46216,1,0,0:0:0:0:
64,192,46323,1,0,0:0:0:0:
192,192,46430,1,0,0:0:0:0:
448,192,46430,1,0,0:0:0:0:
448,192,46537,1,0,0:0:0:0:
192,192,46645,1,0,0:0:0:0:
192,192,46752,1,0,0:0:0:0:
320,192,46859,1,0,0:0:0:0:
320,192,46966,1,0,0:0:0:0:
64,192,47073,1,0,0:0:0:0:
64,192,47180,1,0,0:0:0:0:
448,192,47287,1,0,0:0:0:0:
448,192,47395,1,0,0:0:0:0:
192,192,47502,1,0,0:0:0:0:
192,192,47609,1,0,0:0:0:0:
320,192,47716,1,0,0:0:0:0:
320,192,47823,1,0,0:0:0:0:
64,192,47930,1,0,0:0:0:0:
64,192,48037,1,0,0:0:0:0:
448,192,48145,1,0,0:0:0:0:
320,192,48252,1,0,0:0:0:0:
64,192,48359,1,0,0:0:0:0:
192,192,48466,1,0,0:0:0:0:
448,192,48573,1,0,0:0:0:0:
64,192,48680,1,0,0:0:0:0:
192,192,48787,1,0,0:0:0:0:
320,192,48895,1,0,0:0:0:0:
448,192,49002,1,0,0:0:0:0:
64,192,49002,1,0,0:0:0:0:
64,192,49109,1,0,0:0:0:0:
320,192,49216,1,0,0:0:0:0:
320,192,49323,1,0,0:0:0:0:
192,192,49430,1,0,0:0:0:0:
192,192,49537,1,0,0:0:0:0:
448,192,49645,1,0,0:0:0:0:
448,192,49752,1,0,0:0:0:0:
64,192,49859,1,2,0:0:0:0:
320,192,49859,1,4,0:0:0:0:
192,192,49859,1,0,0:0:0:0:
448,192,49966,1,0,0:0:0:0:
64,192,50073,1,0,0:0:0:0:
192,192,50180,1,0,0:0:0:0:
320,192,50287,1,0,0:0:0:0:
448,192,50395,1,0,0:0:0:0:
64,192,50502,1,0,0:0:0:0:
320,192,50609,1,0,0:0:0:0:
192,192,50716,1,0,0:0:0:0:
448,192,50716,1,0,0:0:0:0:
64,192,50823,1,0,0:0:0:0:
448,192,50930,1,0,0:0:0:0:
320,192,51037,1,0,0:0:0:0:
64,192,51037,1,0,0:0:0:0:
192,192,51145,1,0,0:0:0:0:
64,192,51252,1,0,0:0:0:0:
448,192,51359,1,0,0:0:0:0:
192,192,51359,1,0,0:0:0:0:
320,192,51466,1,0,0:0:0:0:
192,192,51573,1,0,0:0:0:0:
64,192,51573,1,0,0:0:0:0:
448,192,51680,1,0,0:0:0:0:
64,192,51787,1,0,0:0:0:0:
192,192,51895,1,0,0:0:0:0:
320,192,52002,1,0,0:0:0:0:
448,192,52109,1,0,0:0:0:0:
64,192,52216,1,0,0:0:0:0:
192,192,52216,1,0,0:0:0:0:
448,192,52323,1,0,0:0:0:0:
192,192,52430,1,0,0:0:0:0:
320,192,52537,1,0,0:0:0:0:
64,192,52645,1,0,0:0:0:0:
448,192,52752,1,0,0:0:0:0:
320,192,52859,1,0,0:0:0:0:
64,192,52859,1,0,0:0:0:0:
192,192,52966,1,0,0:0:0:0:
64,192,53073,1,0,0:0:0:0:
448,192,53180,1,0,0:0:0:0:
192,192,53287,1,0,0:0:0:0:
320,192,53287,1,0,0:0:0:0:
192,192,53395,1,0,0:0:0:0:
64,192,53502,1,0,0:0:0:0:
64,192,53609,1,0,0:0:0:0:
320,192,53716,1,0,0:0:0:0:
320,192,53823,1,0,0:0:0:0:
448,192,53930,1,0,0:0:0:0:
448,192,54037,1,0,0:0:0:0:
64,192,54145,1,0,0:0:0:0:
192,192,54252,1,0,0:0:0:0:
448,192,54359,1,0,0:0:0:0:
320,192,54466,1,0,0:0:0:0:
64,192,54573,1,0,0:0:0:0:
192,192,54680,1,0,0:0:0:0:
320,192,54787,1,0,0:0:0:0:
448,192,54895,1,0,0:0:0:0:
64,192,55002,1,2,0:0:0:0:
192,192,55002,1,4,0:0:0:0:
192,192,55109,1,0,0:0:0:0:
448,192,55216,1,0,0:0:0:0:
448,192,55323,1,0,0:0:0:0:
64,192,55430,1,0,0:0:0:0:
64,192,55537,1,0,0:0:0:0:
320,192,55645,1,0,0:0:0:0:
320,192,55752,1,0,0:0:0:0:
448,192,55859,1,4,0:0:0:0:
64,192,55859,1,2,0:0:0:0:
64,192,55966,1,0,0:0:0:0:
320,192,56073,1,0,0:0:0:0:
320,192,56180,1,0,0:0:0:0:
192,192,56287,1,0,0:0:0:0:
448,192,56287,1,0,0:0:0:0:
192,192,56395,1,0,0:0:0:0:
448,192,56395,1,0,0:0:0:0:
320,192,56502,1,0,0:0:0:0:
64,192,56502,1,0,0:0:0:0:
64,192,56609,1,0,0:0:0:0:
320,192,56609,1,0,0:0:0:0:
192,192,56716,1,2,0:0:0:0:
64,192,56716,1,0,0:0:0:0:
448,192,56716,128,0,57573:0:0:0:0:
320,192,57359,1,2,0:0:0:0:
64,192,57573,1,0,0:0:0:30:snare.wav
192,192,57573,1,0,0:0:0:0:
448,192,57787,1,0,0:0:0:0:
320,192,58002,1,0,0:0:0:0:
64,192,58216,1,0,0:0:0:0:
448,192,58216,1,0,0:0:0:0:
320,192,58430,1,2,0:0:0:0:
192,192,58430,1,0,0:0:0:0:
192,192,58752,1,2,0:0:0:0:
320,192,58752,1,0,0:0:0:0:
192,192,59073,1,2,0:0:0:0:
320,192,59073,1,0,0:0:0:0:
64,192,59287,1,0,0:0:0:30:snare.wav
320,192,59287,1,0,0:0:0:0:
448,192,59287,1,0,0:0:0:0:
192,192,59502,1,0,0:0:0:0:
448,192,59716,1,0,0:0:0:0:
320,192,59930,1,2,0:0:0:0:
192,192,59930,1,0,0:0:0:0:
64,192,60145,1,2,0:0:0:0:
448,192,60145,128,0,61002:0:0:0:0:
320,192,60573,1,0,0:0:0:30:snare.wav
192,192,60573,1,0,0:0:0:0:
64,192,60787,1,2,0:0:0:0:
448,192,61216,1,0,0:0:0:30:snare.wav
320,192,61216,1,2,0:0:0:0:
64,192,61216,1,0,0:0:0:0:
192,192,61430,1,0,0:0:0:0:
320,192,61645,1,2,0:0:0:0:
448,192,61645,1,0,0:0:0:0:
192,192,61859,1,2,0:0:0:0:
64,192,61859,1,0,0:0:0:30:snare.wav
448,192,61859,1,0,0:0:0:0:
192,192,62073,1,0,0:0:0:30:snare.wav
320,192,62073,1,0,0:0:0:0:
448,192,62180,1,2,0:0:0:0:
64,192,62180,1,0,0:0:0:0:
320,192,62180,1,0,0:0:0:0:
192,192,62395,1,0,0:0:0:30:snare.wav
64,192,62395,1,0,0:0:0:0:
320,192,62502,1,2,0:0:0:0:
64,192,62502,1,0,0:0:0:0:
448,192,62502,1,0,0:0:0:0:
320,192,62716,1,0,0:0:0:30:snare.wav
64,192,62716,1,0,0:0:0:0:
448,192,62716,128,0,63145:0:0:0:0:
192,192,63145,1,0,0:0:0:0:
64,192,63145,1,0,0:0:0:0:
64,192,63252,1,0,0:0:0:0:
192,192,63252,1,0,0:0:0:0:
320,192,63359,1,0,0:0:0:0:
448,192,63359,1,0,0:0:0:0:
320,192,63466,1,0,0:0:0:0:
448,192,63466,1,0,0:0:0:0:
448,192,63573,1,2,0:0:0:0:
192,192,63573,1,0,0:0:0:0:
64,192,63573,128,0,64430:0:0:0:0:
192,192,64216,1,2,0:0:0:0:
320,192,64430,1,0,0:0:0:30:snare.wav
448,192,64430,1,0,0:0:0:0:
192,192,64645,128,0,65287:0:0:0:0:
448,192,65073,1,2,0:0:0:0:
320,192,65073,1,0,0:0:0:0:
320,192,65287,1,2,0:0:0:0:
448,192,65287,1,0,0:0:0:0:
192,192,65609,1,2,0:0:0:0:
320,192,65609,1,0,0:0:0:0:
192,192,65930,1,2,0:0:0:0:
320,192,65930,1,0,0:0:0:0:
64,192,66145,1,2,0:0:0:0:
320,192,66145,1,0,0:0:0:30:snare.wav
448,192,66145,128,0,66359:0:0:0:0:
64,192,66359,128,0,66573:0:0:0:0:
320,192,66573,128,0,66787:0:0:0:0:
192,192,66787,128,2,67002:0:0:0:0:
448,192,66787,1,0,0:0:0:0:
320,192,67002,1,2,0:0:0:0:
448,192,67002,128,0,67430:0:0:0:0:
64,192,67430,1,0,0:0:0:30:snare.wav
192,192,67430,1,0,0:0:0:0:
320,192,67645,1,2,0:0:0:0:
192,192,67645,1,0,0:0:0:0:
448,192,68073,1,0,0:0:0:30:snare.wav
320,192,68073,1,0,0:0:0:0:
64,192,68073,1,0,0:0:0:0:
448,192,68502,1,2,0:0:0:0:
192,192,68502,1,0,0:0:0:0:
320,192,68716,1,2,0:0:0:0:
64,192,68716,1,0,0:0:0:30:snare.wav
448,192,68716,1,0,0:0:0:0:
192,192,68930,1,0,0:0:0:30:snare.wav
448,192,69037,1,2,0:0:0:0:
64,192,69037,1,0,0:0:0:0:
320,192,69252,1,0,0:0:0:30:snare.wav
192,192,69359,1,2,0:0:0:0:
64,192,69359,1,0,0:0:0:0:
320,192,69573,1,0,0:0:0:30:snare.wav
448,192,69573,1,0,0:0:0:0:
64,192,69573,1,0,0:0:0:0:
192,192,69680,1,0,0:0:0:0:
320,192,69787,1,0,0:0:0:0:
448,192,69895,1,0,0:0:0:0:
192,192,70002,1,0,0:0:0:0:
64,192,70002,1,0,0:0:0:0:
64,192,70216,1,0,0:0:0:0:
192,192,70216,1,0,0:0:0:0:
64,192,70430,1,2,0:0:0:0:
192,192,70430,1,0,0:0:0:0:
320,192,70430,1,0,0:0:0:0:
448,192,70537,1,0,0:0:0:0:
64,192,70645,1,0,0:0:0:0:
192,192,70752,1,0,0:0:0:0:
320,192,70859,1,2,0:0:0:0:
448,192,70859,1,0,0:0:0:0:
64,192,71073,128,0,71502:0:0:0:0:
448,192,71287,1,2,0:0:0:0:
320,192,71287,1,0,0:0:0:0:
448,192,71502,128,0,71716:0:0:0:0:
192,192,71716,128,2,71930:0:0:0:0:
64,192,71716,1,8,0:0:0:0:
320,192,71930,128,0,72145:0:0:0:0:
64,192,72145,128,2,72359:0:0:0:0:
448,192,72145,1,0,0:0:0:0:
448,192,72466,128,0,72573:0:0:0:0:
320,192,72573,1,2,0:0:0:0:
64,192,72787,128,0,73002:0:0:0:0:
448,192,73002,1,2,0:0:0:0:
192,192,73216,128,0,73430:0:0:0:0:
448,192,73430,1,2,0:0:0:0:
320,192,73645,128,0,73859:0:0:0:0:
64,192,73859,1,2,0:0:0:0:
448,192,73859,1,0,0:0:0:0:
192,192,73966,1,0,0:0:0:0:
320,192,74073,1,0,0:0:0:0:
448,192,74180,1,0,0:0:0:0:
64,192,74287,1,2,0:0:0:0:
320,192,74287,1,0,0:0:0:0:
192,192,74395,1,0,0:0:0:0:
320,192,74502,1,0,0:0:0:0:
448,192,74609,1,0,0:0:0:0:
64,192,74716,1,2,0:0:0:0:
320,192,74716,1,0,0:0:0:0:
448,192,74823,1,0,0:0:0:0:
320,192,74930,1,0,0:0:0:0:
192,192,75037,1,0,0:0:0:0:
64,192,75145,1,2,0:0:0:0:
448,192,75145,1,8,0:0:0:0:
192,192,75252,1,0,0:0:0:0:
320,192,75359,1,0,0:0:0:0:
64,192,75466,1,0,0:0:0:0:
448,192,75573,1,2,0:0:0:0:
192,192,75573,1,0,0:0:0:0:
320,192,75680,1,0,0:0:0:0:
192,192,75787,1,0,0:0:0:0:
64,192,75895,1,0,0:0:0:0:
448,192,76002,1,2,0:0:0:0:
320,192,76002,1,0,0:0:0:0:
192,192,76109,1,0,0:0:0:0:
320,192,76216,1,0,0:0:0:0:
64,192,76323,1,0,0:0:0:0:
448,192,76430,1,2,0:0:0:0:
192,192,76430,1,0,0:0:0:0:
320,192,76537,1,0,0:0:0:0:
192,192,76645,1,0,0:0:0:0:
64,192,76752,1,0,0:0:0:0:
448,192,76859,1,2,0:0:0:0:
320,192,76859,1,0,0:0:0:0:
192,192,76966,1,0,0:0:0:0:
320,192,77073,1,0,0:0:0:0:
64,192,77180,1,0,0:0:0:0:
448,192,77287,1,2,0:0:0:0:
320,192,77287,1,4,0:0:0:0:
192,192,77287,1,0,0:0:0:0:
64,192,77395,1,0,0:0:0:0:
192,192,77502,1,0,0:0:0:0:
320,192,77609,1,0,0:0:0:0:
64,192,77716,1,2,0:0:0:0:
448,192,77716,1,8,0:0:0:0:
192,192,77930,128,0,78359:0:0:0:0:
448,192,78145,1,2,0:0:0:0:
320,192,78359,128,0,78573:0:0:0:0:
64,192,78573,128,2,78787:0:0:0:0:
448,192,78573,1,8,0:0:0:0:
320,192,78787,128,0,79002:0:0:0:0:
448,192,79002,1,2,0:0:0:0:
64,192,79002,128,4,79216:0:0:0:0:
192,192,79002,1,0,0:0:0:0:
192,192,79323,128,0,79430:0:0:0:0:
448,192,79430,1,2,0:0:0:0:
64,192,79645,128,0,79752:0:0:0:0:
320,192,79859,1,2,0:0:0:0:
448,192,79859,1,0,0:0:0:0:
192,192,79966,1,0,0:0:0:0:
64,192,80073,1,0,0:0:0:0:
320,192,80073,128,0,80180:0:0:0:0:
448,192,80180,1,0,0:0:0:0:
192,192,80287,1,2,0:0:0:0:
64,192,80287,1,0,0:0:0:0:
320,192,80395,1,0,0:0:0:0:
64,192,80502,128,0,80716:0:0:0:0:
192,192,80502,1,0,0:0:0:0:
448,192,80609,1,0,0:0:0:0:
320,192,80716,1,2,0:0:0:0:
448,192,80823,1,0,0:0:0:0:
192,192,80930,1,0,0:0:0:0:
64,192,81037,1,0,0:0:0:0:
448,192,81145,1,2,0:0:0:0:
320,192,81145,1,0,0:0:0:0:
192,192,81252,1,0,0:0:0:0:
320,192,81359,1,0,0:0:0:0:
64,192,81466,1,0,0:0:0:0:
448,192,81573,1,2,0:0:0:0:
320,192,81573,1,0,0:0:0:0:
192,192,81680,1,0,0:0:0:0:
320,192,81787,1,0,0:0:0:0:
64,192,81895,1,0,0:0:0:0:
448,192,82002,1,2,0:0:0:0:
320,192,82002,1,0,0:0:0:0:
192,192,82109,1,0,0:0:0:0:
64,192,82216,1,0,0:0:0:0:
448,192,82323,1,0,0:0:0:0:
320,192,82430,1,2,0:0:0:0:
64,192,82430,1,4,0:0:0:0:
192,192,82537,1,0,0:0:0:0:
320,192,82645,1,0,0:0:0:0:
448,192,82752,1,0,0:0:0:0:
64,192,82859,1,2,0:0:0:0:
320,192,82859,1,4,0:0:0:0:
192,192,82966,1,0,0:0:0:0:
320,192,83073,1,0,0:0:0:0:
448,192,83180,1,0,0:0:0:0:
64,192,83287,1,2,0:0:0:0:
192,192,83287,1,4,0:0:0:0:
320,192,83341,1,0,0:0:0:0:
448,192,83395,1,0,0:0:0:0:
64,192,83448,1,0,0:0:0:0:
192,192,83502,1,0,0:0:0:0:
448,192,83555,1,0,0:0:0:0:
320,192,83609,1,0,0:0:0:0:
192,192,83662,1,0,0:0:0:0:
64,192,83716,1,2,0:0:0:0:
448,192,83716,1,4,0:0:0:0:
320,192,83770,1,0,0:0:0:0:
64,192,83823,1,0,0:0:0:0:
192,192,83877,1,0,0:0:0:0:
448,192,83930,1,0,0:0:0:0:
320,192,83984,1,0,0:0:0:0:
64,192,84037,1,0,0:0:0:0:
192,192,84091,1,0,0:0:0:0:
320,192,84145,1,2,0:0:0:0:
448,192,84145,1,0,0:0:0:0:
64,192,84145,1,0,0:0:0:0:
64,192,84787,1,0,0:0:0:0:
192,192,84895,1,0,0:0:0:0:
320,192,85109,1,0,0:0:0:0:
448,192,85216,1,0,0:0:0:0:
320,192,85430,1,0,0:0:0:0:
448,192,85430,1,0,0:0:0:0:
192,192,85537,1,0,0:0:0:0:
64,192,85645,1,0,0:0:0:0:
448,192,85752,1,0,0:0:0:0:
320,192,85859,1,0,0:0:0:0:
64,192,85859,1,0,0:0:0:0:
192,192,86073,1,0,0:0:0:0:
64,192,86287,1,0,0:0:0:0:
320,192,86502,1,0,0:0:0:0:
448,192,86502,1,0,0:0:0:0:
192,192,86609,1,0,0:0:0:0:
448,192,86823,1,0,0:0:0:0:
320,192,86930,1,0,0:0:0:0:
64,192,87145,1,0,0:0:0:0:
448,192,87145,1,0,0:0:0:0:
320,192,87252,1,0,0:0:0:0:
64,192,87359,1,0,0:0:0:0:
192,192,87466,1,0,0:0:0:0:
448,192,87573,1,0,0:0:0:0:
320,192,87573,1,0,0:0:0:0:
192,192,87787,1,0,0:0:0:0:
448,192,88002,1,0,0:0:0:0:
320,192,88216,1,0,0:0:0:0:
448,192,88216,1,0,0:0:0:0:
192,192,88323,1,0,0:0:0:0:
448,192,88537,1,0,0:0:0:0:
64,192,88645,1,0,0:0:0:0:
320,192,88859,1,0,0:0:0:0:
448,192,88859,1,0,0:0:0:0:
192,192,88966,1,0,0:0:0:0:
64,192,89073,1,0,0:0:0:0:
448,192,89180,1,0,0:0:0:0:
320,192,89287,1,0,0:0:0:0:
64,192,89287,1,0,0:0:0:0:
192,192,89502,1,0,0:0:0:0:
448,192,89502,1,0,0:0:0:0:
320,192,89716,1,0,0:0:0:0:
448,192,89716,1,0,0:0:0:0:
192,192,89930,1,0,0:0:0:0:
448,192,89930,1,0,0:0:0:0:
64,192,90037,1,0,0:0:0:0:
448,192,90252,1,0,0:0:0:0:
320,192,90359,1,0,0:0:0:0:
64,192,90573,1,0,0:0:0:0:
448,192,90573,1,0,0:0:0:0:
192,192,90680,1,0,0:0:0:0:
448,192,90787,1,0,0:0:0:0:
320,192,90895,1,0,0:0:0:0:
192,192,91002,1,2,0:0:0:0:
64,192,91002,1,0,0:0:0:0:
448,192,91109,1,0,0:0:0:0:
320,192,91216,1,0,0:0:0:0:
192,192,91323,1,0,0:0:0:0:
64,192,91430,1,2,0:0:0:0:
448,192,91430,1,8,0:0:0:0:
192,192,91537,1,0,0:0:0:0:
320,192,91645,1,0,0:0:0:0:
448,192,91752,1,0,0:0:0:0:
64,192,91859,1,2,0:0:0:0:
192,192,91859,1,0,0:0:0:0:
448,192,91966,1,0,0:0:0:0:
64,192,92073,1,0,0:0:0:0:
192,192,92180,1,0,0:0:0:0:
320,192,92287,1,2,0:0:0:0:
448,192,92287,1,8,0:0:0:0:
192,192,92395,1,0,0:0:0:0:
64,192,92502,1,0,0:0:0:0:
448,192,92609,1,0,0:0:0:0:
320,192,92716,1,2,0:0:0:0:
192,192,92716,1,0,0:0:0:0:
64,192,92823,1,0,0:0:0:0:
448,192,92930,1,0,0:0:0:0:
320,192,93037,1,0,0:0:0:0:
64,192,93145,1,2,0:0:0:0:
192,192,93145,1,8,0:0:0:0:
448,192,93252,1,0,0:0:0:0:
64,192,93359,1,0,0:0:0:0:
192,192,93466,1,0,0:0:0:0:
320,192,93573,1,2,0:0:0:0:
448,192,93573,1,0,0:0:0:0:
192,192,93680,1,0,0:0:0:0:
64,192,93787,1,0,0:0:0:0:
448,192,93895,1,0,0:0:0:0:
320,192,94002,1,2,0:0:0:0:
64,192,94002,1,8,0:0:0:0:
448,192,94109,1,0,0:0:0:0:
64,192,94216,1,0,0:0:0:0:
192,192,94323,1,0,0:0:0:0:
320,192,94430,1,2,0:0:0:0:
448,192,94430,1,0,0:0:0:0:
192,192,94537,1,0,0:0:0:0:
64,192,94645,1,0,0:0:0:0:
448,192,94752,1,0,0:0:0:0:
320,192,94859,1,2,0:0:0:0:
192,192,94859,1,8,0:0:0:0:
448,192,94966,1,0,0:0:0:0:
320,192,95073,1,0,0:0:0:0:
192,192,95180,1,0,0:0:0:0:
64,192,95287,1,2,0:0:0:0:
448,192,95287,1,0,0:0:0:0:
320,192,95395,1,0,0:0:0:0:
192,192,95502,1,0,0:0:0:0:
64,192,95609,1,0,0:0:0:0:
192,192,95716,1,2,0:0:0:0:
448,192,95716,1,8,0:0:0:0:
320,192,95823,1,0,0:0:0:0:
192,192,95930,1,0,0:0:0:0:
64,192,96037,1,0,0:0:0:0:
448,192,96145,1,2,0:0:0:0:
320,192,96145,1,4,0:0:0:0:
192,192,96252,1,0,0:0:0:0:
320,192,96359,1,2,0:0:0:0:
64,192,96466,1,0,0:0:0:0:
448,192,96573,1,2,0:0:0:0:
320,192,96573,1,0,0:0:0:0:
192,192,96680,1,0,0:0:0:0:
320,192,96787,1,2,0:0:0:0:
64,192,96895,1,0,0:0:0:0:
448,192,97002,1,2,0:0:0:0:
320,192,97055,1,0,0:0:0:0:
192,192,97109,1,0,0:0:0:0:
64,192,97162,1,0,0:0:0:0:
448,192,97216,1,2,0:0:0:0:
320,192,97270,1,0,0:0:0:0:
192,192,97323,1,0,0:0:0:0:
64,192,97377,1,0,0:0:0:0:
448,192,97430,1,2,0:0:0:0:
320,192,97484,1,0,0:0:0:0:
64,192,97537,1,2,0:0:0:0:
192,192,97591,1,0,0:0:0:0:
448,192,97645,1,2,0:0:0:0:
320,192,97698,1,0,0:0:0:0:
64,192,97752,1,0,0:0:0:0:
192,192,97805,1,0,0:0:0:0:
320,192,97859,1,2,0:0:0:0:
448,192,97859,128,4,98073:0:0:0:0:
192,192,97966,1,0,0:0:0:0:
320,192,98073,128,0,98287:0:0:0:0:
64,192,98180,1,0,0:0:0:0:
192,192,98287,1,2,0:0:0:0:
64,192,98395,1,0,0:0:0:0:
448,192,98502,128,0,98716:0:0:0:0:
320,192,98609,1,0,0:0:0:0:
64,192,98716,1,2,0:0:0:0:
320,192,98823,1,0,0:0:0:0:
192,192,98930,128,0,99145:0:0:0:0:
320,192,99037,1,0,0:0:0:0:
448,192,99145,128,2,99359:0:0:0:0:
64,192,99145,1,0,0:0:0:0:
320,192,99252,1,0,0:0:0:0:
64,192,99359,128,0,99573:0:0:0:0:
320,192,99466,1,0,0:0:0:0:
448,192,99573,128,2,99787:0:0:0:0:
192,192,99573,1,0,0:0:0:0:
64,192,99680,1,0,0:0:0:0:
192,192,99787,128,0,100002:0:0:0:0:
320,192,99895,1,0,0:0:0:0:
448,192,100002,1,2,0:0:0:0:
320,192,100109,1,0,0:0:0:0:
64,192,100216,128,0,100430:0:0:0:0:
192,192,100323,1,0,0:0:0:0:
448,192,100430,1,2,0:0:0:0:
192,192,100537,1,0,0:0:0:0:
320,192,100645,128,0,100859:0:0:0:0:
448,192,100752,1,0,0:0:0:0:
64,192,100859,128,2,101073:0:0:0:0:
192,192,100859,1,0,0:0:0:0:
448,192,100966,1,0,0:0:0:0:
320,192,101073,128,0,101287:0:0:0:0:
448,192,101180,1,0,0:0:0:0:
192,192,101287,128,2,101502:0:0:0:0:
64,192,101287,1,0,0:0:0:0:
448,192,101395,1,0,0:0:0:0:
320,192,101502,128,0,101716:0:0:0:0:
64,192,101609,1,0,0:0:0:0:
448,192,101716,1,2,0:0:0:0:
192,192,101823,1,0,0:0:0:0:
64,192,101930,128,0,102145:0:0:0:0:
448,192,102037,1,0,0:0:0:0:
192,192,102145,1,2,0:0:0:0:
320,192,102252,1,0,0:0:0:0:
448,192,102359,128,0,102573:0:0:0:0:
192,192,102466,1,0,0:0:0:0:
64,192,102573,1,2,0:0:0:0:
192,192,102680,1,0,0:0:0:0:
320,192,102787,128,0,103002:0:0:0:0:
448,192,102895,1,0,0:0:0:0:
64,192,103002,128,2,103216:0:0:0:0:
192,192,103002,1,0,0:0:0:0:
320,192,103109,1,0,0:0:0:0:
448,192,103216,128,0,103430:0:0:0:0:
320,192,103323,1,0,0:0:0:0:
192,192,103430,128,2,103645:0:0:0:0:
64,192,103430,1,8,0:0:0:0:
320,192,103537,1,0,0:0:0:0:
64,192,103645,128,0,103859:0:0:0:0:
448,192,103752,1,0,0:0:0:0:
320,192,103859,1,2,0:0:0:0:
192,192,103966,1,0,0:0:0:0:
448,192,104073,128,0,104287:0:0:0:0:
320,192,104180,1,0,0:0:0:0:
64,192,104287,1,2,0:0:0:0:
192,192,104287,1,8,0:0:0:0:
320,192,104395,1,0,0:0:0:0:
448,192,104502,1,0,0:0:0:0:
64,192,104609,1,0,0:0:0:0:
192,192,104716,1,2,0:0:0:0:
320,192,104716,1,4,0:0:0:0:
448,192,104716,1,0,0:0:0:0:
64,192,104930,128,0,105145:0:0:0:0:
192,192,105037,1,0,0:0:0:0:
448,192,105145,1,2,0:0:0:0:
192,192,105252,1,0,0:0:0:0:
320,192,105359,128,0,105573:0:0:0:0:
448,192,105466,1,0,0:0:0:0:
64,192,105573,1,2,0:0:0:0:
192,192,105680,1,0,0:0:0:0:
448,192,105787,128,0,106002:0:0:0:0:
320,192,105895,1,0,0:0:0:0:
64,192,106002,128,2,106430:0:0:0:0:
192,192,106002,1,0,0:0:0:0:
320,192,106109,1,0,0:0:0:0:
448,192,106216,1,0,0:0:0:0:
192,192,106323,1,0,0:0:0:0:
448,192,106430,1,2,0:0:0:0:
320,192,106430,1,4,0:0:0:0:
192,192,106537,1,0,0:0:0:0:
320,192,106645,1,0,0:0:0:0:
192,192,106752,1,0,0:0:0:0:
448,192,106859,1,2,0:0:0:0:
64,192,106859,1,8,0:0:0:0:
320,192,106966,1,0,0:0:0:0:
192,192,107073,1,0,0:0:0:0:
64,192,107180,1,0,0:0:0:0:
448,192,107287,1,2,0:0:0:0:
320,192,107287,1,0,0:0:0:0:
192,192,107395,1,0,0:0:0:0:
64,192,107502,1,0,0:0:0:0:
448,192,107609,1,0,0:0:0:0:
192,192,107716,1,2,0:0:0:0:
64,192,107716,1,8,0:0:0:0:
448,192,107823,1,0,0:0:0:0:
64,192,107930,1,0,0:0:0:0:
192,192,108037,1,0,0:0:0:0:
320,192,108145,1,2,0:0:0:0:
448,192,108145,1,4,0:0:0:0:
64,192,108145,1,0,0:0:0:0:
192,192,108252,1,0,0:0:0:0:
448,192,108359,1,0,0:0:0:0:
320,192,108466,1,0,0:0:0:0:
192,192,108573,1,2,0:0:0:0:
64,192,108573,1,8,0:0:0:0:
448,192,108680,1,0,0:0:0:0:
64,192,108787,1,0,0:0:0:0:
192,192,108895,1,0,0:0:0:0:
320,192,109002,1,2,0:0:0:0:
448,192,109002,1,0,0:0:0:0:
192,192,109109,1,0,0:0:0:0:
64,192,109216,1,0,0:0:0:0:
448,192,109323,1,0,0:0:0:0:
320,192,109430,1,2,0:0:0:0:
64,192,109430,1,8,0:0:0:0:
448,192,109537,1,0,0:0:0:0:
320,192,109645,1,0,0:0:0:0:
192,192,109752,1,0,0:0:0:0:
64,192,109859,1,2,0:0:0:0:
448,192,109859,1,4,0:0:0:0:
320,192,109859,1,0,0:0:0:0:
192,192,109966,1,0,0:0:0:0:
320,192,110073,1,0,0:0:0:0:
448,192,110180,1,0,0:0:0:0:
320,192,110287,1,2,0:0:0:0:
64,192,110287,1,4,0:0:0:0:
192,192,110287,1,0,0:0:0:0:
448,192,110395,1,0,0:0:0:0:
64,192,110502,1,0,0:0:0:0:
192,192,110609,1,0,0:0:0:0:
64,192,110716,1,2,0:0:0:0:
448,192,110716,1,4,0:0:0:0:
320,192,110770,1,0,0:0:0:0:
192,192,110823,1,0,0:0:0:0:
64,192,110877,1,0,0:0:0:0:
448,192,110930,1,0,0:0:0:0:
320,192,110984,1,0,0:0:0:0:
64,192,111037,1,0,0:0:0:0:
192,192,111091,1,0,0:0:0:0:
320,192,111145,1,2,0:0:0:0:
448,192,111145,1,4,0:0:0:0:
64,192,111198,1,0,0:0:0:0:
192,192,111252,1,0,0:0:0:0:
448,192,111305,1,0,0:0:0:0:
320,192,111359,1,0,0:0:0:0:
64,192,111412,1,0,0:0:0:0:
192,192,111466,1,0,0:0:0:0:
320,192,111520,1,0,0:0:0:0:
448,192,111573,1,4,0:0:0:0:
64,192,111573,128,0,112002:0:0:0:0:
192,192,111680,1,0,0:0:0:0:
448,192,111787,1,0,0:0:0:0:
320,192,111895,1,0,0:0:0:0:
448,192,112002,128,2,112216:0:0:0:0:
320,192,112109,1,0,0:0:0:0:
64,192,112216,128,0,112430:0:0:0:0:
320,192,112323,1,0,0:0:0:0:
192,192,112430,1,2,0:0:0:0:
320,192,112537,1,0,0:0:0:0:
448,192,112645,128,0,112859:0:0:0:0:
192,192,112752,1,0,0:0:0:0:
320,192,112859,128,2,113073:0:0:0:0:
192,192,112966,1,0,0:0:0:0:
64,192,113073,128,0,113287:0:0:0:0:
448,192,113180,1,0,0:0:0:0:
192,192,113287,128,2,113716:0:0:0:0:
320,192,113395,1,0,0:0:0:0:
448,192,113502,1,0,0:0:0:0:
64,192,113609,1,0,0:0:0:0:
320,192,113716,128,2,113930:0:0:0:0:
448,192,113823,1,0,0:0:0:0:
64,192,113930,128,0,114145:0:0:0:0:
192,192,114037,1,0,0:0:0:0:
320,192,114145,1,2,0:0:0:0:
192,192,114252,1,0,0:0:0:0:
448,192,114359,128,0,114573:0:0:0:0:
320,192,114466,1,0,0:0:0:0:
64,192,114573,128,2,114787:0:0:0:0:
320,192,114680,1,0,0:0:0:0:
192,192,114787,128,0,115002:0:0:0:0:
320,192,114895,1,0,0:0:0:0:
448,192,115002,1,2,0:0:0:0:
320,192,115109,1,0,0:0:0:0:
64,192,115216,1,0,0:0:0:0:
192,192,115323,1,0,0:0:0:0:
320,192,115430,1,2,0:0:0:0:
448,192,115430,1,8,0:0:0:0:
64,192,115537,1,0,0:0:0:0:
192,192,115645,1,0,0:0:0:0:
320,192,115752,1,0,0:0:0:0:
448,192,115859,1,2,0:0:0:0:
64,192,115859,1,0,0:0:0:0:
320,192,115966,1,0,0:0:0:0:
192,192,116073,1,0,0:0:0:0:
64,192,116180,1,0,0:0:0:0:
320,192,116287,1,2,0:0:0:0:
448,192,116287,1,8,0:0:0:0:
192,192,116395,1,0,0:0:0:0:
64,192,116502,1,0,0:0:0:0:
448,192,116609,1,0,0:0:0:0:
320,192,116716,1,2,0:0:0:0:
192,192,116716,1,0,0:0:0:0:
64,192,116823,1,0,0:0:0:0:
320,192,116930,1,0,0:0:0:0:
448,192,117037,1,0,0:0:0:0:
192,192,117145,1,2,0:0:0:0:
320,192,117145,1,8,0:0:0:0:
64,192,117252,1,0,0:0:0:0:
448,192,117359,1,0,0:0:0:0:
320,192,117466,1,0,0:0:0:0:
64,192,117573,128,2,118430:0:0:0:0:
192,192,117573,128,0,118430:0:0:0:0:
448,192,118002,1,2,0:0:0:0:
448,192,118430,1,2,0:0:0:0:
320,192,118430,1,4,0:0:0:0:
320,192,118537,1,0,0:0:0:0:
64,192,118645,1,0,0:0:0:0:
192,192,118752,1,0,0:0:0:0:
448,192,118859,1,2,0:0:0:0:
64,192,118859,1,8,0:0:0:0:
320,192,118966,1,0,0:0:0:0:
192,192,119073,1,0,0:0:0:0:
64,192,119180,1,0,0:0:0:0:
320,192,119287,1,2,0:0:0:0:
448,192,119287,1,0,0:0:0:0:
64,192,119395,1,0,0:0:0:0:
320,192,119502,1,0,0:0:0:0:
448,192,119609,1,0,0:0:0:0:
64,192,119716,128,2,120145:0:0:0:0:
192,192,119716,128,8,120145:0:0:0:0:
448,192,120145,1,2,0:0:0:0:
320,192,120145,1,4,0:0:0:0:
320,192,120252,1,0,0:0:0:0:
64,192,120359,1,0,0:0:0:0:
192,192,120466,1,0,0:0:0:0:
320,192,120573,1,2,0:0:0:0:
448,192,120573,1,8,0:0:0:0:
192,192,120680,1,0,0:0:0:0:
64,192,120787,1,0,0:0:0:0:
448,192,120895,1,0,0:0:0:0:
320,192,121002,1,2,0:0:0:0:
64,192,121002,1,0,0:0:0:0:
192,192,121109,1,0,0:0:0:0:
448,192,121216,1,0,0:0:0:0:
320,192,121323,1,0,0:0:0:0:
192,192,121430,1,2,0:0:0:0:
64,192,121430,1,8,0:0:0:0:
448,192,121537,1,0,0:0:0:0:
64,192,121645,1,0,0:0:0:0:
192,192,121752,1,0,0:0:0:0:
448,192,121859,1,2,0:0:0:0:
320,192,121859,1,4,0:0:0:0:
64,192,121859,1,0,0:0:0:0:
192,192,121966,1,0,0:0:0:0:
320,192,122073,1,0,0:0:0:0:
448,192,122180,1,0,0:0:0:0:
320,192,122287,1,2,0:0:0:0:
64,192,122287,1,8,0:0:0:0:
192,192,122395,1,0,0:0:0:0:
448,192,122502,1,0,0:0:0:0:
320,192,122609,1,0,0:0:0:0:
192,192,122716,1,2,0:0:0:0:
64,192,122716,1,0,0:0:0:0:
448,192,122823,1,0,0:0:0:0:
64,192,122930,1,0,0:0:0:0:
192,192,123037,1,0,0:0:0:0:
320,192,123145,1,2,0:0:0:0:
448,192,123145,1,8,0:0:0:0:
64,192,123252,1,0,0:0:0:0:
192,192,123359,1,0,0:0:0:0:
448,192,123466,1,0,0:0:0:0:
320,192,123573,1,2,0:0:0:0:
64,192,123573,1,4,0:0:0:0:
192,192,123573,1,0,0:0:0:0:
448,192,123680,1,0,0:0:0:0:
64,192,123787,1,0,0:0:0:0:
192,192,123895,1,0,0:0:0:0:
320,192,124002,1,2,0:0:0:0:
448,192,124002,1,4,0:0:0:0:
64,192,124002,1,0,0:0:0:0:
192,192,124109,1,0,0:0:0:0:
448,192,124216,1,0,0:0:0:0:
320,192,124323,1,0,0:0:0:0:
192,192,124430,1,2,0:0:0:0:
64,192,124430,1,4,0:0:0:0:
448,192,124430,1,0,0:0:0:0:
320,192,124537,1,0,0:0:0:0:
64,192,124645,1,0,0:0:0:0:
192,192,124752,1,0,0:0:0:0:
320,192,124859,1,2,0:0:0:0:
448,192,124859,1,4,0:0:0:0:
64,192,124859,1,0,0:0:0:0:
192,192,124966,1,0,0:0:0:0:
448,192,125073,1,0,0:0:0:0:
320,192,125180,1,0,0:0:0:0:
448,192,125287,1,2,0:0:0:0:
64,192,125287,128,4,126573:0:0:0:0:
192,192,125287,128,0,125930:0:0:0:0:
320,192,126037,1,0,0:0:0:0:
448,192,126145,1,0,0:0:0:0:
192,192,126252,1,0,0:0:0:0:
320,192,126359,1,0,0:0:0:0:
448,192,126466,1,0,0:0:0:0:
320,192,126573,1,0,0:0:0:0:
192,192,126680,1,0,0:0:0:0:
64,192,126787,1,0,0:0:0:0:
448,192,126895,1,0,0:0:0:0:
64,192,127002,1,0,0:0:0:0:
448,192,127109,1,0,0:0:0:0:
320,192,127216,1,0,0:0:0:0:
64,192,127323,1,0,0:0:0:0:
192,192,127430,1,0,0:0:0:0:
448,192,127537,1,0,0:0:0:0:
320,192,127645,1,0,0:0:0:0:
192,192,127752,1,0,0:0:0:0:
64,192,127859,1,0,0:0:0:0:
192,192,127912,1,0,0:0:0:0:
320,192,127966,1,0,0:0:0:0:
448,192,128020,1,0,0:0:0:0:
64,192,128073,1,0,0:0:0:0:
192,192,128127,1,0,0:0:0:0:
320,192,128180,1,0,0:0:0:0:
448,192,128234,1,0,0:0:0:0:
64,192,128287,1,0,0:0:0:0:
192,192,128341,1,0,0:0:0:0:
448,192,128395,1,0,0:0:0:0:
320,192,128448,1,0,0:0:0:0:
64,192,128502,1,0,0:0:0:0:
192,192,128555,1,0,0:0:0:0:
448,192,128609,1,0,0:0:0:0:
320,192,128662,1,0,0:0:0:0:
192,192,128716,1,4,0:0:0:0:
448,192,128716,1,0,0:0:0:0:
64,192,128716,1,0,0:0:0:0:
