osu file format v14

[General]
AudioFilename: audio.mp3
AudioLeadIn: 0
PreviewTime: 56716
Countdown: 0
SampleSet: None
StackLeniency: 0.7
Mode: 3
LetterboxInBreaks: 0
SpecialStyle: 0
WidescreenStoryboard: 1

[Editor]
Bookmarks: 114680
DistanceSpacing: 1.4
BeatDivisor: 4
GridSize: 32
TimelineZoom: 2.6

[Metadata]
Title:Identity Part 5
TitleUnicode:Identity Part 5
Artist:SHK
ArtistUnicode:SHK
Creator:-[Apple]-
Version:Hitsound
Source:O2Jam U
Tags:dubstep identity part 4 ip4 ip5 soundholick trance biemote critical_star
BeatmapID:1404281
BeatmapSetID:504222

[Difficulty]
HPDrainRate:8.5
CircleSize:4
OverallDifficulty:8.5
ApproachRate:5
SliderMultiplier:1.4
SliderTickRate:1

[Events]
//Background and Video events
0,0,"57922492_p0.jpg",0,0
//Break Periods
2,43202,48659
2,50059,53802
2,84345,89802
//Storyboard Layer 0 (Background)
//Storyboard Layer 1 (Fail)
//Storyboard Layer 2 (Pass)
//Storyboard Layer 3 (Foreground)
//Storyboard Sound Samples
Sample,62073,0,"snare.wav",30

[TimingPoints]
145,428.571428571429,4,2,1,100,1,0
56287,-55.5555555555556,4,2,1,100,0,0
56341,-1000,4,2,1,100,0,0
56395,-55.5555555555556,4,2,1,100,0,0
56448,-1000,4,2,1,100,0,0
56502,-55.5555555555556,4,2,1,100,0,0
56555,-1000,4,2,1,100,0,0
56609,-55.5555555555556,4,2,1,100,0,0
56662,-1000,4,2,1,100,0,0
56716,-100,4,2,1,100,0,1
58430,-66.6666666666667,4,2,1,100,0,1
58645,-200,4,2,1,100,0,1
58752,-66.6666666666667,4,2,1,100,0,1
58966,-200,4,2,1,100,0,1
59073,-66.6666666666667,4,2,1,100,0,1
59180,-200,4,2,1,100,0,1
59287,-100,4,2,1,100,0,1
61216,-66.6666666666667,4,2,1,100,0,1
61537,-200,4,2,1,100,0,1
61645,-66.6666666666667,4,2,1,100,0,1
61752,-200,4,2,1,100,0,1
61859,-100,4,2,1,100,0,1
63145,-55.5555555555556,4,2,1,100,0,1
63198,-1000,4,2,1,100,0,1
63252,-55.5555555555556,4,2,1,100,0,1
63305,-1000,4,2,1,100,0,1
63359,-55.5555555555556,4,2,1,100,0,1
63412,-1000,4,2,1,100,0,1
63466,-55.5555555555556,4,2,1,100,0,1
63520,-1000,4,2,1,100,0,1
63573,-100,4,2,1,100,0,1
65287,-66.6666666666667,4,2,1,100,0,1
65502,-200,4,2,1,100,0,1
65609,-66.6666666666667,4,2,1,100,0,1
65823,-200,4,2,1,100,0,1
65930,-66.6666666666667,4,2,1,100,0,1
66037,-200,4,2,1,100,0,1
66145,-100,4,2,1,100,0,1
68073,-66.6666666666667,4,2,1,100,0,1
68395,-200,4,2,1,100,0,1
68502,-66.6666666666667,4,2,1,100,0,1
68609,-200,4,2,1,100,0,1
68716,-100,4,2,1,100,0,1
70430,-100,4,2,1,100,0,0
97859,-100,4,2,1,100,0,1
125287,-100,4,2,1,100,0,0

[HitObjects]
64,192,8716,5,2,0:0:0:0:
64,192,9145,1,2,0:0:0:0:
64,192,9573,1,2,0:0:0:0:
64,192,10002,1,2,0:0:0:0:
64,192,10430,1,2,0:0:0:0:
64,192,10859,1,2,0:0:0:0:
64,192,11287,1,2,0:0:0:0:
64,192,11716,1,2,0:0:0:0:
64,192,12145,1,2,0:0:0:0:
64,192,12573,1,2,0:0:0:0:
64,192,13002,1,2,0:0:0:0:
64,192,13430,1,2,0:0:0:0:
64,192,13859,1,2,0:0:0:0:
64,192,14073,1,2,0:0:0:0:
64,192,14287,1,2,0:0:0:0:
64,192,14502,1,2,0:0:0:0:
64,192,14716,1,2,0:0:0:0:
64,192,14930,1,2,0:0:0:0:
64,192,15145,1,2,0:0:0:0:
64,192,15359,1,2,0:0:0:0:
64,192,15573,1,2,0:0:0:0:
320,192,15573,1,4,0:0:0:0:
64,192,16002,1,2,0:0:0:0:
448,192,16002,1,8,0:0:0:0:
64,192,16430,1,2,0:0:0:0:
64,192,16859,1,2,0:0:0:0:
448,192,16859,1,8,0:0:0:0:
64,192,17287,1,2,0:0:0:0:
64,192,17716,1,2,0:0:0:0:
448,192,17716,1,8,0:0:0:0:
64,192,18145,1,2,0:0:0:0:
64,192,18573,1,2,0:0:0:0:
448,192,18573,1,8,0:0:0:0:
64,192,19002,1,2,0:0:0:0:
64,192,19430,1,2,0:0:0:0:
448,192,19430,1,8,0:0:0:0:
64,192,19859,1,2,0:0:0:0:
64,192,20287,1,2,0:0:0:0:
448,192,20287,1,8,0:0:0:0:
64,192,20716,1,2,0:0:0:0:
64,192,21145,1,2,0:0:0:0:
448,192,21145,1,8,0:0:0:0:
64,192,21573,1,2,0:0:0:0:
64,192,22002,1,2,0:0:0:0:
448,192,22002,1,8,0:0:0:0:
64,192,22430,1,2,0:0:0:0:
64,192,22859,1,2,0:0:0:0:
448,192,22859,1,8,0:0:0:0:
64,192,23287,1,2,0:0:0:0:
64,192,23716,1,2,0:0:0:0:
448,192,23716,1,8,0:0:0:0:
64,192,24145,1,2,0:0:0:0:
64,192,24573,1,2,0:0:0:0:
448,192,24573,1,8,0:0:0:0:
64,192,25002,1,2,0:0:0:0:
64,192,25430,1,2,0:0:0:0:
448,192,25430,1,8,0:0:0:0:
64,192,25859,1,2,0:0:0:0:
64,192,26287,1,2,0:0:0:0:
448,192,26287,1,8,0:0:0:0:
64,192,26716,1,2,0:0:0:0:
64,192,27145,1,2,0:0:0:0:
448,192,27145,1,8,0:0:0:0:
64,192,27573,1,2,0:0:0:0:
64,192,28002,1,2,0:0:0:0:
448,192,28002,1,8,0:0:0:0:
64,192,28430,1,2,0:0:0:0:
64,192,28859,1,2,0:0:0:0:
448,192,28859,1,8,0:0:0:0:
64,192,29287,1,2,0:0:0:0:
320,192,29287,1,4,0:0:0:0:
64,192,29716,1,2,0:0:0:0:
448,192,29716,1,8,0:0:0:0:
64,192,30145,1,2,0:0:0:0:
64,192,30573,1,2,0:0:0:0:
448,192,30573,1,8,0:0:0:0:
64,192,31002,1,2,0:0:0:0:
64,192,31430,1,2,0:0:0:0:
448,192,31430,1,8,0:0:0:0:
64,192,31859,1,2,0:0:0:0:
64,192,32287,1,2,0:0:0:0:
448,192,32287,1,8,0:0:0:0:
64,192,32716,1,2,0:0:0:0:
64,192,33145,1,2,0:0:0:0:
448,192,33145,1,8,0:0:0:0:
64,192,33573,1,2,0:0:0:0:
64,192,34002,1,2,0:0:0:0:
448,192,34002,1,8,0:0:0:0:
64,192,34430,1,2,0:0:0:0:
64,192,34859,1,2,0:0:0:0:
448,192,34859,1,8,0:0:0:0:
64,192,35287,1,2,0:0:0:0:
64,192,35716,1,2,0:0:0:0:
448,192,35716,1,8,0:0:0:0:
64,192,36145,1,2,0:0:0:0:
64,192,36573,1,2,0:0:0:0:
448,192,36573,1,8,0:0:0:0:
64,192,37002,1,2,0:0:0:0:
64,192,37430,1,2,0:0:0:0:
448,192,37430,1,8,0:0:0:0:
64,192,37859,1,2,0:0:0:0:
64,192,38287,1,2,0:0:0:0:
448,192,38287,1,8,0:0:0:0:
64,192,38716,1,2,0:0:0:0:
64,192,39145,1,2,0:0:0:0:
448,192,39145,1,8,0:0:0:0:
64,192,39573,1,2,0:0:0:0:
64,192,40002,1,2,0:0:0:0:
448,192,40002,1,8,0:0:0:0:
64,192,40430,1,2,0:0:0:0:
64,192,40859,1,2,0:0:0:0:
448,192,40859,1,8,0:0:0:0:
64,192,41287,1,2,0:0:0:0:
320,192,41287,1,4,0:0:0:0:
64,192,41716,1,2,0:0:0:0:
320,192,41716,1,4,0:0:0:0:
64,192,42145,1,2,0:0:0:0:
320,192,42145,1,4,0:0:0:0:
64,192,42573,1,2,0:0:0:0:
320,192,42573,1,4,0:0:0:0:
64,192,43002,1,2,0:0:0:0:
448,192,43002,1,8,0:0:0:0:
320,192,43002,1,4,0:0:0:0:
64,192,49859,5,2,0:0:0:0:
320,192,49859,1,4,0:0:0:0:
64,192,55002,5,2,0:0:0:0:
320,192,55002,1,4,0:0:0:0:
320,192,55859,1,4,0:0:0:0:
64,192,55859,1,2,0:0:0:0:
64,192,56716,1,2,0:0:0:0:
64,192,57359,1,2,0:0:0:0:
448,192,57573,1,0,0:0:0:30:snare.wav
64,192,58430,1,2,0:0:0:0:
64,192,58752,1,2,0:0:0:0:
64,192,59073,1,2,0:0:0:0:
448,192,59287,1,0,0:0:0:30:snare.wav
64,192,59930,1,2,0:0:0:0:
64,192,60145,1,2,0:0:0:0:
448,192,60573,1,0,0:0:0:30:snare.wav
64,192,60787,1,2,0:0:0:0:
448,192,61216,1,0,0:0:0:30:snare.wav
64,192,61216,1,2,0:0:0:0:
64,192,61645,1,2,0:0:0:0:
64,192,61859,1,2,0:0:0:0:
448,192,61859,1,0,0:0:0:30:snare.wav
448,192,62073,1,0,0:0:0:30:snare.wav
64,192,62180,1,2,0:0:0:0:
448,192,62395,1,0,0:0:0:30:snare.wav
64,192,62502,1,2,0:0:0:0:
448,192,62716,1,0,0:0:0:30:snare.wav
64,192,63573,1,2,0:0:0:0:
64,192,64216,1,2,0:0:0:0:
448,192,64430,1,0,0:0:0:30:snare.wav
64,192,65073,1,2,0:0:0:0:
64,192,65287,1,2,0:0:0:0:
64,192,65609,1,2,0:0:0:0:
64,192,65930,1,2,0:0:0:0:
64,192,66145,1,2,0:0:0:0:
448,192,66145,1,0,0:0:0:30:snare.wav
64,192,66787,1,2,0:0:0:0:
64,192,67002,1,2,0:0:0:0:
448,192,67430,1,0,0:0:0:30:snare.wav
64,192,67645,1,2,0:0:0:0:
448,192,68073,1,0,0:0:0:30:snare.wav
64,192,68502,1,2,0:0:0:0:
64,192,68716,1,2,0:0:0:0:
448,192,68716,1,0,0:0:0:30:snare.wav
448,192,68930,1,0,0:0:0:30:snare.wav
64,192,69037,1,2,0:0:0:0:
448,192,69252,1,0,0:0:0:30:snare.wav
64,192,69359,1,2,0:0:0:0:
448,192,69573,1,0,0:0:0:30:snare.wav
64,192,70430,1,2,0:0:0:0:
64,192,70859,1,2,0:0:0:0:
64,192,71287,1,2,0:0:0:0:
64,192,71716,1,2,0:0:0:0:
448,192,71716,1,8,0:0:0:0:
64,192,72145,1,2,0:0:0:0:
64,192,72573,1,2,0:0:0:0:
448,192,72573,1,8,0:0:0:0:
64,192,73002,1,2,0:0:0:0:
64,192,73430,1,2,0:0:0:0:
448,192,73430,1,8,0:0:0:0:
64,192,73859,1,2,0:0:0:0:
64,192,74287,1,2,0:0:0:0:
64,192,74716,1,2,0:0:0:0:
64,192,75145,1,2,0:0:0:0:
448,192,75145,1,8,0:0:0:0:
64,192,75573,1,2,0:0:0:0:
64,192,76002,1,2,0:0:0:0:
64,192,76430,1,2,0:0:0:0:
64,192,76859,1,2,0:0:0:0:
64,192,77287,1,2,0:0:0:0:
320,192,77287,1,4,0:0:0:0:
64,192,77716,1,2,0:0:0:0:
448,192,77716,1,8,0:0:0:0:
64,192,78145,1,2,0:0:0:0:
64,192,78573,1,2,0:0:0:0:
448,192,78573,1,8,0:0:0:0:
64,192,79002,1,2,0:0:0:0:
320,192,79002,1,4,0:0:0:0:
64,192,79430,1,2,0:0:0:0:
448,192,79430,1,8,0:0:0:0:
64,192,79859,1,2,0:0:0:0:
64,192,80287,1,2,0:0:0:0:
64,192,80716,1,2,0:0:0:0:
320,192,80716,1,4,0:0:0:0:
64,192,81145,1,2,0:0:0:0:
64,192,81573,1,2,0:0:0:0:
64,192,82002,1,2,0:0:0:0:
64,192,82430,1,2,0:0:0:0:
320,192,82430,1,4,0:0:0:0:
64,192,82859,1,2,0:0:0:0:
320,192,82859,1,4,0:0:0:0:
64,192,83287,1,2,0:0:0:0:
320,192,83287,1,4,0:0:0:0:
64,192,83716,1,2,0:0:0:0:
320,192,83716,1,4,0:0:0:0:
64,192,84145,1,2,0:0:0:0:
64,192,91002,5,2,0:0:0:0:
64,192,91430,1,2,0:0:0:0:
448,192,91430,1,8,0:0:0:0:
64,192,91859,1,2,0:0:0:0:
64,192,92287,1,2,0:0:0:0:
448,192,92287,1,8,0:0:0:0:
64,192,92716,1,2,0:0:0:0:
64,192,93145,1,2,0:0:0:0:
448,192,93145,1,8,0:0:0:0:
64,192,93573,1,2,0:0:0:0:
64,192,94002,1,2,0:0:0:0:
448,192,94002,1,8,0:0:0:0:
64,192,94430,1,2,0:0:0:0:
64,192,94859,1,2,0:0:0:0:
448,192,94859,1,8,0:0:0:0:
64,192,95287,1,2,0:0:0:0:
64,192,95716,1,2,0:0:0:0:
448,192,95716,1,8,0:0:0:0:
64,192,96145,1,2,0:0:0:0:
320,192,96145,1,4,0:0:0:0:
64,192,96359,1,2,0:0:0:0:
64,192,96573,1,2,0:0:0:0:
64,192,96787,1,2,0:0:0:0:
64,192,97002,1,2,0:0:0:0:
64,192,97216,1,2,0:0:0:0:
64,192,97430,1,2,0:0:0:0:
64,192,97537,1,2,0:0:0:0:
64,192,97645,1,2,0:0:0:0:
64,192,97859,1,2,0:0:0:0:
320,192,97859,1,4,0:0:0:0:
64,192,98287,1,2,0:0:0:0:
64,192,98716,1,2,0:0:0:0:
64,192,99145,1,2,0:0:0:0:
448,192,99145,1,8,0:0:0:0:
64,192,99573,1,2,0:0:0:0:
64,192,100002,1,2,0:0:0:0:
64,192,100430,1,2,0:0:0:0:
64,192,100859,1,2,0:0:0:0:
448,192,100859,1,8,0:0:0:0:
64,192,101287,1,2,0:0:0:0:
64,192,101716,1,2,0:0:0:0:
448,192,101716,1,8,0:0:0:0:
64,192,102145,1,2,0:0:0:0:
64,192,102573,1,2,0:0:0:0:
448,192,102573,1,8,0:0:0:0:
64,192,103002,1,2,0:0:0:0:
64,192,103430,1,2,0:0:0:0:
448,192,103430,1,8,0:0:0:0:
64,192,103859,1,2,0:0:0:0:
64,192,104287,1,2,0:0:0:0:
448,192,104287,1,8,0:0:0:0:
64,192,104716,1,2,0:0:0:0:
320,192,104716,1,4,0:0:0:0:
64,192,105145,1,2,0:0:0:0:
64,192,105573,1,2,0:0:0:0:
64,192,106002,1,2,0:0:0:0:
448,192,106002,1,8,0:0:0:0:
64,192,106430,1,2,0:0:0:0:
320,192,106430,1,4,0:0:0:0:
64,192,106859,1,2,0:0:0:0:
448,192,106859,1,8,0:0:0:0:
64,192,107287,1,2,0:0:0:0:
64,192,107716,1,2,0:0:0:0:
448,192,107716,1,8,0:0:0:0:
64,192,108145,1,2,0:0:0:0:
320,192,108145,1,4,0:0:0:0:
64,192,108573,1,2,0:0:0:0:
448,192,108573,1,8,0:0:0:0:
64,192,109002,1,2,0:0:0:0:
64,192,109430,1,2,0:0:0:0:
448,192,109430,1,8,0:0:0:0:
64,192,109859,1,2,0:0:0:0:
320,192,109859,1,4,0:0:0:0:
64,192,110287,1,2,0:0:0:0:
320,192,110287,1,4,0:0:0:0:
64,192,110716,1,2,0:0:0:0:
320,192,110716,1,4,0:0:0:0:
64,192,111145,1,2,0:0:0:0:
320,192,111145,1,4,0:0:0:0:
64,192,111573,1,2,0:0:0:0:
320,192,111573,1,4,0:0:0:0:
64,192,112002,1,2,0:0:0:0:
448,192,112002,1,8,0:0:0:0:
64,192,112430,1,2,0:0:0:0:
64,192,112859,1,2,0:0:0:0:
448,192,112859,1,8,0:0:0:0:
64,192,113287,1,2,0:0:0:0:
64,192,113716,1,2,0:0:0:0:
448,192,113716,1,8,0:0:0:0:
64,192,114145,1,2,0:0:0:0:
64,192,114573,1,2,0:0:0:0:
448,192,114573,1,8,0:0:0:0:
64,192,115002,1,2,0:0:0:0:
64,192,115430,1,2,0:0:0:0:
448,192,115430,1,8,0:0:0:0:
64,192,115859,1,2,0:0:0:0:
64,192,116287,1,2,0:0:0:0:
448,192,116287,1,8,0:0:0:0:
64,192,116716,1,2,0:0:0:0:
64,192,117145,1,2,0:0:0:0:
448,192,117145,1,8,0:0:0:0:
64,192,117573,1,2,0:0:0:0:
64,192,118002,1,2,0:0:0:0:
448,192,118002,1,8,0:0:0:0:
64,192,118430,1,2,0:0:0:0:
320,192,118430,1,4,0:0:0:0:
64,192,118859,1,2,0:0:0:0:
448,192,118859,1,8,0:0:0:0:
64,192,119287,1,2,0:0:0:0:
64,192,119716,1,2,0:0:0:0:
448,192,119716,1,8,0:0:0:0:
64,192,120145,1,2,0:0:0:0:
320,192,120145,1,4,0:0:0:0:
64,192,120573,1,2,0:0:0:0:
448,192,120573,1,8,0:0:0:0:
64,192,121002,1,2,0:0:0:0:
64,192,121430,1,2,0:0:0:0:
448,192,121430,1,8,0:0:0:0:
64,192,121859,1,2,0:0:0:0:
320,192,121859,1,4,0:0:0:0:
64,192,122287,1,2,0:0:0:0:
448,192,122287,1,8,0:0:0:0:
64,192,122716,1,2,0:0:0:0:
64,192,123145,1,2,0:0:0:0:
448,192,123145,1,8,0:0:0:0:
64,192,123573,1,2,0:0:0:0:
320,192,123573,1,4,0:0:0:0:
64,192,124002,1,2,0:0:0:0:
320,192,124002,1,4,0:0:0:0:
64,192,124430,1,2,0:0:0:0:
320,192,124430,1,4,0:0:0:0:
64,192,124859,1,2,0:0:0:0:
320,192,124859,1,4,0:0:0:0:
64,192,125287,1,2,0:0:0:0:
320,192,125287,1,4,0:0:0:0:
320,192,128716,1,4,0:0:0:0:
