osu file format v14

[General]
AudioFilename: 8d74f8fa8999.mp3
AudioLeadIn: 0
PreviewTime: 50999
Countdown: 0
SampleSet: Soft
StackLeniency: 0.7
Mode: 3
LetterboxInBreaks: 0
EpilepsyWarning: 1
SpecialStyle: 0
WidescreenStoryboard: 1

[Editor]
DistanceSpacing: 1
BeatDivisor: 4
GridSize: 4
TimelineZoom: 2.4

[Metadata]
Title:Halloween Party
TitleUnicode:Halloween Party
Artist:SHK
ArtistUnicode:SHK
Creator:DarkSider2442
Version:Hard
Source:Cytus
Tags:kivicat arviejhay soundholick classical dance ghost chapter 10 the new world
BeatmapID:565427
BeatmapSetID:242159

[Difficulty]
HPDrainRate:7
CircleSize:7
OverallDifficulty:8
ApproachRate:5
SliderMultiplier:1.4
SliderTickRate:1

[Events]
//Background and Video events
0,0,"SHK.jpg",0,0
//Break Periods
//Storyboard Layer 0 (Background)
//Storyboard Layer 1 (Fail)
//Storyboard Layer 2 (Pass)
//Storyboard Layer 3 (Foreground)
//Storyboard Sound Samples

[TimingPoints]
3096,387.096774193548,4,2,0,30,1,0
15483,-100,4,1,0,25,0,0
17031,-100,4,2,0,30,0,0
18579,-100,4,1,0,25,0,0
20128,-100,4,2,0,30,0,0
44128,-100,4,1,0,25,0,0
51095,-100,4,2,0,30,0,1
56515,-100,4,1,0,25,0,1
57289,-100,4,2,0,30,0,1
63483,-100,4,2,0,30,0,0
75870,-100,4,1,0,25,0,0
78966,-100,4,2,0,30,0,1
84386,-100,4,1,0,25,0,1
85160,-100,4,2,0,30,0,1
90579,-100,4,1,0,25,0,1
91354,-100,4,2,0,30,0,1
96773,-100,4,1,0,25,0,1
97547,-100,4,2,0,30,0,1
102966,-100,4,1,0,25,0,1
103741,-100,4,2,0,30,0,0

[HitObjects]
109,192,4644,5,0,0:0:0:0:
402,192,4644,1,0,0:0:0:0:
256,192,4644,1,0,0:0:0:0:
36,192,4837,1,0,0:0:0:0:
475,192,5031,1,0,0:0:0:0:
182,192,5031,1,0,0:0:0:0:
109,192,5225,1,0,0:0:0:0:
402,192,5418,1,0,0:0:0:0:
256,192,5418,1,0,0:0:0:0:
475,192,5612,1,0,0:0:0:0:
182,192,5805,1,0,0:0:0:0:
329,192,5805,1,0,0:0:0:0:
109,192,5999,1,0,0:0:0:0:
36,192,6192,1,0,0:0:0:0:
329,192,6192,1,0,0:0:0:0:
256,192,6386,1,0,0:0:0:0:
475,192,6579,1,0,0:0:0:0:
182,192,6579,1,0,0:0:0:0:
36,192,6773,1,0,0:0:0:0:
475,192,6966,1,0,0:0:0:0:
182,192,6966,1,0,0:0:0:0:
256,192,7160,1,0,0:0:0:0:
329,192,7354,1,0,0:0:0:0:
36,192,7354,1,0,0:0:0:0:
109,192,7547,1,0,0:0:0:0:
182,192,7741,1,0,0:0:0:0:
475,192,7741,1,0,0:0:0:0:
402,192,7934,1,0,0:0:0:0:
329,192,8128,1,0,0:0:0:0:
109,192,8128,1,0,0:0:0:0:
475,192,8321,1,0,0:0:0:0:
36,192,8515,1,0,0:0:0:0:
402,192,8515,1,0,0:0:0:0:
329,192,8708,1,0,0:0:0:0:
475,192,8902,1,0,0:0:0:0:
182,192,8902,1,0,0:0:0:0:
256,192,9095,1,0,0:0:0:0:
36,192,9289,1,0,0:0:0:0:
329,192,9289,1,0,0:0:0:0:
109,192,9483,1,0,0:0:0:0:
182,192,9676,1,0,0:0:0:0:
329,192,9676,1,0,0:0:0:0:
402,192,9870,1,0,0:0:0:0:
475,192,10063,1,0,0:0:0:0:
256,192,10160,1,0,0:0:0:0:
36,192,10257,1,0,0:0:0:0:
329,192,10354,1,0,0:0:0:0:
109,192,10450,1,0,0:0:0:0:
402,192,10547,1,0,0:0:0:0:
182,192,10644,1,0,0:0:0:0:
475,192,10741,1,0,0:0:0:0:
256,192,10837,1,2,0:0:0:0:
109,192,10837,1,4,0:0:0:0:
36,192,10837,1,0,0:0:0:0:
182,192,11225,1,0,0:0:0:0:
475,192,11225,1,0,0:0:0:0:
109,192,11612,1,0,0:0:0:0:
402,192,11612,1,0,0:0:0:0:
36,192,11805,1,0,0:0:0:0:
109,192,11902,1,0,0:0:0:0:
182,192,11999,1,0,0:0:0:0:
475,192,11999,1,0,0:0:0:0:
402,192,12095,1,0,0:0:0:0:
329,192,12192,1,0,0:0:0:0:
256,192,12289,1,0,0:0:0:0:
182,192,12386,1,0,0:0:0:0:
36,192,12386,1,0,0:0:0:0:
109,192,12773,1,0,0:0:0:0:
256,192,12773,1,0,0:0:0:0:
475,192,12966,1,0,0:0:0:0:
329,192,13063,1,0,0:0:0:0:
475,192,13160,1,0,0:0:0:0:
182,192,13160,1,0,0:0:0:0:
36,192,13354,1,0,0:0:0:0:
109,192,13450,1,0,0:0:0:0:
182,192,13547,1,0,0:0:0:0:
475,192,13547,1,0,0:0:0:0:
402,192,13644,1,0,0:0:0:0:
329,192,13741,1,0,0:0:0:0:
256,192,13837,1,0,0:0:0:0:
182,192,13934,1,0,0:0:0:0:
475,192,13934,1,0,0:0:0:0:
36,192,14128,1,0,0:0:0:0:
182,192,14225,1,0,0:0:0:0:
329,192,14321,1,0,0:0:0:0:
36,192,14321,1,0,0:0:0:0:
475,192,14515,1,0,0:0:0:0:
329,192,14612,1,0,0:0:0:0:
182,192,14708,1,0,0:0:0:0:
36,192,14708,1,0,0:0:0:0:
329,192,14902,1,0,0:0:0:0:
402,192,14999,1,0,0:0:0:0:
475,192,15095,1,0,0:0:0:0:
36,192,15095,1,0,0:0:0:0:
109,192,15192,1,0,0:0:0:0:
182,192,15289,1,0,0:0:0:0:
256,192,15386,1,0,0:0:0:0:
329,192,15483,1,8,0:0:0:0:
475,192,15483,1,0,0:0:0:0:
36,192,15676,1,0,0:0:0:0:
182,192,15676,1,8,0:0:0:0:
329,192,15870,1,8,0:0:0:0:
475,192,15870,1,0,0:0:0:0:
36,192,16063,1,0,0:0:0:0:
182,192,16063,1,8,0:0:0:0:
329,192,16257,1,8,0:0:0:0:
475,192,16257,1,0,0:0:0:0:
36,192,16450,1,0,0:0:0:0:
182,192,16450,1,8,0:0:0:0:
329,192,16644,1,8,0:0:0:0:
475,192,16644,1,0,0:0:0:0:
36,192,16837,1,0,0:0:0:0:
182,192,16837,1,8,0:0:0:0:
109,192,17031,1,4,0:0:0:0:
402,192,17031,128,0,17708:0:0:0:0:
109,192,17708,128,0,18579:0:0:0:0:
402,192,18579,1,0,0:0:0:0:
256,192,18676,1,0,0:0:0:0:
475,192,18773,1,0,0:0:0:0:
329,192,18870,1,0,0:0:0:0:
182,192,18966,1,0,0:0:0:0:
36,192,19063,1,0,0:0:0:0:
256,192,19160,1,0,0:0:0:0:
109,192,19257,1,0,0:0:0:0:
256,192,19354,128,0,20128:0:0:0:0:
329,192,19354,1,8,0:0:0:0:
182,192,19450,1,8,0:0:0:0:
402,192,19547,1,8,0:0:0:0:
109,192,19644,1,8,0:0:0:0:
475,192,19741,1,8,0:0:0:0:
36,192,19837,1,8,0:0:0:0:
402,192,19934,1,8,0:0:0:0:
109,192,20031,1,8,0:0:0:0:
475,192,20128,1,0,0:0:0:0:
36,192,20128,1,4,0:0:0:0:
329,192,20128,128,0,20321:0:0:0:0:
402,192,20321,128,0,20515:0:0:0:0:
109,192,20515,1,8,0:0:0:0:
475,192,20515,128,0,20708:0:0:0:0:
182,192,20515,1,0,0:0:0:0:
36,192,20708,128,0,20902:0:0:0:0:
402,192,20902,1,0,0:0:0:0:
109,192,20902,128,0,21095:0:0:0:0:
182,192,21095,128,0,21289:0:0:0:0:
329,192,21289,1,8,0:0:0:0:
475,192,21289,128,0,21483:0:0:0:0:
36,192,21289,1,0,0:0:0:0:
402,192,21483,128,0,21676:0:0:0:0:
329,192,21676,128,0,21870:0:0:0:0:
182,192,21676,1,0,0:0:0:0:
256,192,21870,128,0,22063:0:0:0:0:
36,192,22063,1,0,0:0:0:0:
475,192,22063,1,8,0:0:0:0:
256,192,22257,128,0,22450:0:0:0:0:
329,192,22450,1,0,0:0:0:0:
402,192,22644,1,0,0:0:0:0:
182,192,22644,1,0,0:0:0:0:
475,192,22837,1,8,0:0:0:0:
256,192,22837,1,0,0:0:0:0:
36,192,22837,128,0,23031:0:0:0:0:
36,192,23225,1,0,0:0:0:0:
256,192,23225,1,4,0:0:0:0:
475,192,23225,128,0,23418:0:0:0:0:
329,192,23418,128,0,23612:0:0:0:0:
36,192,23612,1,8,0:0:0:0:
182,192,23612,128,0,23805:0:0:0:0:
475,192,23612,1,0,0:0:0:0:
329,192,23805,128,0,23999:0:0:0:0:
182,192,23999,1,0,0:0:0:0:
475,192,23999,128,0,24192:0:0:0:0:
36,192,24192,128,0,24386:0:0:0:0:
402,192,24386,1,8,0:0:0:0:
182,192,24386,128,0,24579:0:0:0:0:
475,192,24386,1,0,0:0:0:0:
329,192,24579,128,0,24773:0:0:0:0:
182,192,24773,128,0,24966:0:0:0:0:
36,192,24773,1,0,0:0:0:0:
256,192,24966,128,0,25160:0:0:0:0:
109,192,25160,1,8,0:0:0:0:
402,192,25160,1,0,0:0:0:0:
256,192,25354,128,0,25547:0:0:0:0:
109,192,25547,1,0,0:0:0:0:
182,192,25741,1,0,0:0:0:0:
402,192,25741,1,0,0:0:0:0:
475,192,25934,1,8,0:0:0:0:
256,192,25934,1,0,0:0:0:0:
36,192,25934,128,0,26128:0:0:0:0:
109,192,26321,1,4,0:0:0:0:
402,192,26321,1,0,0:0:0:0:
182,192,26321,128,0,26515:0:0:0:0:
329,192,26515,128,0,26708:0:0:0:0:
36,192,26708,1,8,0:0:0:0:
475,192,26708,128,0,26902:0:0:0:0:
256,192,26708,1,0,0:0:0:0:
109,192,26902,128,0,27095:0:0:0:0:
402,192,27095,128,0,27289:0:0:0:0:
256,192,27095,1,0,0:0:0:0:
36,192,27289,128,0,27483:0:0:0:0:
475,192,27483,1,8,0:0:0:0:
329,192,27483,128,0,27676:0:0:0:0:
182,192,27483,1,0,0:0:0:0:
109,192,27676,128,0,27870:0:0:0:0:
402,192,27870,128,0,28063:0:0:0:0:
182,192,27870,1,0,0:0:0:0:
256,192,28063,128,0,28257:0:0:0:0:
109,192,28257,1,0,0:0:0:0:
402,192,28257,1,8,0:0:0:0:
256,192,28450,128,0,28644:0:0:0:0:
402,192,28644,1,0,0:0:0:0:
329,192,28837,1,0,0:0:0:0:
109,192,28837,1,0,0:0:0:0:
36,192,29031,1,8,0:0:0:0:
256,192,29031,1,0,0:0:0:0:
475,192,29031,128,0,29225:0:0:0:0:
36,192,29418,1,4,0:0:0:0:
182,192,29418,1,0,0:0:0:0:
475,192,29418,128,0,29612:0:0:0:0:
256,192,29612,128,0,29805:0:0:0:0:
329,192,29805,1,8,0:0:0:0:
402,192,29805,128,0,29999:0:0:0:0:
109,192,29805,1,0,0:0:0:0:
182,192,29999,128,0,30192:0:0:0:0:
329,192,30192,128,0,30386:0:0:0:0:
256,192,30192,1,0,0:0:0:0:
109,192,30386,128,0,30579:0:0:0:0:
256,192,30579,128,0,30773:0:0:0:0:
475,192,30579,1,8,0:0:0:0:
182,192,30579,1,0,0:0:0:0:
36,192,30773,128,0,30966:0:0:0:0:
182,192,30966,1,0,0:0:0:0:
329,192,30966,128,0,31160:0:0:0:0:
256,192,31160,128,0,31354:0:0:0:0:
402,192,31354,1,8,0:0:0:0:
109,192,31354,1,0,0:0:0:0:
256,192,31547,128,0,31741:0:0:0:0:
475,192,31741,1,0,0:0:0:0:
36,192,31837,1,0,0:0:0:0:
402,192,31934,1,0,0:0:0:0:
109,192,32031,1,0,0:0:0:0:
475,192,32128,1,0,0:0:0:0:
36,192,32225,1,0,0:0:0:0:
329,192,32321,1,0,0:0:0:0:
182,192,32418,1,0,0:0:0:0:
475,192,32515,128,0,33676:0:0:0:0:
329,192,32515,1,0,0:0:0:0:
36,192,32515,1,4,0:0:0:0:
256,192,32805,1,0,0:0:0:0:
182,192,32902,1,8,0:0:0:0:
36,192,32902,1,0,0:0:0:0:
256,192,33095,1,0,0:0:0:0:
182,192,33289,1,0,0:0:0:0:
329,192,33483,1,0,0:0:0:0:
402,192,33676,128,0,34063:0:0:0:0:
256,192,33676,1,8,0:0:0:0:
109,192,33676,1,0,0:0:0:0:
36,192,33870,1,0,0:0:0:0:
182,192,33870,1,0,0:0:0:0:
329,192,34063,128,0,34644:0:0:0:0:
256,192,34063,1,0,0:0:0:0:
109,192,34063,1,0,0:0:0:0:
109,192,34354,1,0,0:0:0:0:
402,192,34354,1,0,0:0:0:0:
182,192,34450,1,8,0:0:0:0:
475,192,34450,1,0,0:0:0:0:
402,192,34644,1,0,0:0:0:0:
36,192,34644,1,0,0:0:0:0:
109,192,34741,1,0,0:0:0:0:
182,192,34837,128,0,35612:0:0:0:0:
475,192,34837,1,0,0:0:0:0:
256,192,35031,1,0,0:0:0:0:
475,192,35225,1,8,0:0:0:0:
329,192,35225,1,0,0:0:0:0:
475,192,35418,1,8,0:0:0:0:
329,192,35418,1,0,0:0:0:0:
36,192,35612,128,0,36966:0:0:0:0:
329,192,35612,1,0,0:0:0:0:
475,192,35612,1,4,0:0:0:0:
256,192,35612,1,0,0:0:0:0:
475,192,35902,1,0,0:0:0:0:
256,192,35902,1,0,0:0:0:0:
402,192,35999,1,0,0:0:0:0:
182,192,35999,1,8,0:0:0:0:
256,192,36192,1,0,0:0:0:0:
475,192,36386,1,0,0:0:0:0:
402,192,36579,1,0,0:0:0:0:
182,192,36773,1,8,0:0:0:0:
329,192,36773,1,0,0:0:0:0:
256,192,36966,1,0,0:0:0:0:
109,192,36966,1,0,0:0:0:0:
475,192,36966,1,0,0:0:0:0:
402,192,37063,1,0,0:0:0:0:
329,192,37160,128,0,37934:0:0:0:0:
182,192,37160,1,0,0:0:0:0:
36,192,37160,1,0,0:0:0:0:
109,192,37354,1,0,0:0:0:0:
475,192,37354,1,0,0:0:0:0:
182,192,37547,1,8,0:0:0:0:
402,192,37547,1,0,0:0:0:0:
109,192,37741,1,0,0:0:0:0:
475,192,37741,1,0,0:0:0:0:
36,192,37934,128,0,39870:0:0:0:0:
402,192,37934,1,0,0:0:0:0:
182,192,37934,1,0,0:0:0:0:
475,192,38128,1,0,0:0:0:0:
256,192,38128,1,0,0:0:0:0:
329,192,38321,1,0,0:0:0:0:
182,192,38321,1,0,0:0:0:0:
402,192,38515,1,0,0:0:0:0:
256,192,38515,1,0,0:0:0:0:
329,192,38708,1,4,0:0:0:0:
109,192,38708,1,0,0:0:0:0:
475,192,38708,1,0,0:0:0:0:
182,192,38999,1,0,0:0:0:0:
402,192,38999,1,0,0:0:0:0:
475,192,39095,1,0,0:0:0:0:
256,192,39095,1,8,0:0:0:0:
402,192,39289,1,0,0:0:0:0:
182,192,39483,1,0,0:0:0:0:
402,192,39676,1,0,0:0:0:0:
109,192,39870,128,0,40257:0:0:0:0:
182,192,39870,1,8,0:0:0:0:
329,192,39870,1,0,0:0:0:0:
402,192,40063,1,0,0:0:0:0:
256,192,40063,1,0,0:0:0:0:
36,192,40257,128,0,40837:0:0:0:0:
329,192,40257,1,0,0:0:0:0:
475,192,40257,1,0,0:0:0:0:
109,192,40547,1,0,0:0:0:0:
256,192,40644,1,8,0:0:0:0:
402,192,40644,1,0,0:0:0:0:
475,192,40837,1,0,0:0:0:0:
182,192,40837,1,0,0:0:0:0:
256,192,40934,1,0,0:0:0:0:
329,192,41031,128,0,41708:0:0:0:0:
36,192,41031,1,0,0:0:0:0:
182,192,41225,1,0,0:0:0:0:
256,192,41418,1,8,0:0:0:0:
109,192,41418,1,0,0:0:0:0:
36,192,41612,1,0,0:0:0:0:
182,192,41612,1,0,0:0:0:0:
402,192,41708,1,0,0:0:0:0:
475,192,41805,128,0,43257:0:0:0:0:
109,192,41805,1,4,0:0:0:0:
36,192,41805,1,0,0:0:0:0:
256,192,41805,1,0,0:0:0:0:
36,192,42095,1,0,0:0:0:0:
256,192,42095,1,0,0:0:0:0:
329,192,42192,1,8,0:0:0:0:
109,192,42192,1,0,0:0:0:0:
402,192,42386,1,0,0:0:0:0:
36,192,42579,1,0,0:0:0:0:
402,192,42773,1,0,0:0:0:0:
256,192,42966,1,8,0:0:0:0:
109,192,42966,1,0,0:0:0:0:
36,192,43160,1,0,0:0:0:0:
182,192,43160,1,0,0:0:0:0:
329,192,43257,1,0,0:0:0:0:
256,192,43354,128,0,44031:0:0:0:0:
36,192,43354,1,0,0:0:0:0:
182,192,43354,1,0,0:0:0:0:
475,192,43547,1,0,0:0:0:0:
402,192,43741,1,8,0:0:0:0:
109,192,43934,1,0,0:0:0:0:
402,192,44031,1,0,0:0:0:0:
475,192,44128,128,0,44515:0:0:0:0:
36,192,44128,1,0,0:0:0:0:
109,192,44321,1,0,0:0:0:0:
182,192,44515,1,8,0:0:0:0:
36,192,44902,1,0,0:0:0:0:
475,192,44902,1,0,0:0:0:0:
329,192,45095,1,0,0:0:0:0:
182,192,45192,1,0,0:0:0:0:
329,192,45289,1,0,0:0:0:0:
36,192,45289,1,0,0:0:0:0:
182,192,45483,1,0,0:0:0:0:
329,192,45579,1,0,0:0:0:0:
182,192,45676,1,0,0:0:0:0:
475,192,45676,1,0,0:0:0:0:
329,192,45870,1,0,0:0:0:0:
182,192,45966,1,0,0:0:0:0:
329,192,46063,1,0,0:0:0:0:
36,192,46063,1,0,0:0:0:0:
182,192,46257,1,0,0:0:0:0:
329,192,46354,1,0,0:0:0:0:
182,192,46450,1,0,0:0:0:0:
475,192,46450,1,0,0:0:0:0:
109,192,46644,1,0,0:0:0:0:
402,192,46644,1,0,0:0:0:0:
36,192,46837,1,0,0:0:0:0:
329,192,46837,1,0,0:0:0:0:
182,192,47031,1,0,0:0:0:0:
475,192,47031,1,0,0:0:0:0:
36,192,47225,1,0,0:0:0:0:
402,192,47225,1,0,0:0:0:0:
256,192,47225,1,0,0:0:0:0:
36,192,47999,1,0,0:0:0:0:
475,192,47999,1,0,0:0:0:0:
182,192,48192,1,0,0:0:0:0:
402,192,48289,1,0,0:0:0:0:
182,192,48386,1,0,0:0:0:0:
36,192,48386,1,0,0:0:0:0:
329,192,48579,1,0,0:0:0:0:
109,192,48676,1,0,0:0:0:0:
329,192,48773,1,0,0:0:0:0:
475,192,48773,1,0,0:0:0:0:
182,192,48966,1,0,0:0:0:0:
402,192,49063,1,0,0:0:0:0:
182,192,49160,1,0,0:0:0:0:
36,192,49160,1,0,0:0:0:0:
329,192,49354,1,0,0:0:0:0:
109,192,49450,1,0,0:0:0:0:
329,192,49547,1,0,0:0:0:0:
475,192,49547,1,0,0:0:0:0:
402,192,49741,1,0,0:0:0:0:
256,192,49741,1,0,0:0:0:0:
329,192,49934,1,0,0:0:0:0:
182,192,49934,1,0,0:0:0:0:
36,192,50128,1,0,0:0:0:0:
475,192,50128,1,0,0:0:0:0:
109,192,50321,1,0,0:0:0:0:
402,192,50321,1,0,0:0:0:0:
256,192,50321,1,0,0:0:0:0:
329,192,50708,1,8,0:0:0:0:
182,192,50805,1,8,0:0:0:0:
329,192,50902,1,8,0:0:0:0:
182,192,50999,1,8,0:0:0:0:
36,192,51095,1,0,0:0:0:0:
475,192,51095,1,4,0:0:0:0:
256,192,51095,1,0,0:0:0:0:
402,192,51289,1,0,0:0:0:0:
329,192,51386,1,0,0:0:0:0:
256,192,51483,1,0,0:0:0:0:
36,192,51483,1,8,0:0:0:0:
109,192,51676,1,0,0:0:0:0:
182,192,51870,1,0,0:0:0:0:
475,192,51870,1,0,0:0:0:0:
402,192,52063,1,0,0:0:0:0:
329,192,52257,1,8,0:0:0:0:
36,192,52257,1,0,0:0:0:0:
109,192,52450,1,0,0:0:0:0:
36,192,52644,1,0,0:0:0:0:
475,192,52644,1,4,0:0:0:0:
256,192,52644,1,0,0:0:0:0:
402,192,52837,1,0,0:0:0:0:
256,192,52934,1,0,0:0:0:0:
402,192,53031,1,0,0:0:0:0:
109,192,53031,1,8,0:0:0:0:
256,192,53225,1,0,0:0:0:0:
475,192,53418,1,0,0:0:0:0:
36,192,53418,1,0,0:0:0:0:
256,192,53612,1,0,0:0:0:0:
109,192,53805,1,0,0:0:0:0:
402,192,53805,1,8,0:0:0:0:
256,192,53999,1,0,0:0:0:0:
36,192,54192,1,4,0:0:0:0:
475,192,54192,1,0,0:0:0:0:
256,192,54192,1,0,0:0:0:0:
329,192,54386,1,0,0:0:0:0:
182,192,54483,1,0,0:0:0:0:
402,192,54579,1,0,0:0:0:0:
36,192,54579,1,8,0:0:0:0:
109,192,54773,1,0,0:0:0:0:
182,192,54966,1,0,0:0:0:0:
475,192,54966,1,0,0:0:0:0:
329,192,55160,1,0,0:0:0:0:
475,192,55354,1,0,0:0:0:0:
182,192,55354,1,8,0:0:0:0:
329,192,55547,1,0,0:0:0:0:
36,192,55741,1,4,0:0:0:0:
475,192,55741,1,0,0:0:0:0:
256,192,55741,1,0,0:0:0:0:
109,192,55837,1,0,0:0:0:0:
182,192,55934,1,0,0:0:0:0:
256,192,56031,1,0,0:0:0:0:
475,192,56128,1,8,0:0:0:0:
36,192,56128,1,0,0:0:0:0:
402,192,56225,1,0,0:0:0:0:
329,192,56321,1,0,0:0:0:0:
256,192,56418,1,0,0:0:0:0:
182,192,56515,1,4,0:0:0:0:
475,192,56515,1,0,0:0:0:0:
329,192,56612,1,0,0:0:0:0:
109,192,56708,1,0,0:0:0:0:
402,192,56805,1,0,0:0:0:0:
182,192,56902,1,4,0:0:0:0:
36,192,56902,1,8,0:0:0:0:
329,192,56999,1,0,0:0:0:0:
109,192,57095,1,0,0:0:0:0:
402,192,57192,1,0,0:0:0:0:
36,192,57289,1,4,0:0:0:0:
475,192,57289,1,0,0:0:0:0:
256,192,57289,1,0,0:0:0:0:
402,192,57483,1,0,0:0:0:0:
256,192,57579,1,0,0:0:0:0:
109,192,57676,1,0,0:0:0:0:
475,192,57676,1,8,0:0:0:0:
256,192,57870,1,0,0:0:0:0:
36,192,58063,1,0,0:0:0:0:
402,192,58063,1,0,0:0:0:0:
256,192,58257,1,0,0:0:0:0:
109,192,58450,1,8,0:0:0:0:
475,192,58450,1,0,0:0:0:0:
256,192,58644,1,0,0:0:0:0:
36,192,58837,1,4,0:0:0:0:
475,192,58837,1,0,0:0:0:0:
256,192,58837,1,0,0:0:0:0:
109,192,59031,1,0,0:0:0:0:
182,192,59128,1,0,0:0:0:0:
256,192,59225,1,0,0:0:0:0:
475,192,59225,1,8,0:0:0:0:
402,192,59418,1,0,0:0:0:0:
182,192,59612,1,0,0:0:0:0:
329,192,59612,1,0,0:0:0:0:
109,192,59805,1,0,0:0:0:0:
36,192,59999,1,0,0:0:0:0:
475,192,59999,1,8,0:0:0:0:
402,192,60192,1,0,0:0:0:0:
36,192,60386,1,4,0:0:0:0:
475,192,60386,1,0,0:0:0:0:
256,192,60386,1,0,0:0:0:0:
109,192,60579,1,0,0:0:0:0:
256,192,60676,1,0,0:0:0:0:
109,192,60773,1,0,0:0:0:0:
402,192,60773,1,8,0:0:0:0:
256,192,60966,1,0,0:0:0:0:
36,192,61160,1,0,0:0:0:0:
475,192,61160,1,0,0:0:0:0:
256,192,61354,1,0,0:0:0:0:
182,192,61547,1,0,0:0:0:0:
329,192,61547,1,8,0:0:0:0:
256,192,61741,1,0,0:0:0:0:
36,192,61934,1,0,0:0:0:0:
329,192,61934,1,4,0:0:0:0:
475,192,61934,1,0,0:0:0:0:
109,192,62031,1,0,0:0:0:0:
182,192,62128,1,0,0:0:0:0:
256,192,62225,1,0,0:0:0:0:
182,192,62321,1,4,0:0:0:0:
36,192,62321,1,0,0:0:0:0:
329,192,62321,1,0,0:0:0:0:
475,192,62418,1,0,0:0:0:0:
109,192,62515,1,0,0:0:0:0:
256,192,62612,1,0,0:0:0:0:
402,192,62708,1,0,0:0:0:0:
36,192,62805,1,0,0:0:0:0:
182,192,62902,1,0,0:0:0:0:
329,192,62999,1,0,0:0:0:0:
109,192,63095,1,0,0:0:0:0:
256,192,63192,1,0,0:0:0:0:
402,192,63289,1,0,0:0:0:0:
182,192,63386,1,0,0:0:0:0:
475,192,63483,128,0,64644:0:0:0:0:
36,192,63483,1,4,0:0:0:0:
329,192,63483,1,0,0:0:0:0:
109,192,63773,1,0,0:0:0:0:
256,192,63870,1,8,0:0:0:0:
402,192,63870,1,0,0:0:0:0:
36,192,64063,1,0,0:0:0:0:
182,192,64257,1,0,0:0:0:0:
109,192,64450,1,0,0:0:0:0:
329,192,64644,128,0,65031:0:0:0:0:
182,192,64644,1,8,0:0:0:0:
36,192,64644,1,0,0:0:0:0:
109,192,64837,1,8,0:0:0:0:
256,192,64837,1,0,0:0:0:0:
402,192,65031,128,0,65612:0:0:0:0:
182,192,65031,1,0,0:0:0:0:
36,192,65031,1,0,0:0:0:0:
36,192,65321,1,0,0:0:0:0:
256,192,65321,1,0,0:0:0:0:
109,192,65418,1,8,0:0:0:0:
329,192,65418,1,0,0:0:0:0:
256,192,65612,1,0,0:0:0:0:
36,192,65612,1,0,0:0:0:0:
109,192,65708,1,0,0:0:0:0:
182,192,65805,128,0,66579:0:0:0:0:
402,192,65805,1,0,0:0:0:0:
475,192,65999,1,0,0:0:0:0:
36,192,66192,1,0,0:0:0:0:
329,192,66192,1,8,0:0:0:0:
256,192,66386,1,0,0:0:0:0:
402,192,66386,1,0,0:0:0:0:
36,192,66579,128,0,67934:0:0:0:0:
475,192,66579,1,4,0:0:0:0:
329,192,66579,1,0,0:0:0:0:
329,192,66870,1,0,0:0:0:0:
182,192,66966,1,8,0:0:0:0:
475,192,66966,1,0,0:0:0:0:
402,192,67160,1,0,0:0:0:0:
256,192,67354,1,0,0:0:0:0:
329,192,67547,1,0,0:0:0:0:
402,192,67741,1,8,0:0:0:0:
256,192,67741,1,0,0:0:0:0:
475,192,67934,1,0,0:0:0:0:
329,192,67934,1,0,0:0:0:0:
109,192,67934,1,0,0:0:0:0:
182,192,68031,1,0,0:0:0:0:
475,192,68128,1,0,0:0:0:0:
256,192,68128,128,0,68902:0:0:0:0:
329,192,68128,1,0,0:0:0:0:
36,192,68418,1,0,0:0:0:0:
402,192,68418,1,0,0:0:0:0:
475,192,68515,1,0,0:0:0:0:
109,192,68515,1,8,0:0:0:0:
182,192,68708,1,0,0:0:0:0:
475,192,68902,128,0,70837:0:0:0:0:
36,192,68902,1,0,0:0:0:0:
182,192,69095,1,0,0:0:0:0:
329,192,69289,1,8,0:0:0:0:
109,192,69289,1,0,0:0:0:0:
36,192,69483,1,0,0:0:0:0:
256,192,69483,1,0,0:0:0:0:
182,192,69676,1,4,0:0:0:0:
109,192,69676,1,0,0:0:0:0:
329,192,69676,1,0,0:0:0:0:
36,192,69966,1,0,0:0:0:0:
256,192,69966,1,0,0:0:0:0:
109,192,70063,1,0,0:0:0:0:
329,192,70063,1,8,0:0:0:0:
256,192,70257,1,0,0:0:0:0:
109,192,70450,1,0,0:0:0:0:
256,192,70644,1,0,0:0:0:0:
329,192,70837,128,0,71225:0:0:0:0:
36,192,70837,1,8,0:0:0:0:
182,192,70837,1,0,0:0:0:0:
402,192,71031,1,0,0:0:0:0:
109,192,71031,1,0,0:0:0:0:
256,192,71225,128,0,71805:0:0:0:0:
36,192,71225,1,0,0:0:0:0:
182,192,71225,1,0,0:0:0:0:
329,192,71515,1,0,0:0:0:0:
36,192,71515,1,0,0:0:0:0:
475,192,71612,1,8,0:0:0:0:
182,192,71612,1,0,0:0:0:0:
329,192,71805,1,0,0:0:0:0:
402,192,71805,1,0,0:0:0:0:
109,192,71902,1,0,0:0:0:0:
36,192,71999,128,0,72676:0:0:0:0:
256,192,71999,1,0,0:0:0:0:
475,192,72192,1,0,0:0:0:0:
402,192,72386,1,8,0:0:0:0:
256,192,72386,1,0,0:0:0:0:
182,192,72579,1,0,0:0:0:0:
329,192,72579,1,0,0:0:0:0:
475,192,72676,1,0,0:0:0:0:
329,192,72773,128,0,74225:0:0:0:0:
256,192,72773,1,4,0:0:0:0:
402,192,72773,1,0,0:0:0:0:
109,192,72773,1,0,0:0:0:0:
36,192,73063,1,0,0:0:0:0:
402,192,73063,1,0,0:0:0:0:
109,192,73160,1,8,0:0:0:0:
475,192,73160,1,0,0:0:0:0:
256,192,73354,1,0,0:0:0:0:
109,192,73547,1,0,0:0:0:0:
402,192,73741,1,0,0:0:0:0:
109,192,73934,1,8,0:0:0:0:
256,192,73934,1,0,0:0:0:0:
182,192,74128,1,0,0:0:0:0:
36,192,74128,1,0,0:0:0:0:
402,192,74225,1,0,0:0:0:0:
256,192,74321,128,0,74999:0:0:0:0:
36,192,74321,1,4,0:0:0:0:
182,192,74321,1,0,0:0:0:0:
475,192,74612,1,0,0:0:0:0:
182,192,74708,1,4,0:0:0:0:
402,192,74708,1,0,0:0:0:0:
109,192,74902,1,0,0:0:0:0:
329,192,74999,1,0,0:0:0:0:
402,192,75095,128,0,75870:0:0:0:0:
475,192,75095,1,4,0:0:0:0:
36,192,75095,1,4,0:0:0:0:
109,192,75192,1,0,0:0:0:0:
182,192,75289,1,0,0:0:0:0:
256,192,75386,1,0,0:0:0:0:
329,192,75483,1,4,0:0:0:0:
36,192,75483,1,4,0:0:0:0:
109,192,75579,1,0,0:0:0:0:
182,192,75676,1,0,0:0:0:0:
256,192,75773,1,0,0:0:0:0:
329,192,75870,1,0,0:0:0:0:
182,192,75966,1,0,0:0:0:0:
402,192,76063,1,0,0:0:0:0:
109,192,76160,1,0,0:0:0:0:
329,192,76257,1,0,0:0:0:0:
182,192,76354,1,0,0:0:0:0:
402,192,76450,1,0,0:0:0:0:
109,192,76547,1,0,0:0:0:0:
329,192,76644,1,0,0:0:0:0:
182,192,76741,1,0,0:0:0:0:
402,192,76837,1,0,0:0:0:0:
109,192,76934,1,0,0:0:0:0:
475,192,77031,1,0,0:0:0:0:
36,192,77128,1,0,0:0:0:0:
402,192,77225,1,0,0:0:0:0:
109,192,77321,1,0,0:0:0:0:
475,192,77418,1,0,0:0:0:0:
36,192,77418,1,4,0:0:0:0:
256,192,77418,1,0,0:0:0:0:
329,192,77515,1,0,0:0:0:0:
182,192,77612,1,0,0:0:0:0:
36,192,77708,1,0,0:0:0:0:
182,192,77805,1,0,0:0:0:0:
329,192,77902,1,0,0:0:0:0:
475,192,77999,1,0,0:0:0:0:
329,192,78095,1,0,0:0:0:0:
182,192,78192,1,0,0:0:0:0:
402,192,78289,1,0,0:0:0:0:
256,192,78386,1,0,0:0:0:0:
109,192,78483,1,0,0:0:0:0:
329,192,78579,1,0,0:0:0:0:
182,192,78676,1,0,0:0:0:0:
36,192,78773,1,0,0:0:0:0:
329,192,78870,1,0,0:0:0:0:
475,192,78966,1,0,0:0:0:0:
36,192,78966,1,0,0:0:0:0:
256,192,78966,1,4,0:0:0:0:
329,192,79160,1,0,0:0:0:0:
182,192,79257,1,0,0:0:0:0:
402,192,79354,1,0,0:0:0:0:
36,192,79354,1,8,0:0:0:0:
256,192,79547,1,0,0:0:0:0:
109,192,79741,1,0,0:0:0:0:
475,192,79741,1,0,0:0:0:0:
329,192,79934,1,0,0:0:0:0:
36,192,80128,1,8,0:0:0:0:
475,192,80128,1,0,0:0:0:0:
402,192,80321,1,0,0:0:0:0:
36,192,80515,1,4,0:0:0:0:
475,192,80515,1,0,0:0:0:0:
256,192,80515,1,0,0:0:0:0:
182,192,80708,1,0,0:0:0:0:
109,192,80805,1,0,0:0:0:0:
402,192,80902,1,0,0:0:0:0:
36,192,80902,1,8,0:0:0:0:
256,192,81095,1,0,0:0:0:0:
109,192,81289,1,0,0:0:0:0:
475,192,81289,1,0,0:0:0:0:
182,192,81483,1,0,0:0:0:0:
36,192,81676,1,0,0:0:0:0:
402,192,81676,1,8,0:0:0:0:
109,192,81870,1,0,0:0:0:0:
36,192,82063,1,4,0:0:0:0:
475,192,82063,1,0,0:0:0:0:
256,192,82063,1,0,0:0:0:0:
182,192,82257,1,0,0:0:0:0:
329,192,82354,1,0,0:0:0:0:
402,192,82450,1,0,0:0:0:0:
109,192,82450,1,8,0:0:0:0:
256,192,82644,1,0,0:0:0:0:
36,192,82837,1,0,0:0:0:0:
475,192,82837,1,0,0:0:0:0:
256,192,83031,1,0,0:0:0:0:
402,192,83225,1,0,0:0:0:0:
109,192,83225,1,8,0:0:0:0:
256,192,83418,1,0,0:0:0:0:
36,192,83612,1,4,0:0:0:0:
475,192,83612,1,0,0:0:0:0:
329,192,83612,1,0,0:0:0:0:
256,192,83708,1,0,0:0:0:0:
182,192,83805,1,0,0:0:0:0:
109,192,83902,1,0,0:0:0:0:
475,192,83999,1,0,0:0:0:0:
36,192,83999,1,8,0:0:0:0:
402,192,84095,1,0,0:0:0:0:
329,192,84192,1,0,0:0:0:0:
256,192,84289,1,0,0:0:0:0:
182,192,84386,1,4,0:0:0:0:
475,192,84386,1,0,0:0:0:0:
329,192,84483,1,0,0:0:0:0:
182,192,84579,1,0,0:0:0:0:
36,192,84676,1,0,0:0:0:0:
475,192,84773,1,4,0:0:0:0:
182,192,84773,1,8,0:0:0:0:
329,192,84870,1,0,0:0:0:0:
182,192,84966,1,0,0:0:0:0:
329,192,85063,1,0,0:0:0:0:
36,192,85160,1,0,0:0:0:0:
475,192,85160,1,4,0:0:0:0:
256,192,85160,1,0,0:0:0:0:
109,192,85354,1,0,0:0:0:0:
182,192,85450,1,0,0:0:0:0:
256,192,85547,1,0,0:0:0:0:
475,192,85547,1,8,0:0:0:0:
402,192,85741,1,0,0:0:0:0:
329,192,85934,1,0,0:0:0:0:
36,192,85934,1,0,0:0:0:0:
402,192,86128,1,0,0:0:0:0:
109,192,86321,1,8,0:0:0:0:
475,192,86321,1,0,0:0:0:0:
182,192,86515,1,0,0:0:0:0:
475,192,86708,1,0,0:0:0:0:
36,192,86708,1,4,0:0:0:0:
256,192,86708,1,0,0:0:0:0:
329,192,86902,1,0,0:0:0:0:
256,192,86999,1,0,0:0:0:0:
182,192,87095,1,0,0:0:0:0:
475,192,87095,1,8,0:0:0:0:
402,192,87289,1,0,0:0:0:0:
36,192,87483,1,0,0:0:0:0:
329,192,87483,1,0,0:0:0:0:
182,192,87676,1,0,0:0:0:0:
329,192,87870,1,8,0:0:0:0:
475,192,87870,1,0,0:0:0:0:
182,192,88063,1,0,0:0:0:0:
36,192,88257,1,4,0:0:0:0:
475,192,88257,1,0,0:0:0:0:
256,192,88257,1,0,0:0:0:0:
329,192,88450,1,0,0:0:0:0:
182,192,88547,1,0,0:0:0:0:
109,192,88644,1,0,0:0:0:0:
402,192,88644,1,8,0:0:0:0:
256,192,88837,1,0,0:0:0:0:
36,192,89031,1,0,0:0:0:0:
475,192,89031,1,0,0:0:0:0:
256,192,89225,1,0,0:0:0:0:
109,192,89418,1,8,0:0:0:0:
402,192,89418,1,0,0:0:0:0:
256,192,89612,1,0,0:0:0:0:
36,192,89805,1,4,0:0:0:0:
475,192,89805,1,0,0:0:0:0:
329,192,89805,1,0,0:0:0:0:
109,192,89902,1,0,0:0:0:0:
182,192,89999,1,0,0:0:0:0:
109,192,90095,1,0,0:0:0:0:
36,192,90192,1,0,0:0:0:0:
475,192,90192,1,4,0:0:0:0:
256,192,90192,1,0,0:0:0:0:
402,192,90289,1,0,0:0:0:0:
329,192,90386,1,0,0:0:0:0:
402,192,90483,1,0,0:0:0:0:
475,192,90579,1,4,0:0:0:0:
256,192,90579,1,0,0:0:0:0:
36,192,90676,1,0,0:0:0:0:
402,192,90773,1,0,0:0:0:0:
109,192,90870,1,0,0:0:0:0:
329,192,90966,1,4,0:0:0:0:
475,192,90966,1,0,0:0:0:0:
182,192,91063,1,0,0:0:0:0:
402,192,91160,1,0,0:0:0:0:
109,192,91257,1,0,0:0:0:0:
36,192,91354,1,4,0:0:0:0:
475,192,91354,1,0,0:0:0:0:
256,192,91354,1,0,0:0:0:0:
329,192,91547,1,0,0:0:0:0:
402,192,91644,1,0,0:0:0:0:
475,192,91741,1,0,0:0:0:0:
36,192,91741,1,8,0:0:0:0:
256,192,91934,1,0,0:0:0:0:
109,192,92128,1,0,0:0:0:0:
402,192,92128,1,0,0:0:0:0:
256,192,92321,1,0,0:0:0:0:
36,192,92515,1,8,0:0:0:0:
475,192,92515,1,0,0:0:0:0:
256,192,92708,1,0,0:0:0:0:
36,192,92902,1,4,0:0:0:0:
475,192,92902,1,0,0:0:0:0:
256,192,92902,1,0,0:0:0:0:
475,192,93095,1,0,0:0:0:0:
402,192,93192,1,0,0:0:0:0:
329,192,93289,1,0,0:0:0:0:
36,192,93289,1,8,0:0:0:0:
182,192,93483,1,0,0:0:0:0:
329,192,93676,1,0,0:0:0:0:
36,192,93676,1,0,0:0:0:0:
475,192,93870,1,0,0:0:0:0:
329,192,94063,1,8,0:0:0:0:
36,192,94063,1,0,0:0:0:0:
182,192,94257,1,0,0:0:0:0:
36,192,94450,1,4,0:0:0:0:
475,192,94450,1,0,0:0:0:0:
256,192,94450,1,0,0:0:0:0:
109,192,94644,1,0,0:0:0:0:
329,192,94741,1,0,0:0:0:0:
182,192,94837,1,0,0:0:0:0:
36,192,94837,1,8,0:0:0:0:
402,192,95031,1,0,0:0:0:0:
329,192,95225,1,0,0:0:0:0:
182,192,95225,1,0,0:0:0:0:
109,192,95418,1,0,0:0:0:0:
475,192,95612,1,8,0:0:0:0:
36,192,95612,1,0,0:0:0:0:
256,192,95805,1,0,0:0:0:0:
36,192,95999,1,4,0:0:0:0:
475,192,95999,1,0,0:0:0:0:
182,192,95999,1,0,0:0:0:0:
402,192,96095,1,0,0:0:0:0:
329,192,96192,1,0,0:0:0:0:
402,192,96289,1,0,0:0:0:0:
475,192,96386,1,0,0:0:0:0:
109,192,96386,1,8,0:0:0:0:
402,192,96483,1,0,0:0:0:0:
329,192,96579,1,0,0:0:0:0:
256,192,96676,1,0,0:0:0:0:
182,192,96773,1,4,0:0:0:0:
36,192,96773,1,0,0:0:0:0:
475,192,96870,1,0,0:0:0:0:
109,192,96966,1,0,0:0:0:0:
402,192,97063,1,0,0:0:0:0:
36,192,97160,1,4,0:0:0:0:
475,192,97160,1,8,0:0:0:0:
329,192,97257,1,0,0:0:0:0:
109,192,97354,1,0,0:0:0:0:
402,192,97450,1,0,0:0:0:0:
36,192,97547,1,4,0:0:0:0:
256,192,97547,1,0,0:0:0:0:
475,192,97547,1,0,0:0:0:0:
182,192,97741,1,0,0:0:0:0:
109,192,97837,1,0,0:0:0:0:
36,192,97934,1,0,0:0:0:0:
475,192,97934,1,8,0:0:0:0:
109,192,98128,1,0,0:0:0:0:
182,192,98321,1,0,0:0:0:0:
402,192,98321,1,0,0:0:0:0:
109,192,98515,1,0,0:0:0:0:
36,192,98708,1,0,0:0:0:0:
329,192,98708,1,8,0:0:0:0:
109,192,98902,1,0,0:0:0:0:
36,192,99095,1,4,0:0:0:0:
256,192,99095,1,0,0:0:0:0:
475,192,99095,1,0,0:0:0:0:
329,192,99289,1,0,0:0:0:0:
402,192,99386,1,0,0:0:0:0:
36,192,99483,1,0,0:0:0:0:
475,192,99483,1,8,0:0:0:0:
256,192,99676,1,0,0:0:0:0:
109,192,99870,1,0,0:0:0:0:
402,192,99870,1,0,0:0:0:0:
256,192,100063,1,0,0:0:0:0:
36,192,100257,1,8,0:0:0:0:
475,192,100257,1,0,0:0:0:0:
256,192,100450,1,0,0:0:0:0:
36,192,100644,1,4,0:0:0:0:
256,192,100644,1,0,0:0:0:0:
475,192,100644,1,0,0:0:0:0:
329,192,100837,1,0,0:0:0:0:
182,192,100934,1,0,0:0:0:0:
36,192,101031,1,0,0:0:0:0:
475,192,101031,1,8,0:0:0:0:
402,192,101225,1,0,0:0:0:0:
109,192,101418,1,0,0:0:0:0:
329,192,101418,1,0,0:0:0:0:
402,192,101612,1,0,0:0:0:0:
475,192,101805,1,0,0:0:0:0:
182,192,101805,1,8,0:0:0:0:
402,192,101999,1,0,0:0:0:0:
475,192,102192,1,0,0:0:0:0:
109,192,102192,1,4,0:0:0:0:
256,192,102192,1,0,0:0:0:0:
402,192,102289,1,0,0:0:0:0:
329,192,102386,1,0,0:0:0:0:
256,192,102483,1,0,0:0:0:0:
36,192,102579,1,0,0:0:0:0:
182,192,102579,1,4,0:0:0:0:
475,192,102579,1,0,0:0:0:0:
109,192,102676,1,0,0:0:0:0:
182,192,102773,1,0,0:0:0:0:
256,192,102870,1,0,0:0:0:0:
329,192,102966,1,4,0:0:0:0:
475,192,102966,1,0,0:0:0:0:
36,192,103063,1,0,0:0:0:0:
402,192,103160,1,0,0:0:0:0:
109,192,103257,1,0,0:0:0:0:
475,192,103354,1,4,0:0:0:0:
36,192,103354,1,0,0:0:0:0:
182,192,103450,1,0,0:0:0:0:
402,192,103547,1,0,0:0:0:0:
109,192,103644,1,0,0:0:0:0:
329,192,103741,128,0,105289:0:0:0:0:
36,192,103741,1,0,0:0:0:0:
475,192,103741,1,0,0:0:0:0:
182,192,104612,128,0,105289:0:0:0:0:
475,192,105289,128,0,108386:0:0:0:0:
36,192,105289,128,0,108386:0:0:0:0:
256,192,106837,128,0,108386:0:0:0:0:
182,192,108386,1,0,0:0:0:0:
329,192,108386,1,0,0:0:0:0:
