osu file format v14

[General]
AudioFilename: audio.mp3
AudioLeadIn: 0
PreviewTime: 77448
Countdown: 0
SampleSet: None
StackLeniency: 0.7
Mode: 2
LetterboxInBreaks: 0
WidescreenStoryboard: 0

[Editor]
DistanceSpacing: 1
BeatDivisor: 4
GridSize: 16
TimelineZoom: 1.9

[Metadata]
Title:Halloween Party
TitleUnicode:Halloween Party
Artist:SHK
ArtistUnicode:SHK
Creator:-Ken
Version:Spooky
Source:
Tags:
BeatmapID:1449885
BeatmapSetID:685153

[Difficulty]
HPDrainRate:6
CircleSize:4
OverallDifficulty:9.2
ApproachRate:9.2
SliderMultiplier:2.1
SliderTickRate:1

[Events]
//Background and Video events
0,0,"wallhaven-451094.jpg",0,0
//Break Periods
//Storyboard Layer 0 (Background)
//Storyboard Layer 1 (Fail)
//Storyboard Layer 2 (Pass)
//Storyboard Layer 3 (Foreground)
//Storyboard Sound Samples

[TimingPoints]
-1422,387.096774193548,4,2,0,75,1,0
17158,-200,4,2,0,75,0,0
18513,-200,4,2,0,5,0,0
18707,-200,4,2,0,35,0,0
19481,-100,4,2,0,50,0,0
19868,-100,4,2,0,65,0,0
20255,-100,4,2,0,75,0,0
51223,-100,4,2,0,75,0,1
51416,-76.9230769230769,4,2,0,75,0,1
62836,-83.3333333333333,4,2,0,75,0,1
63610,-100,4,2,0,75,0,0
75997,-100,4,2,0,35,0,0
77545,-76.9230769230769,4,2,0,75,0,0
79094,-76.9230769230769,4,2,0,75,0,1
92352,-76.9230769230769,4,2,0,5,0,1
92448,-76.9230769230769,4,2,0,75,0,1
92545,-76.9230769230769,4,2,0,5,0,1
92642,-76.9230769230769,4,2,0,75,0,1
92739,-76.9230769230769,4,2,0,5,0,1
92836,-76.9230769230769,4,2,0,75,0,1
92932,-76.9230769230769,4,2,0,5,0,1
93029,-76.9230769230769,4,2,0,75,0,1
93900,-76.9230769230769,4,2,0,5,0,1
93997,-76.9230769230769,4,2,0,75,0,1
94094,-76.9230769230769,4,2,0,5,0,1
94190,-76.9230769230769,4,2,0,75,0,1
94287,-76.9230769230769,4,2,0,5,0,1
94384,-76.9230769230769,4,2,0,75,0,1
94481,-76.9230769230769,4,2,0,5,0,1
94577,-76.9230769230769,4,2,0,75,0,1
103868,-76.9230769230769,4,2,0,75,0,0
105416,-76.9230769230769,4,2,0,50,0,0

[Colours]
Combo1 : 65,65,65
Combo2 : 255,255,81
Combo3 : 255,155,55

[HitObjects]
256,192,900,12,0,4384,0:0:0:0:
112,224,4771,6,0,L|256:224,1,105,0|2,0:0|0:0,0:0:0:0:
416,176,5158,2,0,L|288:176,1,105,0|2,0:0|0:0,0:0:0:0:
112,224,5545,2,0,L|256:224,1,105,0|2,0:0|0:0,0:0:0:0:
416,176,5932,1,0,0:0:0:0:
240,176,6126,1,2,0:0:0:0:
416,176,6319,6,0,L|416:64,1,105,0|2,0:0|0:0,0:0:0:0:
240,176,6707,2,0,L|368:176,1,105,0|2,0:0|0:0,0:0:0:0:
176,176,7094,2,0,L|288:176,1,105,0|2,0:0|0:0,0:0:0:0:
112,176,7481,2,0,L|256:176,1,105,0|2,0:0|0:0,0:0:0:0:
416,176,7868,5,0,0:0:0:0:
240,176,8061,1,2,0:0:0:0:
416,176,8255,2,0,L|288:176,1,105,0|2,0:0|0:0,0:0:0:0:
480,176,8642,2,0,L|352:176,1,105,0|2,0:0|0:0,0:0:0:0:
160,176,9029,2,0,L|160:64,1,105,0|2,0:0|0:0,0:0:0:0:
352,176,9416,6,0,L|352:48,1,105,0|2,0:0|0:0,0:0:0:0:
160,192,9803,2,0,L|160:64,1,105,0|2,0:0|0:0,0:0:0:0:
384,240,10190,5,0,3:0:0:0:
434,235,10286,1,0,0:0:0:0:
461,192,10383,1,2,3:2:0:0:
445,144,10480,1,0,0:0:0:0:
368,144,10577,1,0,3:0:0:0:
432,144,10674,1,0,0:0:0:0:
368,80,10771,1,2,3:2:0:0:
432,80,10868,1,0,0:0:0:0:
48,160,10965,6,0,L|32:48,1,105,0|2,1:0|0:0,0:0:0:0:
288,176,11352,2,0,L|304:64,1,105,0|2,1:0|0:0,0:0:0:0:
48,96,11739,5,0,1:0:0:0:
112,96,11836,1,0,0:0:0:0:
176,96,11932,1,2,0:0:0:0:
48,96,12126,1,0,1:0:0:0:
112,96,12223,1,0,0:0:0:0:
176,96,12319,1,2,0:0:0:0:
336,208,12513,6,0,L|352:96,1,105,0|2,1:0|0:0,0:0:0:0:
96,224,12900,2,0,L|80:112,1,105,0|2,1:0|0:0,0:0:0:0:
336,144,13287,5,0,1:0:0:0:
272,144,13384,1,0,0:0:0:0:
208,144,13480,1,2,0:0:0:0:
336,144,13674,1,0,1:0:0:0:
272,144,13771,1,0,0:0:0:0:
208,144,13867,1,2,0:0:0:0:
48,160,14061,6,0,L|32:48,1,105,0|2,1:0|0:0,0:0:0:0:
288,176,14448,2,0,L|304:64,1,105,0|2,1:0|0:0,0:0:0:0:
48,96,14835,5,0,1:0:0:0:
112,96,14932,1,0,0:0:0:0:
48,96,15028,1,2,0:0:0:0:
304,96,15222,1,0,1:0:0:0:
240,96,15319,1,0,0:0:0:0:
304,96,15415,1,2,0:0:0:0:
16,208,15610,5,0,1:0:0:0:
160,208,15803,1,0,1:0:0:0:
304,208,15997,1,0,1:0:0:0:
448,208,16190,1,0,1:0:0:0:
160,208,16384,1,0,1:0:0:0:
480,208,16577,1,0,1:0:0:0:
144,208,16771,1,0,1:0:0:0:
464,208,16965,1,0,1:0:0:0:
96,32,17158,6,0,P|64:128|96:208,1,183.75,4|0,1:0|0:0,0:0:0:0:
80,272,18707,6,0,L|112:240,7,26.25,0|0|0|0|0|0|0|0,3:0|0:0|0:0|0:0|0:0|0:0|0:0|0:0,0:0:0:0:
144,224,19481,6,0,L|208:224,1,52.5,0|0,3:0|0:0,0:0:0:0:
80,176,19674,2,0,L|16:176,1,52.5,0|0,3:0|3:0,0:0:0:0:
96,176,19868,1,0,3:0:0:0:
167,176,19964,1,0,3:0:0:0:
238,176,20061,1,0,3:0:0:0:
309,176,20158,1,0,3:0:0:0:
512,192,20255,6,0,L|368:224,1,105,6|0,0:0|0:0,0:0:0:0:
96,240,20642,2,0,L|240:272,1,105,10|0,0:0|0:0,0:0:0:0:
368,192,21029,1,2,0:0:0:0:
192,176,21223,1,0,0:0:0:0:
368,160,21416,1,10,0:0:0:0:
192,144,21610,1,0,0:0:0:0:
368,112,21803,5,2,0:0:0:0:
16,112,21997,1,0,0:0:0:0:
224,96,22384,1,2,0:0:0:0:
224,96,22965,1,10,0:0:0:0:
480,208,23352,6,0,L|336:208,1,105,6|0,0:0|0:0,0:0:0:0:
112,256,23739,2,0,L|112:112,1,105,10|0,0:0|0:0,0:0:0:0:
304,144,24126,1,2,0:0:0:0:
128,144,24319,1,0,0:0:0:0:
320,96,24513,1,10,0:0:0:0:
144,96,24706,1,0,0:0:0:0:
336,96,24900,5,2,0:0:0:0:
48,176,25094,1,0,0:0:0:0:
48,176,25287,2,0,L|112:176,1,52.5,8|0,0:0|0:0,0:0:0:0:
368,160,25481,1,2,0:0:0:0:
256,160,25674,1,0,0:0:0:0:
368,160,25868,1,0,0:0:0:0:
96,208,26061,1,10,0:0:0:0:
320,224,26448,6,0,L|448:224,1,105,6|0,0:0|0:0,0:0:0:0:
48,224,26836,2,0,L|48:96,1,105,10|0,0:0|0:0,0:0:0:0:
224,112,27223,1,2,0:0:0:0:
48,112,27416,1,0,0:0:0:0:
352,112,27610,1,10,0:0:0:0:
176,112,27803,1,0,0:0:0:0:
352,112,27997,5,2,0:0:0:0:
48,208,28190,1,0,0:0:0:0:
256,208,28577,1,2,0:0:0:0:
256,208,29158,1,10,0:0:0:0:
64,224,29545,6,0,L|64:96,1,105,6|0,0:0|0:0,0:0:0:0:
368,192,29932,2,0,L|480:192,1,105,10|0,0:0|0:0,0:0:0:0:
160,144,30319,1,2,0:0:0:0:
336,144,30513,1,0,0:0:0:0:
224,96,30707,1,10,0:0:0:0:
400,96,30900,1,0,0:0:0:0:
224,32,31094,5,2,0:0:0:0:
496,272,31287,1,0,0:0:0:0:
496,272,31481,2,0,L|432:272,1,52.5
80,256,31674,2,0,L|192:256,1,105,2|0,0:0|0:3,0:0:0:0:
400,272,31965,6,0,L|400:208,1,52.5,0|0,0:3|0:3,0:0:0:0:
320,208,32158,2,0,L|320:144,1,52.5,0|10,0:3|0:0,0:0:0:0:
240,144,32352,1,2,0:0:0:0:
176,112,32448,1,2,0:0:0:0:
240,96,32545,1,2,0:0:0:0:
448,96,32642,5,4,1:0:0:0:
304,80,32836,1,0,0:0:0:0:
448,160,33029,1,8,0:0:0:0:
272,144,33223,1,0,0:0:0:0:
448,224,33416,1,0,1:0:0:0:
304,208,33610,1,0,1:0:0:0:
448,288,33803,1,8,0:0:0:0:
80,272,33997,1,8,0:0:0:0:
80,112,34190,5,0,1:0:0:0:
224,96,34384,1,0,0:0:0:0:
80,176,34577,1,8,0:0:0:0:
256,160,34771,1,0,0:0:0:0:
192,160,34868,1,0,0:0:0:0:
400,160,34965,2,0,P|512:176|400:272,1,315,0|8,1:0|0:0,0:0:0:0:
224,272,35739,6,0,L|352:272,1,105,4|0,1:0|0:0,0:0:0:0:
272,272,36029,1,0,1:0:0:0:
80,272,36126,2,0,L|192:272,1,105,8|0,0:0|0:0,0:0:0:0:
48,272,36513,2,0,L|176:272,1,105,0|0,1:0|1:0,0:0:0:0:
448,288,36900,2,0,L|448:144,1,105,8|8,0:0|0:0,0:0:0:0:
240,224,37287,5,2,0:0:0:0:
112,224,37480,1,2,0:0:0:0:
112,96,37674,1,10,0:0:0:0:
240,96,37867,1,2,0:0:0:0:
400,96,38061,2,0,L|288:96,1,105,2|2,0:0|0:0,0:0:0:0:
80,96,38448,2,0,L|208:96,1,105,8|0,0:0|1:0,0:0:0:0:
512,96,38836,5,4,1:0:0:0:
512,96,39126,1,0,1:0:0:0:
336,96,39223,2,0,L|336:240,1,105,8|0,0:0|0:0,0:0:0:0:
176,96,39610,2,0,L|176:224,1,105,0|0,1:0|1:0,0:0:0:0:
352,96,39997,1,8,0:0:0:0:
32,96,40190,1,8,0:0:0:0:
208,96,40384,5,0,1:0:0:0:
208,96,40674,1,0,1:0:0:0:
32,96,40771,2,0,L|32:224,1,105,8|0,0:0|0:0,0:0:0:0:
96,192,41061,1,0,0:0:0:0:
368,208,41158,2,0,P|448:176|320:80,1,315,0|8,1:0|0:0,0:0:0:0:
320,64,41803,1,0,0:0:0:0:
337,63,41868,1,0,0:0:0:0:
16,96,41932,6,0,L|48:256,1,157.5,4|0,1:0|1:0,0:0:0:0:
288,160,42319,2,0,L|160:160,1,105,8|0,0:0|0:0,0:0:0:0:
368,160,42707,2,0,L|256:160,1,105,0|0,1:0|0:0,0:0:0:0:
448,160,43094,1,8,0:0:0:0:
160,160,43287,1,8,0:0:0:0:
144,160,43352,1,0,0:0:0:0:
128,144,43416,1,0,0:0:0:0:
336,112,43481,5,2,0:0:0:0:
480,112,43674,1,2,0:0:0:0:
480,16,43868,1,10,0:0:0:0:
336,16,44061,1,2,0:0:0:0:
480,16,44255,5,2,0:0:0:0:
384,16,44352,1,0,0:0:0:0:
288,16,44448,1,2,0:0:0:0:
192,16,44545,1,0,0:0:0:0:
0,16,44642,1,10,0:0:0:0:
352,176,45029,5,4,1:0:0:0:
64,208,45223,6,0,L|64:128,1,52.5,0|0,1:0|0:0,0:0:0:0:
256,176,45416,1,0,1:0:0:0:
448,208,45610,6,0,L|448:128,1,52.5,0|0,1:0|0:0,0:0:0:0:
256,176,45803,1,0,1:0:0:0:
64,208,45997,6,0,L|0:208,2,52.5,0|0|0,1:0|0:0|1:0,0:0:0:0:
448,208,46384,6,0,L|448:144,1,52.5,0|0,1:0|0:0,0:0:0:0:
256,176,46577,5,0,1:0:0:0:
64,176,46771,1,0,1:0:0:0:
256,176,46965,1,0,1:0:0:0:
448,176,47158,1,0,1:0:0:0:
64,176,47352,1,4,1:0:0:0:
96,176,48126,5,4,1:0:0:0:
416,176,48319,6,0,L|496:176,2,52.5,0|0|0,1:0|0:0|1:0,0:0:0:0:
96,176,48707,6,0,L|80:96,1,52.5,0|0,1:0|0:0,0:0:0:0:
256,128,48900,1,0,1:0:0:0:
96,176,49094,6,0,L|80:96,1,52.5,0|0,1:0|0:0,0:0:0:0:
256,128,49287,1,0,1:0:0:0:
288,80,49481,5,0,1:0:0:0:
192,80,49577,1,0,0:0:0:0:
96,80,49674,5,0,1:0:0:0:
352,80,49868,1,0,1:0:0:0:
96,128,50061,1,0,1:0:0:0:
352,128,50255,1,0,1:0:0:0:
48,176,50448,1,4,1:0:0:0:
160,208,50836,6,0,L|176:144,1,52.5,0|0,3:0|3:0,0:0:0:0:
288,176,51029,2,0,L|336:144,1,52.5,0|0,3:0|3:0,0:0:0:0:
32,160,51223,5,4,1:0:0:0:
192,96,51416,1,0,1:0:0:0:
112,96,51513,1,0,0:0:0:0:
32,96,51610,1,8,0:0:0:0:
416,96,51803,1,8,0:0:0:0:
96,96,51997,5,0,1:0:0:0:
80,160,52190,1,0,1:0:0:0:
64,224,52384,1,8,0:0:0:0:
48,288,52577,1,8,0:0:0:0:
448,160,52771,5,4,1:0:0:0:
288,96,52964,1,0,1:0:0:0:
368,96,53061,1,0,0:0:0:0:
448,96,53158,1,8,0:0:0:0:
48,96,53351,1,8,0:0:0:0:
368,96,53545,5,0,1:0:0:0:
384,160,53738,1,0,1:0:0:0:
400,224,53932,1,8,0:0:0:0:
416,288,54125,1,8,0:0:0:0:
32,160,54319,5,4,1:0:0:0:
192,96,54512,1,0,1:0:0:0:
112,96,54609,1,0,0:0:0:0:
32,96,54706,1,8,0:0:0:0:
416,96,54899,1,8,0:0:0:0:
112,128,55093,5,0,1:0:0:0:
32,192,55286,1,0,1:0:0:0:
144,224,55480,1,8,0:0:0:0:
64,288,55673,1,8,0:0:0:0:
320,256,55868,5,4,1:0:0:0:
361,201,55964,1,0,0:0:0:0:
403,147,56061,1,2,0:0:0:0:
444,93,56158,1,0,0:0:0:0:
192,256,56255,5,2,0:0:0:0:
150,201,56351,1,0,0:0:0:0:
108,147,56448,1,2,0:0:0:0:
67,93,56545,1,0,0:0:0:0:
336,80,56642,5,4,1:0:0:0:
267,80,56738,1,0,0:0:0:0:
199,80,56835,1,2,0:0:0:0:
131,80,56932,1,0,0:0:0:0:
199,80,57029,5,4,1:0:0:0:
267,80,57125,1,0,0:0:0:0:
335,80,57222,1,2,0:0:0:0:
267,80,57319,1,0,0:0:0:0:
32,208,57416,5,4,1:0:0:0:
304,224,57610,2,0,L|304:128,1,68.2499968757631,0|0,1:0|0:0,0:0:0:0:
128,160,57803,1,8,0:0:0:0:
0,160,57997,1,8,0:0:0:0:
512,128,58190,5,0,1:0:0:0:
512,64,58384,1,0,1:0:0:0:
384,128,58577,1,8,0:0:0:0:
384,192,58771,1,8,0:0:0:0:
480,208,58965,5,4,1:0:0:0:
208,208,59159,2,0,L|208:112,1,68.2499968757631,0|0,1:0|0:0,0:0:0:0:
384,144,59352,1,8,0:0:0:0:
512,144,59546,1,8,0:0:0:0:
0,128,59739,5,0,1:0:0:0:
0,64,59933,1,0,1:0:0:0:
128,128,60126,1,8,0:0:0:0:
128,192,60320,1,0,0:0:0:0:
32,208,60513,5,4,1:0:0:0:
304,224,60707,2,0,L|304:128,1,68.2499968757631,0|0,1:0|0:0,0:0:0:0:
128,160,60900,1,8,0:0:0:0:
0,160,61094,1,8,0:0:0:0:
512,128,61287,5,0,1:0:0:0:
512,64,61481,1,0,1:0:0:0:
384,128,61674,1,8,0:0:0:0:
384,192,61868,1,8,0:0:0:0:
32,224,62061,5,4,1:0:0:0:
90,189,62157,1,0,0:0:0:0:
149,155,62254,1,2,0:0:0:0:
208,120,62351,1,0,0:0:0:0:
416,192,62448,5,4,1:0:0:0:
357,157,62544,1,0,0:0:0:0:
298,123,62641,1,2,0:0:0:0:
239,88,62738,1,0,0:0:0:0:
464,80,62836,6,0,L|400:80,7,62.9999980773926,8|0|2|0|2|0|2|0,0:0|0:0|0:0|0:0|0:0|0:0|0:0|0:0,0:0:0:0:
32,96,63610,6,0,L|32:224,1,105,4|0,1:0|0:0,0:0:0:0:
192,208,63997,2,0,L|192:80,1,105,0|0,0:0|0:0,0:0:0:0:
32,96,64384,1,0,0:0:0:0:
192,96,64577,1,0,0:0:0:0:
32,96,64771,1,0,0:0:0:0:
352,96,64965,1,0,0:0:0:0:
480,96,65158,6,0,L|480:224,1,105,0|0,0:0|0:0,0:0:0:0:
320,208,65545,2,0,L|320:80,1,105,0|0,0:0|0:0,0:0:0:0:
400,96,65836,1,0,0:0:0:0:
480,96,65932,1,0,0:0:0:0:
320,96,66125,1,0,0:0:0:0:
480,96,66319,1,0,0:0:0:0:
160,96,66513,1,0,0:0:0:0:
32,176,66707,5,0,0:0:0:0:
160,176,66900,1,0,0:0:0:0:
32,176,67094,1,0,0:0:0:0:
240,176,67287,1,0,0:0:0:0:
128,176,67481,5,0,0:0:0:0:
16,176,67674,1,0,0:0:0:0:
128,176,67868,1,0,0:0:0:0:
336,176,68061,1,0,0:0:0:0:
256,176,68158,1,0,0:0:0:0:
176,176,68255,5,0,0:0:0:0:
32,176,68448,1,0,0:0:0:0:
32,80,68642,1,0,0:0:0:0:
176,80,68836,1,0,0:0:0:0:
320,80,69029,2,0,L|320:192,1,105,0|0,0:0|0:0,0:0:0:0:
112,64,69416,2,0,L|112:208,1,105,0|0,0:0|0:0,0:0:0:0:
432,192,69803,5,0,0:0:0:0:
176,208,69997,2,0,L|112:208,1,52.5,0|0,0:0|0:0,0:0:0:0:
304,208,70190,2,0,L|304:96,1,105,0|0,0:0|0:0,0:0:0:0:
144,144,70577,2,0,L|144:16,1,105,0|0,0:0|0:0,0:0:0:0:
304,48,70965,1,0,0:0:0:0:
48,144,71158,1,0,0:0:0:0:
224,144,71352,6,0,L|112:144,1,105,0|0,0:0|0:0,0:0:0:0:
48,144,71642,1,0,0:0:0:0:
336,144,71739,2,0,L|336:16,1,105,0|0,0:0|0:0,0:0:0:0:
272,48,72029,1,0,0:0:0:0:
208,48,72126,2,0,P|128:80|240:224,1,315,0|0,0:0|0:0,0:0:0:0:
240,224,72771,1,0,0:0:0:0:
211,232,72836,1,0,0:0:0:0:
0,224,72900,6,0,L|0:336,1,105,0|0,0:0|0:0,0:0:0:0:
64,320,73190,1,0,0:0:0:0:
304,320,73287,2,0,L|304:176,1,105,0|0,0:0|0:0,0:0:0:0:
176,192,73674,2,0,L|32:192,1,105,0|0,0:0|0:0,0:0:0:0:
224,128,74061,2,0,L|336:128,1,105,0|0,0:0|0:0,0:0:0:0:
176,144,74448,5,0,0:0:0:0:
448,80,74642,2,0,L|384:80,1,52.5,0|0,0:0|0:0,0:0:0:0:
176,96,74836,1,0,0:0:0:0:
16,96,75029,2,0,L|80:96,1,52.5,0|0,0:0|0:0,0:0:0:0:
368,80,75223,5,0,0:0:0:0:
416,94,75319,1,0,0:0:0:0:
440,139,75416,1,0,0:0:0:0:
423,187,75513,1,0,0:0:0:0:
96,192,75610,1,0,0:0:0:0:
100,141,75706,1,0,0:0:0:0:
143,113,75803,1,0,0:0:0:0:
191,129,75900,1,0,0:0:0:0:
256,272,75997,5,0,3:0:0:0:
203,272,76093,1,0,3:0:0:0:
151,272,76190,1,0,3:0:0:0:
98,272,76287,1,0,3:0:0:0:
151,272,76384,1,0,3:0:0:0:
204,272,76480,1,0,3:0:0:0:
256,272,76577,1,0,3:0:0:0:
309,272,76674,1,0,3:0:0:0:
256,272,76771,5,0,3:0:0:0:
203,272,76867,1,0,3:0:0:0:
151,272,76964,1,0,3:0:0:0:
98,272,77061,1,0,3:0:0:0:
151,272,77158,1,0,3:0:0:0:
204,272,77254,1,0,3:0:0:0:
256,272,77351,1,0,3:0:0:0:
309,272,77448,1,0,3:0:0:0:
368,224,77545,5,4,0:1:0:0:
416,224,77609,1,0,0:0:0:0:
368,224,77674,1,0,0:0:0:0:
322,224,77738,1,0,0:0:0:0:
277,224,77803,1,0,0:0:0:0:
231,224,77867,1,0,0:0:0:0:
185,224,77932,5,0,0:0:0:0:
231,224,77996,1,0,0:0:0:0:
276,224,78061,1,0,0:0:0:0:
322,224,78125,1,0,0:0:0:0:
367,224,78190,1,0,0:0:0:0:
322,224,78254,1,0,0:0:0:0:
276,224,78319,6,0,L|228:224,15,34.1249984378815,0|0|0|0|0|0|0|0|0|0|0|0|0|0|0|0,0:2|0:2|0:2|0:2|0:2|0:2|0:2|0:2|0:2|0:2|0:2|0:2|0:2|0:2|0:2|0:2,0:0:0:0:
192,224,79094,5,4,1:0:0:0:
464,176,79287,2,0,L|384:176,2,68.2499968757631,0|0|8,1:0|0:0|0:0,0:0:0:0:
192,144,79674,1,8,0:0:0:0:
464,176,79868,2,0,L|464:16,1,136.499993751526,0|0,1:0|1:0,0:0:0:0:
336,176,80255,2,0,L|336:16,1,136.499993751526,8|8,0:0|0:0,0:0:0:0:
464,192,80642,5,4,1:0:0:0:
192,144,80835,2,0,L|272:144,2,68.2499968757631,0|0|8,1:0|0:0|0:0,0:0:0:0:
464,112,81222,1,8,0:0:0:0:
192,144,81416,2,0,L|192:-16,1,136.499993751526,0|0,1:0|1:0,0:0:0:0:
320,144,81803,2,0,L|320:-16,1,136.499993751526,8|8,0:0|0:0,0:0:0:0:
192,32,82190,5,4,1:0:0:0:
464,32,82384,1,0,1:0:0:0:
384,32,82481,1,0,0:0:0:0:
304,32,82577,1,8,0:0:0:0:
0,32,82771,1,8,0:0:0:0:
288,144,82965,2,0,L|432:144,1,136.499993751526,0|0,1:0|1:0,0:0:0:0:
272,144,83352,2,0,L|112:144,1,136.499993751526,8|0,0:0|0:0,0:0:0:0:
0,144,83739,6,0,L|48:96,3,68.2499968757631,4|0|0|0,1:0|0:0|0:0|0:0,0:0:0:0:
128,80,84126,6,0,L|176:32,3,68.2499968757631,2|0|0|0,0:0|0:0|0:0|0:0,0:0:0:0:
256,16,84513,6,0,L|320:48,3,68.2499968757631,4|0|2|0,1:0|0:0|0:0|0:0,0:0:0:0:
400,32,84900,6,0,L|480:64,3,68.2499968757631,4|0|2|0,1:0|0:0|0:0|0:0,0:0:0:0:
304,16,85287,5,4,1:0:0:0:
48,208,85481,2,0,L|48:128,1,68.2499968757631,0|0,1:0|0:0,0:0:0:0:
256,128,85674,2,0,L|416:128,1,136.499993751526,8|8,0:0|0:0,0:0:0:0:
48,208,86061,6,0,L|48:64,1,136.499993751526,0|0,1:0|1:0,0:0:0:0:
192,192,86448,2,0,L|192:48,1,136.499993751526,8|8,0:0|0:0,0:0:0:0:
48,64,86836,5,4,1:0:0:0:
416,128,87029,2,0,L|416:48,1,68.2499968757631,0|0,1:0|0:0,0:0:0:0:
144,160,87223,2,0,L|0:160,1,136.499993751526,8|8,0:0|0:0,0:0:0:0:
464,208,87610,6,0,L|464:64,1,136.499993751526,0|0,1:0|1:0,0:0:0:0:
320,192,87997,2,0,L|320:48,1,136.499993751526,8|8,0:0|0:0,0:0:0:0:
464,64,88384,5,4,1:0:0:0:
64,80,88577,2,0,L|144:80,1,68.2499968757631,0|0,1:0|0:0,0:0:0:0:
368,80,88771,2,0,L|368:240,1,136.499993751526,8|8,0:0|0:0,0:0:0:0:
48,160,89158,6,0,L|208:160,1,136.499993751526,0|0,1:0|1:0,0:0:0:0:
480,160,89545,2,0,L|320:160,1,136.499993751526,8|8,0:0|0:0,0:0:0:0:
64,176,89932,6,0,L|-16:128,3,68.2499968757631,4|0|2|0,1:0|0:0|0:0|0:0,0:0:0:0:
176,176,90319,6,0,L|256:128,3,68.2499968757631,4|0|2|0,1:0|0:0|0:0|0:0,0:0:0:0:
64,176,90707,6,0,L|-16:128,3,68.2499968757631,4|0|0|0,1:0|0:0|0:0|0:0,0:0:0:0:
320,96,91094,5,4,1:0:0:0:
376,127,91190,1,0,0:0:0:0:
377,192,91287,1,2,0:0:0:0:
322,226,91384,1,0,0:0:0:0:
48,240,91481,5,4,1:0:0:0:
336,240,91674,2,0,L|240:240,1,68.2499968757631,0|0,1:0|0:0,0:0:0:0:
48,240,91868,1,8,0:0:0:0:
192,240,92061,1,8,0:0:0:0:
48,192,92255,5,0,1:0:0:0:
368,192,92448,1,8,0:0:0:0:
48,144,92642,1,0,1:0:0:0:
368,144,92836,1,8,0:0:0:0:
496,144,93029,5,4,1:0:0:0:
208,144,93222,2,0,L|304:144,1,68.2499968757631,0|0,1:0|0:0,0:0:0:0:
496,144,93416,1,8,0:0:0:0:
352,144,93609,1,8,0:0:0:0:
496,96,93803,5,0,1:0:0:0:
176,96,93996,1,8,0:0:0:0:
496,48,94190,1,0,1:0:0:0:
176,48,94384,1,8,0:0:0:0:
48,240,94577,5,4,1:0:0:0:
320,240,94770,2,0,L|400:240,1,68.2499968757631,0|0,1:0|0:0,0:0:0:0:
192,240,94964,1,8,0:0:0:0:
48,240,95157,1,8,0:0:0:0:
192,240,95351,5,0,1:0:0:0:
464,208,95544,1,8,0:0:0:0:
128,176,95738,1,0,1:0:0:0:
400,144,95932,1,8,0:0:0:0:
288,144,96126,6,0,L|208:96,3,68.2499968757631,4|0|0|0,1:0|0:0|0:0|0:0,0:0:0:0:
384,144,96513,6,0,L|464:96,3,68.2499968757631,2|0|2|0,0:0|0:0|0:0|0:0,0:0:0:0:
128,144,96900,6,0,L|32:144,1,68.2499968757631,4|0,1:0|0:0,0:0:0:0:
128,144,97094,2,0,L|208:144,1,68.2499968757631,2|0,0:0|0:0,0:0:0:0:
384,96,97287,6,0,L|480:96,1,68.2499968757631,4|0,1:0|0:0,0:0:0:0:
176,96,97481,2,0,L|96:96,1,68.2499968757631,2|0,0:0|0:0,0:0:0:0:
416,192,97674,5,4,1:0:0:0:
64,192,97868,2,0,L|160:192,2,68.2499968757631,0|0|8,1:0|0:0|0:0,0:0:0:0:
336,192,98255,1,8,0:0:0:0:
176,192,98448,5,0,1:0:0:0:
480,144,98642,1,8,0:0:0:0:
176,128,98836,1,0,1:0:0:0:
480,80,99029,1,8,0:0:0:0:
384,192,99223,5,4,1:0:0:0:
32,192,99417,2,0,L|128:192,2,68.2499968757631,0|0|0,1:0|0:0|0:0,0:0:0:0:
304,192,99804,1,8,0:0:0:0:
448,192,99997,5,0,1:0:0:0:
160,192,100191,1,8,0:0:0:0:
448,192,100385,1,0,1:0:0:0:
160,192,100578,1,8,0:0:0:0:
32,192,100771,5,4,1:0:0:0:
400,144,100965,2,0,L|320:144,1,68.2499968757631,0|0,1:0|0:0,0:0:0:0:
32,112,101158,1,8,0:0:0:0:
176,112,101352,1,8,0:0:0:0:
448,112,101545,5,0,1:0:0:0:
128,112,101739,1,8,0:0:0:0:
448,192,101932,1,0,1:0:0:0:
48,192,102126,1,8,0:0:0:0:
384,192,102319,6,0,L|304:192,1,68.2499968757631,4|0,1:0|0:0,0:0:0:0:
144,192,102513,1,2,0:0:0:0:
84,168,102609,1,0,0:0:0:0:
89,105,102706,5,4,1:0:0:0:
151,91,102803,1,0,0:0:0:0:
320,80,102900,2,0,L|416:80,1,68.2499968757631,2|0,0:0|0:0,0:0:0:0:
144,64,103094,6,0,L|80:16,3,68.2499968757631,4|0|0|0,1:0|0:0|0:0|0:0,0:0:0:0:
368,64,103481,6,0,L|432:16,3,68.2499968757631,4|0|0|0,1:0|0:0|0:0|0:0,0:0:0:0:
64,112,103868,1,4,1:0:0:0:
256,192,104061,12,0,105029,0:0:0:0:
256,192,105416,12,4,108513,0:0:0:0:
