osu file format v14

[General]
AudioFilename: SHK - Halloween Party.mp3
AudioLeadIn: 0
PreviewTime: 57427
Countdown: 0
SampleSet: None
StackLeniency: 0.7
Mode: 3
LetterboxInBreaks: 0
SpecialStyle: 0
WidescreenStoryboard: 0

[Editor]
DistanceSpacing: 2
BeatDivisor: 4
GridSize: 4
TimelineZoom: 2

[Metadata]
Title:Halloween Party
TitleUnicode:Halloween Party
Artist:SHK
ArtistUnicode:SHK
Creator:-Drake-
Version:Pumpkin(old version ignore)
Source:Cytus
Tags:Halloween Witch Spooky soundholick chapter 10 ten the new world 할로윈 파티 사이터스
BeatmapID:815689
BeatmapSetID:372431

[Difficulty]
HPDrainRate:7.5
CircleSize:4
OverallDifficulty:8
ApproachRate:5
SliderMultiplier:1.4
SliderTickRate:1

[Events]
//Background and Video events
0,0,"Konachan.com - 208459.jpg",0,0
//Break Periods
//Storyboard Layer 0 (Background)
//Storyboard Layer 1 (Fail)
//Storyboard Layer 2 (Pass)
//Storyboard Layer 3 (Foreground)
//Storyboard Sound Samples

[TimingPoints]
-1411.53157234429,387.096774193548,4,1,0,100,1,0

[HitObjects]
64,192,3233,5,0,0:0:0:0:
192,192,3330,1,0,0:0:0:0:
320,192,3427,1,0,0:0:0:0:
448,192,3523,128,0,3911:0:0:0:0:
64,192,3620,1,0,0:0:0:0:
192,192,3717,1,0,0:0:0:0:
320,192,3814,1,0,0:0:0:0:
192,192,3911,1,0,0:0:0:0:
64,192,4007,128,0,4394:0:0:0:0:
192,192,4104,1,0,0:0:0:0:
320,192,4201,1,0,0:0:0:0:
448,192,4298,1,0,0:0:0:0:
320,192,4394,1,0,0:0:0:0:
448,192,4782,1,0,0:0:0:0:
64,192,4975,1,0,0:0:0:0:
192,192,4975,1,0,0:0:0:0:
320,192,5169,1,0,0:0:0:0:
64,192,5362,1,0,0:0:0:0:
448,192,5362,1,0,0:0:0:0:
192,192,5556,1,0,0:0:0:0:
320,192,5749,1,0,0:0:0:0:
64,192,5749,1,0,0:0:0:0:
448,192,5943,1,0,0:0:0:0:
192,192,6136,128,0,6330:0:0:0:0:
320,192,6136,128,0,6330:0:0:0:0:
64,192,6330,1,0,0:0:0:0:
448,192,6330,1,0,0:0:0:0:
320,192,6523,1,0,0:0:0:0:
64,192,6717,1,0,0:0:0:0:
192,192,6717,1,0,0:0:0:0:
64,192,6911,1,0,0:0:0:0:
320,192,7104,1,0,0:0:0:0:
448,192,7104,1,0,0:0:0:0:
64,192,7298,1,0,0:0:0:0:
192,192,7491,128,0,7685:0:0:0:0:
448,192,7491,128,0,7685:0:0:0:0:
320,192,7685,1,0,0:0:0:0:
64,192,7685,1,0,0:0:0:0:
192,192,7878,1,0,0:0:0:0:
320,192,8072,1,0,0:0:0:0:
448,192,8072,1,0,0:0:0:0:
320,192,8265,1,0,0:0:0:0:
64,192,8459,1,0,0:0:0:0:
192,192,8459,1,0,0:0:0:0:
320,192,8652,1,0,0:0:0:0:
192,192,8846,1,0,0:0:0:0:
448,192,8846,1,0,0:0:0:0:
64,192,9040,128,0,9233:0:0:0:0:
448,192,9040,128,0,9233:0:0:0:0:
320,192,9233,1,0,0:0:0:0:
192,192,9233,1,0,0:0:0:0:
192,192,9427,1,0,0:0:0:0:
64,192,9620,1,0,0:0:0:0:
192,192,9620,1,0,0:0:0:0:
320,192,9814,1,0,0:0:0:0:
448,192,9814,1,0,0:0:0:0:
320,192,10007,1,0,0:0:0:0:
64,192,10201,1,0,0:0:0:0:
192,192,10201,1,0,0:0:0:0:
64,192,10394,1,0,0:0:0:0:
320,192,10588,128,0,10782:0:0:0:0:
448,192,10588,128,0,10782:0:0:0:0:
192,192,10782,1,0,0:0:0:0:
64,192,10878,1,0,0:0:0:0:
192,192,10975,1,0,0:0:0:0:
320,192,11072,1,0,0:0:0:0:
448,192,11169,1,0,0:0:0:0:
320,192,11265,1,0,0:0:0:0:
64,192,11362,1,0,0:0:0:0:
320,192,11556,1,0,0:0:0:0:
64,192,11556,1,0,0:0:0:0:
192,192,11749,1,0,0:0:0:0:
320,192,11943,1,0,0:0:0:0:
448,192,11943,1,0,0:0:0:0:
320,192,12136,128,0,12330:0:0:0:0:
64,192,12330,1,0,0:0:0:0:
192,192,12330,1,0,0:0:0:0:
320,192,12523,1,0,0:0:0:0:
448,192,12717,1,0,0:0:0:0:
64,192,12717,128,0,13104:0:0:0:0:
192,192,12911,1,0,0:0:0:0:
448,192,13104,1,0,0:0:0:0:
192,192,13298,128,0,13491:0:0:0:0:
320,192,13491,1,0,0:0:0:0:
448,192,13491,1,0,0:0:0:0:
320,192,13685,128,0,13878:0:0:0:0:
64,192,13878,1,0,0:0:0:0:
192,192,13878,1,0,0:0:0:0:
448,192,14072,1,0,0:0:0:0:
320,192,14265,1,0,0:0:0:0:
64,192,14265,1,0,0:0:0:0:
448,192,14459,1,0,0:0:0:0:
192,192,14652,1,0,0:0:0:0:
64,192,14652,1,0,0:0:0:0:
448,192,14846,1,0,0:0:0:0:
192,192,15040,1,0,0:0:0:0:
448,192,15040,1,0,0:0:0:0:
64,192,15233,1,0,0:0:0:0:
320,192,15427,1,0,0:0:0:0:
64,192,15427,1,0,0:0:0:0:
320,192,15620,1,0,0:0:0:0:
448,192,15620,1,0,0:0:0:0:
320,192,15814,1,0,0:0:0:0:
448,192,15814,1,0,0:0:0:0:
64,192,16007,1,0,0:0:0:0:
320,192,16007,1,0,0:0:0:0:
64,192,16201,1,0,0:0:0:0:
320,192,16201,1,0,0:0:0:0:
192,192,16394,1,0,0:0:0:0:
320,192,16394,1,0,0:0:0:0:
192,192,16588,1,0,0:0:0:0:
320,192,16588,1,0,0:0:0:0:
64,192,16782,1,0,0:0:0:0:
448,192,16782,1,0,0:0:0:0:
64,192,16975,1,0,0:0:0:0:
192,192,16975,1,0,0:0:0:0:
320,192,16975,1,0,0:0:0:0:
192,192,17169,128,0,17556:0:0:0:0:
320,192,17169,128,0,17556:0:0:0:0:
448,192,17169,128,0,17556:0:0:0:0:
320,192,17749,128,0,18136:0:0:0:0:
192,192,17749,128,0,18330:0:0:0:0:
64,192,17749,128,0,18523:0:0:0:0:
448,192,18717,1,0,0:0:0:0:
320,192,18814,1,0,0:0:0:0:
448,192,18911,1,0,0:0:0:0:
64,192,19007,1,0,0:0:0:0:
192,192,19104,1,0,0:0:0:0:
320,192,19201,1,0,0:0:0:0:
448,192,19298,1,0,0:0:0:0:
64,192,19298,1,0,0:0:0:0:
320,192,19394,1,0,0:0:0:0:
192,192,19491,1,0,0:0:0:0:
64,192,19588,1,0,0:0:0:0:
320,192,19588,1,0,0:0:0:0:
192,192,19685,1,0,0:0:0:0:
448,192,19685,1,0,0:0:0:0:
320,192,19782,1,0,0:0:0:0:
64,192,19782,1,0,0:0:0:0:
192,192,19878,1,0,0:0:0:0:
448,192,19878,1,0,0:0:0:0:
64,192,19975,1,0,0:0:0:0:
320,192,19975,1,0,0:0:0:0:
192,192,20072,1,0,0:0:0:0:
448,192,20072,1,0,0:0:0:0:
320,192,20265,1,0,0:0:0:0:
64,192,20265,1,0,0:0:0:0:
192,192,20459,1,0,0:0:0:0:
320,192,20652,1,0,0:0:0:0:
448,192,20652,1,0,0:0:0:0:
320,192,20846,1,0,0:0:0:0:
64,192,21040,1,0,0:0:0:0:
192,192,21040,1,0,0:0:0:0:
64,192,21233,1,0,0:0:0:0:
448,192,21427,1,0,0:0:0:0:
64,192,21620,1,0,0:0:0:0:
320,192,21620,1,0,0:0:0:0:
448,192,21814,1,0,0:0:0:0:
64,192,21814,1,0,0:0:0:0:
192,192,22007,1,0,0:0:0:0:
320,192,22007,1,0,0:0:0:0:
64,192,22201,128,0,22394:0:0:0:0:
448,192,22201,128,0,22394:0:0:0:0:
192,192,22394,1,0,0:0:0:0:
320,192,22394,1,0,0:0:0:0:
192,192,22975,1,0,0:0:0:0:
320,192,22975,1,0,0:0:0:0:
64,192,22975,1,0,0:0:0:0:
448,192,22975,1,0,0:0:0:0:
64,192,23362,1,0,0:0:0:0:
320,192,23556,1,0,0:0:0:0:
192,192,23556,1,0,0:0:0:0:
192,192,23749,1,0,0:0:0:0:
448,192,23943,1,0,0:0:0:0:
320,192,23943,1,0,0:0:0:0:
320,192,24136,1,0,0:0:0:0:
448,192,24330,1,0,0:0:0:0:
64,192,24330,1,0,0:0:0:0:
192,192,24523,1,0,0:0:0:0:
448,192,24523,1,0,0:0:0:0:
64,192,24717,1,0,0:0:0:0:
320,192,24717,1,0,0:0:0:0:
448,192,24911,1,0,0:0:0:0:
192,192,24911,1,0,0:0:0:0:
192,192,25104,1,0,0:0:0:0:
320,192,25104,1,0,0:0:0:0:
64,192,25298,128,0,25491:0:0:0:0:
448,192,25298,128,0,25491:0:0:0:0:
192,192,25491,1,0,0:0:0:0:
320,192,25491,1,0,0:0:0:0:
192,192,26072,1,0,0:0:0:0:
320,192,26072,1,0,0:0:0:0:
64,192,26072,1,0,0:0:0:0:
448,192,26072,1,0,0:0:0:0:
192,192,26459,1,0,0:0:0:0:
448,192,26459,1,0,0:0:0:0:
320,192,26652,1,0,0:0:0:0:
64,192,26652,1,0,0:0:0:0:
192,192,26846,1,0,0:0:0:0:
64,192,26846,1,0,0:0:0:0:
64,192,27040,1,0,0:0:0:0:
320,192,27233,1,0,0:0:0:0:
64,192,27233,1,0,0:0:0:0:
448,192,27427,1,0,0:0:0:0:
448,192,27620,1,0,0:0:0:0:
320,192,27814,1,0,0:0:0:0:
448,192,27814,1,0,0:0:0:0:
448,192,28007,1,0,0:0:0:0:
320,192,28201,1,0,0:0:0:0:
192,192,28201,1,0,0:0:0:0:
192,192,28394,128,0,28588:0:0:0:0:
320,192,28394,128,0,28588:0:0:0:0:
64,192,28588,1,0,0:0:0:0:
448,192,28588,1,0,0:0:0:0:
64,192,29169,1,0,0:0:0:0:
448,192,29169,1,0,0:0:0:0:
192,192,29169,1,0,0:0:0:0:
320,192,29169,1,0,0:0:0:0:
320,192,29556,1,0,0:0:0:0:
64,192,29556,1,0,0:0:0:0:
192,192,29749,1,0,0:0:0:0:
320,192,29943,1,0,0:0:0:0:
448,192,29943,1,0,0:0:0:0:
320,192,30136,1,0,0:0:0:0:
64,192,30330,1,0,0:0:0:0:
192,192,30330,1,0,0:0:0:0:
64,192,30523,1,0,0:0:0:0:
448,192,30717,1,0,0:0:0:0:
64,192,30911,1,0,0:0:0:0:
320,192,30911,1,0,0:0:0:0:
448,192,31104,1,0,0:0:0:0:
64,192,31104,1,0,0:0:0:0:
192,192,31298,1,0,0:0:0:0:
320,192,31298,1,0,0:0:0:0:
64,192,31491,128,0,31685:0:0:0:0:
448,192,31491,128,0,31685:0:0:0:0:
192,192,31685,1,0,0:0:0:0:
320,192,31685,1,0,0:0:0:0:
320,192,32265,1,0,0:0:0:0:
448,192,32265,1,0,0:0:0:0:
64,192,32459,1,0,0:0:0:0:
192,192,32556,1,0,0:0:0:0:
320,192,32652,128,0,33620:0:0:0:0:
448,192,32652,128,0,33620:0:0:0:0:
192,192,33814,128,0,34007:0:0:0:0:
320,192,34007,1,0,0:0:0:0:
64,192,34201,128,0,34685:0:0:0:0:
192,192,34782,1,0,0:0:0:0:
320,192,34878,1,0,0:0:0:0:
448,192,34975,128,0,35556:0:0:0:0:
320,192,35556,1,0,0:0:0:0:
192,192,35556,1,0,0:0:0:0:
64,192,35556,1,0,0:0:0:0:
320,192,35749,128,0,36136:0:0:0:0:
