osu file format v14

[General]
AudioFilename: SHK - Halloween Party.mp3
AudioLeadIn: 0
PreviewTime: 57427
Countdown: 0
SampleSet: Normal
StackLeniency: 0.7
Mode: 3
LetterboxInBreaks: 0
SpecialStyle: 0
WidescreenStoryboard: 1

[Editor]
Bookmarks: 52782,54330
DistanceSpacing: 2
BeatDivisor: 1
GridSize: 4
TimelineZoom: 0.8999997

[Metadata]
Title:Halloween Party
TitleUnicode:Halloween Party
Artist:SHK
ArtistUnicode:SHK
Creator:-Drake-
Version:Candle
Source:Cytus
Tags:Halloween Witch Spooky soundholick chapter 10 ten the new world 할로윈 파티 사이터스
BeatmapID:815687
BeatmapSetID:372431

[Difficulty]
HPDrainRate:7.5
CircleSize:4
OverallDifficulty:8
ApproachRate:5
SliderMultiplier:1.4
SliderTickRate:1

[Events]
//Background and Video events
0,0,"BG EDITED.jpg",0,0
//Break Periods
//Storyboard Layer 0 (Background)
//Storyboard Layer 1 (Fail)
//Storyboard Layer 2 (Pass)
//Storyboard Layer 3 (Foreground)
//Storyboard Sound Samples

[TimingPoints]
-1411.53157234429,387.096774193548,4,1,0,100,1,0
45040,-100,4,1,0,100,0,0
51233,-100,4,1,0,100,0,1

[HitObjects]
448,192,4782,5,0,0:0:0:0:
320,192,5169,1,0,0:0:0:0:
64,192,5556,1,0,0:0:0:0:
192,192,5943,128,0,6330:0:0:0:0:
320,192,6330,1,0,0:0:0:0:
192,192,6717,1,0,0:0:0:0:
64,192,7104,128,0,7491:0:0:0:0:
320,192,7491,1,0,0:0:0:0:
448,192,7878,1,0,0:0:0:0:
320,192,8265,1,0,0:0:0:0:
192,192,8652,1,0,0:0:0:0:
448,192,9040,128,0,9427:0:0:0:0:
320,192,9427,1,0,0:0:0:0:
192,192,9814,1,0,0:0:0:0:
448,192,10201,1,0,0:0:0:0:
320,192,10588,128,0,10975:0:0:0:0:
192,192,10975,1,0,0:0:0:0:
320,192,11362,1,0,0:0:0:0:
448,192,11749,1,0,0:0:0:0:
192,192,12136,1,0,0:0:0:0:
64,192,12523,128,0,12911:0:0:0:0:
192,192,12911,1,0,0:0:0:0:
320,192,13298,1,0,0:0:0:0:
448,192,13685,1,0,0:0:0:0:
320,192,14072,128,0,14459:0:0:0:0:
192,192,14072,128,0,14459:0:0:0:0:
64,192,14459,1,0,0:0:0:0:
192,192,14846,1,0,0:0:0:0:
448,192,15233,1,0,0:0:0:0:
320,192,15620,1,0,0:0:0:0:
448,192,15814,1,0,0:0:0:0:
192,192,16007,1,0,0:0:0:0:
64,192,16201,1,0,0:0:0:0:
320,192,16394,1,0,0:0:0:0:
448,192,16588,1,0,0:0:0:0:
192,192,16782,1,0,0:0:0:0:
64,192,16975,1,0,0:0:0:0:
192,192,17169,128,0,17749:0:0:0:0:
320,192,17169,128,0,17749:0:0:0:0:
64,192,17749,128,0,18523:0:0:0:0:
448,192,17749,128,0,18523:0:0:0:0:
320,192,18911,1,0,0:0:0:0:
448,192,19104,1,0,0:0:0:0:
192,192,19298,1,0,0:0:0:0:
320,192,19491,1,0,0:0:0:0:
64,192,19685,1,0,0:0:0:0:
192,192,19878,1,0,0:0:0:0:
448,192,20072,1,0,0:0:0:0:
320,192,20265,1,0,0:0:0:0:
192,192,20265,1,0,0:0:0:0:
64,192,20652,1,0,0:0:0:0:
192,192,21040,1,0,0:0:0:0:
320,192,21040,1,0,0:0:0:0:
448,192,21427,1,0,0:0:0:0:
192,192,21814,128,0,22201:0:0:0:0:
320,192,22201,1,0,0:0:0:0:
64,192,22975,1,0,0:0:0:0:
448,192,22975,1,0,0:0:0:0:
192,192,23362,1,0,0:0:0:0:
320,192,23749,1,0,0:0:0:0:
448,192,24136,1,0,0:0:0:0:
320,192,24523,1,0,0:0:0:0:
64,192,24911,128,0,25298:0:0:0:0:
192,192,25298,1,0,0:0:0:0:
448,192,26072,1,0,0:0:0:0:
320,192,26072,1,0,0:0:0:0:
64,192,26459,1,0,0:0:0:0:
192,192,26846,1,0,0:0:0:0:
320,192,27233,1,0,0:0:0:0:
192,192,27620,1,0,0:0:0:0:
64,192,28007,128,0,28394:0:0:0:0:
320,192,28394,1,0,0:0:0:0:
192,192,29169,1,0,0:0:0:0:
320,192,29169,1,0,0:0:0:0:
