osu file format v14

[General]
AudioFilename: audio.mp3
AudioLeadIn: 0
PreviewTime: 28660
Countdown: 0
SampleSet: Soft
StackLeniency: 0.7
Mode: 3
LetterboxInBreaks: 0
CountdownOffset: 3
SpecialStyle: 0
WidescreenStoryboard: 0

[Editor]
Bookmarks: 6983,13187,25574,28670,41058,53445,61187,67370,73574,81306,87499,93693,99886,106090,109187,112283
DistanceSpacing: 0.8
BeatDivisor: 4
GridSize: 4
TimelineZoom: 2.2

[Metadata]
Title:Follow Me
TitleUnicode:Follow Me
Artist:SHK
ArtistUnicode:SHK
Creator:Etsu
Version:NM
Source:Pump It Up Fiesta 2
Tags:soundholick vocaloid SeeU remix achsanlovers mentholzzz
BeatmapID:957580
BeatmapSetID:445784

[Difficulty]
HPDrainRate:7
CircleSize:4
OverallDifficulty:7
ApproachRate:5
SliderMultiplier:1.4
SliderTickRate:1

[Events]
//Background and Video events
0,0,"BG.jpg",0,0
Video,0,"Follow Me - SHK.flv"
//Break Periods
//Storyboard Layer 0 (Background)
//Storyboard Layer 1 (Fail)
//Storyboard Layer 2 (Pass)
//Storyboard Layer 3 (Foreground)
//Storyboard Layer 4 (Overlay)
//Storyboard Sound Samples

[TimingPoints]
790,387.096774193548,4,2,1,74,1,0
28660,-100,4,2,1,74,0,1
41048,-100,4,2,1,74,0,0
81306,-100,4,2,1,74,0,1
106080,-100,4,2,1,74,0,0

[HitObjects]
64,192,209,5,0,0:0:0:0:
192,192,402,1,0,0:0:0:0:
320,192,596,1,0,0:0:0:0:
448,192,790,1,0,0:0:0:0:
64,192,983,1,0,0:0:0:0:
320,192,1177,1,0,0:0:0:0:
192,192,1370,1,0,0:0:0:0:
64,192,1564,1,0,0:0:0:0:
448,192,1757,1,0,0:0:0:0:
192,192,1951,1,0,0:0:0:0:
320,192,2144,1,0,0:0:0:0:
448,192,2338,1,0,0:0:0:0:
320,192,2435,1,0,0:0:0:0:
192,192,2531,1,0,0:0:0:0:
64,192,2725,1,0,0:0:0:0:
448,192,2919,1,0,0:0:0:0:
64,192,3112,1,0,0:0:0:0:
448,192,3306,1,0,0:0:0:0:
192,192,3499,128,0,3886:0:0:0:0:
320,192,3886,1,0,0:0:0:0:
64,192,4080,1,0,0:0:0:0:
320,192,4273,1,0,0:0:0:0:
192,192,4467,1,0,0:0:0:0:
448,192,4660,1,0,0:0:0:0:
192,192,4854,1,0,0:0:0:0:
64,192,5048,1,0,0:0:0:0:
320,192,5241,1,0,0:0:0:0:
448,192,5435,1,0,0:0:0:0:
320,192,5822,1,0,0:0:0:0:
64,192,6209,1,0,0:0:0:0:
192,192,6596,1,0,0:0:0:100:drum_clap2.wav
320,192,6596,1,0,0:0:0:0:
64,192,6983,1,4,0:0:0:0:
448,192,6983,1,0,0:0:0:0:
320,192,7370,1,0,0:0:0:100:amsnare.wav
448,192,7370,1,0,0:0:0:0:
192,192,7757,1,0,0:0:0:0:
320,192,7951,1,0,0:0:0:0:
64,192,8144,1,0,0:0:0:100:amsnare.wav
448,192,8144,1,0,0:0:0:0:
320,192,8531,1,0,0:0:0:0:
64,192,8919,1,0,0:0:0:100:amsnare.wav
192,192,8919,1,0,0:0:0:0:
320,192,9306,1,0,0:0:0:0:
192,192,9499,1,0,0:0:0:0:
64,192,9693,1,0,0:0:0:100:amsnare.wav
448,192,9693,1,0,0:0:0:0:
320,192,10080,1,0,0:0:0:0:
192,192,10467,1,0,0:0:0:100:amsnare.wav
448,192,10467,1,0,0:0:0:0:
64,192,10854,1,0,0:0:0:0:
192,192,11048,1,0,0:0:0:0:
320,192,11241,1,0,0:0:0:100:amsnare.wav
448,192,11241,1,0,0:0:0:0:
192,192,11628,1,0,0:0:0:0:
64,192,12015,1,0,0:0:0:100:amsnare.wav
320,192,12015,1,0,0:0:0:0:
448,192,12402,1,0,0:0:0:0:
64,192,12596,1,0,0:0:0:0:
192,192,12789,1,0,0:0:0:100:drum_clap2.wav
320,192,12789,1,0,0:0:0:100:amsnare.wav
64,192,13177,1,4,0:0:0:0:
448,192,13177,1,0,0:0:0:0:
192,192,13370,1,0,0:0:0:0:
448,192,13564,1,0,0:0:0:100:amsnare.wav
192,192,13854,1,0,0:0:0:0:
320,192,13951,1,0,0:0:0:0:
64,192,14144,1,0,0:0:0:0:
448,192,14338,1,0,0:0:0:100:amsnare.wav
320,192,14531,1,0,0:0:0:0:
192,192,14725,1,0,0:0:0:0:
448,192,14919,1,0,0:0:0:0:
64,192,15112,1,0,0:0:0:100:amsnare.wav
192,192,15306,1,0,0:0:0:0:
320,192,15499,128,0,15886:0:0:0:0:
64,192,15886,1,0,0:0:0:100:amsnare.wav
448,192,16273,1,0,0:0:0:0:
64,192,16467,1,0,0:0:0:0:
192,192,16660,1,0,0:0:0:100:amsnare.wav
320,192,16951,1,0,0:0:0:0:
192,192,17048,1,0,0:0:0:0:
448,192,17241,1,0,0:0:0:0:
64,192,17435,1,0,0:0:0:100:amsnare.wav
192,192,17628,1,0,0:0:0:0:
320,192,17822,1,0,0:0:0:0:
64,192,18015,1,0,0:0:0:0:
448,192,18209,1,0,0:0:0:100:amsnare.wav
320,192,18402,1,0,0:0:0:0:
192,192,18596,128,0,18983:0:0:0:0:
448,192,18983,1,0,0:0:0:100:amsnare.wav
64,192,19370,1,0,0:0:0:0:
320,192,19564,1,0,0:0:0:0:
64,192,19757,1,0,0:0:0:100:amsnare.wav
192,192,19951,1,0,0:0:0:0:
448,192,20144,1,0,0:0:0:0:
320,192,20241,1,0,0:0:0:0:
64,192,20435,1,0,0:0:0:0:
192,192,20531,1,0,0:0:0:100:amsnare.wav
320,192,20725,1,0,0:0:0:0:
192,192,20919,1,0,0:0:0:0:
448,192,21112,1,0,0:0:0:0:
192,192,21306,1,0,0:0:0:100:amsnare.wav
320,192,21499,1,0,0:0:0:0:
64,192,21693,1,0,0:0:0:0:
192,192,21789,1,0,0:0:0:0:
448,192,21983,1,0,0:0:0:0:
320,192,22080,1,0,0:0:0:100:amsnare.wav
192,192,22273,1,0,0:0:0:0:
320,192,22467,1,0,0:0:0:0:
64,192,22660,1,0,0:0:0:0:
448,192,22854,1,0,0:0:0:100:amsnare.wav
192,192,23144,1,0,0:0:0:0:
320,192,23241,1,0,0:0:0:0:
448,192,23435,1,0,0:0:0:0:
64,192,23628,1,0,0:0:0:100:amsnare.wav
192,192,23822,1,0,0:0:0:0:
448,192,24015,1,0,0:0:0:0:
64,192,24209,1,0,0:0:0:0:
320,192,24402,1,0,0:0:0:100:amsnare.wav
192,192,24596,1,0,0:0:0:0:
448,192,24789,1,0,0:0:0:0:
64,192,25177,1,0,0:0:0:100:drum_clap2.wav
192,192,25177,1,0,0:0:0:100:amsnare.wav
320,192,25564,1,4,0:0:0:0:
448,192,25564,128,0,25757:0:0:0:0:
64,192,25757,128,0,25951:0:0:0:0:
320,192,25951,128,0,26144:0:0:0:0:
192,192,26144,128,0,26338:0:0:0:0:
448,192,26338,128,0,26531:0:0:0:0:
320,192,26531,128,0,26725:0:0:0:0:
192,192,26725,128,0,26919:0:0:0:0:
64,192,26919,128,0,27112:0:0:0:0:
448,192,27112,128,0,27499:0:0:0:0:
192,192,27499,128,0,27886:0:0:0:0:
320,192,27886,128,0,28273:0:0:0:0:
64,192,28273,1,0,0:0:0:0:
192,192,28467,1,0,0:0:0:100:drum_clap2.wav
320,192,28467,1,0,0:0:0:0:
64,192,28660,1,4,0:0:0:0:
448,192,28660,1,2,0:0:0:0:
448,192,29048,1,8,0:0:0:0:
320,192,29048,1,0,0:0:0:0:
192,192,29435,1,2,0:0:0:0:
320,192,29628,1,0,0:0:0:0:
64,192,29822,1,8,0:0:0:0:
448,192,29822,1,0,0:0:0:0:
192,192,30209,1,2,0:0:0:0:
64,192,30596,1,8,0:0:0:0:
320,192,30596,1,0,0:0:0:0:
448,192,30983,1,2,0:0:0:0:
320,192,31177,1,0,0:0:0:0:
64,192,31370,1,8,0:0:0:0:
192,192,31370,1,0,0:0:0:0:
320,192,31564,1,0,0:0:0:0:
192,192,31757,1,2,0:0:0:0:
64,192,32144,1,8,0:0:0:0:
448,192,32144,1,0,0:0:0:0:
320,192,32531,1,2,0:0:0:0:
192,192,32725,1,0,0:0:0:0:
64,192,32919,1,8,0:0:0:0:
448,192,32919,1,0,0:0:0:0:
320,192,33306,1,2,0:0:0:0:
192,192,33693,1,8,0:0:0:0:
448,192,33693,1,0,0:0:0:0:
64,192,34080,1,2,0:0:0:0:
192,192,34273,1,0,0:0:0:0:
320,192,34467,1,8,0:0:0:0:
448,192,34467,1,0,0:0:0:0:
192,192,34660,1,0,0:0:0:0:
64,192,34854,1,4,0:0:0:0:
448,192,34854,1,2,0:0:0:0:
64,192,35241,1,8,0:0:0:0:
192,192,35241,1,0,0:0:0:0:
448,192,35628,1,2,0:0:0:0:
192,192,35822,1,0,0:0:0:0:
64,192,36015,1,8,0:0:0:0:
320,192,36015,1,0,0:0:0:0:
448,192,36402,1,2,0:0:0:0:
192,192,36789,1,8,0:0:0:0:
320,192,36789,1,0,0:0:0:0:
64,192,37177,1,2,0:0:0:0:
320,192,37370,1,0,0:0:0:0:
192,192,37564,1,8,0:0:0:0:
448,192,37564,1,0,0:0:0:0:
64,192,37951,1,2,0:0:0:0:
448,192,38338,1,8,0:0:0:0:
320,192,38338,1,0,0:0:0:0:
192,192,38725,1,2,0:0:0:0:
320,192,38919,1,0,0:0:0:0:
64,192,39112,1,8,0:0:0:0:
448,192,39112,1,0,0:0:0:0:
320,192,39499,1,4,0:0:0:0:
448,192,39499,1,2,0:0:0:0:
64,192,39886,1,8,0:0:0:0:
192,192,39886,1,4,0:0:0:0:
64,192,40273,1,4,0:0:0:0:
448,192,40273,1,2,0:0:0:0:
192,192,40660,1,8,0:0:0:0:
320,192,40660,1,0,0:0:0:0:
64,192,41048,1,4,0:0:0:0:
448,192,41048,1,2,0:0:0:0:
192,192,41435,1,8,0:0:0:0:
448,192,41435,1,0,0:0:0:0:
320,192,41628,1,0,0:0:0:0:
64,192,41822,128,2,42209:0:0:0:0:
192,192,41822,1,0,0:0:0:0:
320,192,42209,1,8,0:0:0:0:
448,192,42209,128,0,42596:0:0:0:0:
64,192,42596,1,2,0:0:0:0:
320,192,42983,1,8,0:0:0:0:
192,192,42983,1,0,0:0:0:0:
64,192,43370,1,2,0:0:0:0:
192,192,43564,1,0,0:0:0:0:
320,192,43757,1,8,0:0:0:0:
448,192,43757,1,0,0:0:0:0:
64,192,44144,128,2,45306:0:0:0:0:
192,192,44144,1,0,0:0:0:0:
448,192,44531,1,8,0:0:0:0:
192,192,44919,1,2,0:0:0:0:
320,192,45306,128,8,45693:0:0:0:0:
448,192,45306,1,0,0:0:0:0:
64,192,45693,1,2,0:0:0:0:
192,192,45693,128,0,46467:0:0:0:0:
448,192,46080,1,8,0:0:0:0:
320,192,46467,1,2,0:0:0:0:
448,192,46467,128,0,47241:0:0:0:0:
64,192,46854,1,8,0:0:0:0:
192,192,47241,1,4,0:0:0:0:
320,192,47241,1,2,0:0:0:0:
64,192,47628,1,8,0:0:0:0:
448,192,47628,1,0,0:0:0:0:
192,192,47822,1,0,0:0:0:0:
320,192,48015,1,2,0:0:0:0:
448,192,48015,128,0,48402:0:0:0:0:
64,192,48402,128,8,48789:0:0:0:0:
192,192,48402,1,0,0:0:0:0:
320,192,48789,1,2,0:0:0:0:
192,192,49177,1,8,0:0:0:0:
448,192,49177,1,0,0:0:0:0:
320,192,49564,1,2,0:0:0:0:
192,192,49757,1,0,0:0:0:0:
64,192,49951,1,8,0:0:0:0:
448,192,49951,1,0,0:0:0:0:
64,192,50338,128,2,51499:0:0:0:0:
192,192,50338,1,0,0:0:0:0:
448,192,50725,1,8,0:0:0:0:
192,192,51112,1,2,0:0:0:0:
320,192,51499,1,8,0:0:0:0:
448,192,51499,128,0,51886:0:0:0:0:
64,192,51886,1,4,0:0:0:0:
192,192,51886,128,2,52660:0:0:0:0:
64,192,52273,1,8,0:0:0:0:
448,192,52273,1,4,0:0:0:0:
320,192,52660,1,4,0:0:0:0:
448,192,52660,128,2,53435:0:0:0:0:
64,192,53048,1,8,0:0:0:0:
192,192,53048,1,4,0:0:0:0:
64,192,53435,1,4,0:0:0:0:
320,192,53435,1,2,0:0:0:0:
192,192,53628,1,0,0:0:0:0:
448,192,53822,1,0,0:0:0:100:snare5.mp3
64,192,54015,1,0,0:0:0:0:
192,192,54209,1,0,0:0:0:0:
448,192,54402,1,0,0:0:0:0:
320,192,54596,1,0,0:0:0:100:snare5.mp3
192,192,54789,1,0,0:0:0:0:
64,192,54983,128,0,55177:0:0:0:0:
192,192,55177,128,0,55370:0:0:0:0:
448,192,55370,128,0,55564:0:0:0:100:snare5.mp3
320,192,55564,128,0,55757:0:0:0:0:
64,192,55757,128,0,55951:0:0:0:0:
192,192,55951,128,0,56144:0:0:0:0:
320,192,56144,128,0,56338:0:0:0:100:snare5.mp3
448,192,56338,128,0,56531:0:0:0:0:
64,192,56531,1,4,0:0:0:0:
192,192,56531,1,0,0:0:0:0:
320,192,56725,1,0,0:0:0:0:
64,192,56919,1,0,0:0:0:100:snare5.mp3
448,192,57112,1,0,0:0:0:0:
320,192,57306,1,0,0:0:0:0:
192,192,57499,1,0,0:0:0:0:
448,192,57693,1,0,0:0:0:100:snare5.mp3
64,192,57886,1,0,0:0:0:0:
320,192,58080,1,0,0:0:0:100:drum_clap2.wav
448,192,58080,128,0,58273:0:0:0:0:
64,192,58273,128,0,58467:0:0:0:0:
320,192,58467,128,0,58660:0:0:0:0:
192,192,58660,128,0,58854:0:0:0:0:
448,192,58854,128,0,59048:0:0:0:0:
320,192,59048,128,0,59241:0:0:0:0:
64,192,59241,128,0,59435:0:0:0:0:
192,192,59435,128,0,59628:0:0:0:0:
320,192,59628,1,4,0:0:0:0:
448,192,59628,1,0,0:0:0:0:
64,192,59628,128,0,60983:0:0:0:0:
448,192,60015,1,0,0:0:0:100:d_snare1.wav
448,192,60402,1,0,0:0:0:100:d_snare1.wav
448,192,60789,1,0,0:0:0:100:d_snare1.wav
192,192,60983,1,0,0:0:0:100:drum_clap2.wav
320,192,60983,1,0,0:0:0:0:
64,192,61177,1,4,0:0:0:0:
448,192,61177,1,0,0:0:0:0:
64,192,61564,1,0,0:0:0:100:amsnare.wav
192,192,61564,1,0,0:0:0:0:
448,192,61951,1,0,0:0:0:0:
192,192,62144,1,0,0:0:0:0:
64,192,62338,1,0,0:0:0:100:amsnare.wav
320,192,62338,1,0,0:0:0:0:
192,192,62725,1,0,0:0:0:0:
320,192,63112,1,0,0:0:0:100:amsnare.wav
448,192,63112,1,0,0:0:0:0:
64,192,63499,1,0,0:0:0:0:
320,192,63693,1,0,0:0:0:0:
192,192,63886,1,0,0:0:0:100:amsnare.wav
448,192,63886,1,0,0:0:0:0:
64,192,64273,1,0,0:0:0:0:
192,192,64660,1,0,0:0:0:100:amsnare.wav
448,192,64660,1,0,0:0:0:0:
320,192,65048,1,0,0:0:0:0:
192,192,65241,1,0,0:0:0:0:
64,192,65435,1,0,0:0:0:100:amsnare.wav
448,192,65435,1,0,0:0:0:0:
192,192,65822,1,0,0:0:0:0:
320,192,66209,1,0,0:0:0:100:amsnare.wav
64,192,66209,1,0,0:0:0:0:
448,192,66596,1,0,0:0:0:0:
64,192,66789,1,0,0:0:0:0:
192,192,66983,1,0,0:0:0:100:drum_clap2.wav
320,192,66983,1,0,0:0:0:100:amsnare.wav
448,192,67370,1,4,0:0:0:0:
64,192,67370,1,2,0:0:0:0:
320,192,67757,1,0,0:0:0:0:
192,192,68048,1,0,0:0:0:0:
320,192,68144,1,0,0:0:0:0:
64,192,68338,1,0,0:0:0:0:
448,192,68531,1,0,0:0:0:0:
64,192,68919,1,0,0:0:0:0:
192,192,69112,1,0,0:0:0:0:
448,192,69306,1,0,0:0:0:0:
320,192,69499,1,0,0:0:0:0:
192,192,69693,1,0,0:0:0:0:
64,192,70080,1,0,0:0:0:0:
320,192,70467,1,2,0:0:0:0:
64,192,70854,1,0,0:0:0:0:
320,192,71144,1,0,0:0:0:0:
192,192,71241,1,0,0:0:0:0:
448,192,71435,1,0,0:0:0:0:
64,192,71628,1,0,0:0:0:0:
448,192,72015,1,0,0:0:0:0:
320,192,72209,1,0,0:0:0:0:
64,192,72402,1,0,0:0:0:0:
192,192,72596,1,0,0:0:0:0:
320,192,72789,1,0,0:0:0:0:
448,192,73177,1,0,0:0:0:0:
320,192,73273,1,0,0:0:0:0:
192,192,73370,1,0,0:0:0:0:
64,192,73564,1,4,0:0:0:0:
448,192,73564,1,2,0:0:0:0:
320,192,73951,1,2,0:0:0:0:
64,192,74338,1,2,0:0:0:0:
448,192,74725,1,2,0:0:0:0:
192,192,75112,1,2,0:0:0:0:
448,192,75499,1,2,0:0:0:0:
64,192,75886,1,2,0:0:0:0:
320,192,76273,1,2,0:0:0:0:
192,192,76660,1,2,0:0:0:0:
448,192,77048,1,2,0:0:0:0:
64,192,77435,1,2,0:0:0:0:
448,192,77822,1,2,0:0:0:0:
64,192,78209,1,4,0:0:0:0:
192,192,78209,1,2,0:0:0:0:
320,192,78596,1,4,0:0:0:0:
448,192,78596,1,2,0:0:0:0:
64,192,78983,1,2,0:0:0:0:
448,192,79177,128,0,79757:0:0:0:0:
64,192,79757,128,0,80144:0:0:0:0:
320,192,80144,128,0,80531:0:0:0:0:
192,192,80531,128,0,80919:0:0:0:0:
448,192,80919,1,0,0:0:0:0:
192,192,81112,1,0,0:0:0:100:drum_clap2.wav
320,192,81112,1,0,0:0:0:0:
64,192,81306,1,4,0:0:0:0:
448,192,81306,1,0,0:0:0:0:
320,192,81693,1,8,0:0:0:0:
64,192,81693,1,0,0:0:0:0:
192,192,81886,1,0,0:0:0:0:
448,192,82080,128,2,82467:0:0:0:0:
320,192,82080,1,0,0:0:0:0:
192,192,82467,1,8,0:0:0:0:
64,192,82467,128,0,82854:0:0:0:0:
448,192,82854,1,2,0:0:0:0:
64,192,83241,1,8,0:0:0:0:
192,192,83241,1,0,0:0:0:0:
320,192,83628,1,2,0:0:0:0:
192,192,83822,1,0,0:0:0:0:
64,192,84015,1,8,0:0:0:0:
448,192,84015,1,0,0:0:0:0:
64,192,84402,128,2,85564:0:0:0:0:
192,192,84402,1,0,0:0:0:0:
448,192,84789,1,8,0:0:0:0:
192,192,85177,1,2,0:0:0:0:
320,192,85564,128,8,85951:0:0:0:0:
448,192,85564,1,0,0:0:0:0:
64,192,85951,1,2,0:0:0:0:
192,192,85951,128,0,86725:0:0:0:0:
320,192,86338,1,8,0:0:0:0:
64,192,86725,1,2,0:0:0:0:
448,192,86725,128,0,87499:0:0:0:0:
192,192,87112,1,8,0:0:0:0:
64,192,87499,1,4,0:0:0:0:
320,192,87499,1,2,0:0:0:0:
192,192,87886,1,8,0:0:0:0:
448,192,87886,1,0,0:0:0:0:
320,192,88080,1,0,0:0:0:0:
192,192,88273,1,2,0:0:0:0:
64,192,88273,128,0,88660:0:0:0:0:
448,192,88660,128,8,89048:0:0:0:0:
320,192,88660,1,0,0:0:0:0:
64,192,89048,1,2,0:0:0:0:
448,192,89435,1,8,0:0:0:0:
192,192,89435,1,0,0:0:0:0:
64,192,89822,1,2,0:0:0:0:
192,192,90015,1,0,0:0:0:0:
448,192,90209,1,8,0:0:0:0:
320,192,90209,1,0,0:0:0:0:
64,192,90596,128,2,91757:0:0:0:0:
192,192,90596,1,0,0:0:0:0:
448,192,90983,1,8,0:0:0:0:
192,192,91370,1,2,0:0:0:0:
320,192,91757,1,8,0:0:0:0:
448,192,91757,128,0,92144:0:0:0:0:
64,192,92144,1,4,0:0:0:0:
192,192,92144,128,2,92919:0:0:0:0:
64,192,92531,1,8,0:0:0:0:
448,192,92531,1,4,0:0:0:0:
320,192,92919,1,4,0:0:0:0:
448,192,92919,128,2,93693:0:0:0:0:
64,192,93306,1,8,0:0:0:0:
192,192,93306,1,4,0:0:0:0:
64,192,93693,1,4,0:0:0:0:
320,192,93693,1,2,0:0:0:0:
192,192,94080,1,8,0:0:0:0:
448,192,94080,1,0,0:0:0:0:
320,192,94273,1,0,0:0:0:0:
64,192,94467,1,2,0:0:0:0:
448,192,94467,128,0,94854:0:0:0:0:
64,192,94854,128,8,95241:0:0:0:0:
320,192,94854,1,0,0:0:0:0:
448,192,95241,1,2,0:0:0:0:
64,192,95628,1,8,0:0:0:0:
320,192,95628,1,0,0:0:0:0:
192,192,96015,1,2,0:0:0:0:
320,192,96209,1,0,0:0:0:0:
64,192,96402,1,8,0:0:0:0:
448,192,96402,1,0,0:0:0:0:
64,192,96789,128,2,97951:0:0:0:0:
192,192,96789,1,0,0:0:0:0:
448,192,97177,1,8,0:0:0:0:
192,192,97564,1,2,0:0:0:0:
320,192,97951,128,8,98338:0:0:0:0:
448,192,97951,1,0,0:0:0:0:
64,192,98338,1,2,0:0:0:0:
448,192,98338,128,0,99112:0:0:0:0:
192,192,98725,1,8,0:0:0:0:
320,192,99112,1,2,0:0:0:0:
192,192,99112,128,0,99886:0:0:0:0:
64,192,99499,1,8,0:0:0:0:
320,192,99886,1,4,0:0:0:0:
448,192,99886,1,2,0:0:0:0:
448,192,100273,1,8,0:0:0:0:
64,192,100273,1,0,0:0:0:0:
320,192,100467,1,0,0:0:0:0:
64,192,100660,128,2,101048:0:0:0:0:
192,192,100660,1,0,0:0:0:0:
320,192,101048,1,8,0:0:0:0:
448,192,101048,128,0,101435:0:0:0:0:
64,192,101435,1,2,0:0:0:0:
448,192,101822,1,8,0:0:0:0:
192,192,101822,1,0,0:0:0:0:
320,192,102209,1,2,0:0:0:0:
192,192,102402,1,0,0:0:0:0:
64,192,102596,1,8,0:0:0:0:
448,192,102596,1,0,0:0:0:0:
192,192,102983,1,0,0:0:0:0:
448,192,103370,1,8,0:0:0:0:
320,192,103370,1,0,0:0:0:0:
64,192,103757,1,2,0:0:0:0:
320,192,103951,1,0,0:0:0:0:
448,192,104144,1,8,0:0:0:0:
64,192,104144,1,0,0:0:0:0:
192,192,104338,1,0,0:0:0:0:
320,192,104531,1,4,0:0:0:0:
448,192,104531,1,2,0:0:0:0:
192,192,104919,1,8,0:0:0:0:
64,192,104919,1,4,0:0:0:0:
320,192,105306,1,4,0:0:0:0:
448,192,105306,1,2,0:0:0:0:
64,192,105693,1,8,0:0:0:0:
192,192,105693,1,4,0:0:0:0:
64,192,106080,1,4,0:0:0:0:
448,192,106080,1,2,0:0:0:0:
192,192,106854,1,4,0:0:0:0:
320,192,106854,1,0,0:0:0:0:
192,192,107241,1,4,0:0:0:0:
320,192,107241,1,0,0:0:0:0:
448,192,107628,128,0,107822:0:0:0:0:
320,192,107822,128,0,108015:0:0:0:0:
64,192,108015,128,0,108209:0:0:0:0:
192,192,108209,128,0,108402:0:0:0:0:
448,192,108402,128,0,108596:0:0:0:0:
320,192,108596,128,0,108789:0:0:0:0:
192,192,108789,128,0,108983:0:0:0:0:
64,192,108983,128,0,109177:0:0:0:0:
320,192,109177,1,4,0:0:0:0:
448,192,109177,1,0,0:0:0:0:
192,192,109370,1,0,0:0:0:0:
448,192,109564,1,0,0:0:0:100:amsnare.wav
320,192,109854,1,0,0:0:0:0:
192,192,109951,1,0,0:0:0:0:
448,192,110144,1,0,0:0:0:0:
64,192,110338,1,0,0:0:0:100:amsnare.wav
192,192,110531,1,0,0:0:0:0:
320,192,110725,1,0,0:0:0:0:
64,192,110919,1,0,0:0:0:0:
448,192,111112,1,0,0:0:0:100:amsnare.wav
192,192,111306,1,0,0:0:0:0:
64,192,111499,1,4,0:0:0:0:
448,192,111499,1,2,0:0:0:0:
448,192,112273,1,4,0:0:0:0:
320,192,112273,1,0,0:0:0:0:
64,192,112467,1,0,0:0:0:0:
448,192,112660,1,0,0:0:0:100:amsnare.wav
192,192,112951,1,0,0:0:0:0:
320,192,113048,1,0,0:0:0:0:
64,192,113241,1,0,0:0:0:0:
448,192,113435,1,0,0:0:0:100:amsnare.wav
320,192,113628,1,0,0:0:0:0:
192,192,113822,1,0,0:0:0:0:
448,192,114015,1,0,0:0:0:0:
64,192,114209,1,0,0:0:0:100:amsnare.wav
320,192,114402,1,0,0:0:0:0:
448,192,114596,1,4,0:0:0:0:
64,192,114596,1,2,0:0:0:0:
64,192,115370,1,0,0:0:0:0:
192,192,115564,1,0,0:0:0:0:
448,192,115757,1,0,0:0:0:100:amsnare.wav
320,192,115951,1,0,0:0:0:0:
64,192,116144,1,4,0:0:0:0:
192,192,116144,1,2,0:0:0:0:
64,192,116919,1,4,0:0:0:0:
448,192,116919,1,2,0:0:0:0:
192,192,117112,1,0,0:0:0:0:
64,192,117306,1,4,0:0:0:0:
448,192,117306,1,0,0:0:0:100:amsnare.wav
320,192,117499,1,0,0:0:0:0:
64,192,117693,1,4,0:0:0:0:
192,192,117693,1,2,0:0:0:0:
