osu file format v14

[General]
AudioFilename: audio.mp3
AudioLeadIn: 0
PreviewTime: 49861
Countdown: 1
SampleSet: Normal
StackLeniency: 0.7
Mode: 0
LetterboxInBreaks: 0
WidescreenStoryboard: 1

[Editor]
DistanceSpacing: 1
BeatDivisor: 4
GridSize: 4
TimelineZoom: 1

[Metadata]
Title:East West Wobble
TitleUnicode:East West Wobble
Artist:SHK
ArtistUnicode:SHK
Creator:Nitronic Techno
Version:MarketPlace Turndown!
Source:Cytus
Tags:East West Wobble SHK Beat Nitro Dubstep Traditional Traditional_Dubstep
BeatmapID:1207139
BeatmapSetID:569464

[Difficulty]
HPDrainRate:6
CircleSize:5
OverallDifficulty:7
ApproachRate:8.5
SliderMultiplier:1.8
SliderTickRate:1

[Events]
//Background and Video events
0,0,"SHK_EWW.jpg",0,0
//Break Periods
//Storyboard Layer 0 (Background)
//Storyboard Layer 1 (Fail)
//Storyboard Layer 2 (Pass)
//Storyboard Layer 3 (Foreground)
//Storyboard Sound Samples

[TimingPoints]
1861,428.571428571429,4,1,0,60,1,0
4861,-200,4,1,0,60,0,0
5075,-200,4,1,0,5,0,0
5289,-111.111111111111,4,1,0,70,0,0
8718,-95.2380952380952,4,1,0,85,0,0
11289,-95.2380952380952,4,1,0,99,0,0
11932,-95.2380952380952,4,1,0,65,0,0
12146,-95.2380952380952,4,1,0,85,0,0
14718,-95.2380952380952,4,1,0,99,0,0
15361,-95.2380952380952,4,1,0,65,0,0
15575,-95.2380952380952,4,1,0,85,0,0
18575,-63.4920634920635,4,1,0,85,0,0
19003,-95.2380952380952,4,1,0,85,0,0
21146,-95.2380952380952,4,1,0,87,0,0
21253,-95.2380952380952,4,1,0,72,0,0
21360,-95.2380952380952,4,1,0,87,0,0
21468,-95.2380952380952,4,1,0,72,0,0
21575,-95.2380952380952,4,1,0,87,0,0
21682,-95.2380952380952,4,1,0,72,0,0
21789,-95.2380952380952,4,1,0,87,0,0
21896,-95.2380952380952,4,1,0,72,0,0
22003,-95.2380952380952,4,1,0,93,0,0
22111,-95.2380952380952,4,1,0,98,0,0
22218,-95.2380952380952,4,1,0,93,0,0
22326,-95.2380952380952,4,1,0,98,0,0
22432,-83.3333333333333,4,1,0,99,0,0
22539,-83.3333333333333,4,1,0,45,0,0
22753,-83.3333333333333,4,1,0,23,0,0
22861,-83.3333333333333,4,1,0,72,0,0
22968,-83.3333333333333,4,1,0,87,0,0
23075,-83.3333333333333,4,1,0,72,0,0
23182,-83.3333333333333,4,1,0,87,0,0
23289,-83.3333333333333,4,1,0,72,0,0
23396,-83.3333333333333,4,1,0,87,0,0
23503,-83.3333333333333,4,1,0,72,0,0
23611,-83.3333333333333,4,1,0,87,0,0
23718,-83.3333333333333,4,1,0,72,0,0
23825,-83.3333333333333,4,1,0,87,0,0
23932,-83.3333333333333,4,1,0,72,0,0
24039,-83.3333333333333,4,1,0,87,0,0
24146,-83.3333333333333,4,1,0,65,0,0
24896,-83.3333333333333,4,1,0,9,0,0
25003,-83.3333333333333,4,1,0,93,0,0
25111,-83.3333333333333,4,1,0,98,0,0
25218,-83.3333333333333,4,1,0,93,0,0
25326,-83.3333333333333,4,1,0,98,0,0
25432,-83.3333333333333,4,1,0,93,0,0
25540,-83.3333333333333,4,1,0,98,0,0
25646,-83.3333333333333,4,1,0,93,0,0
25754,-83.3333333333333,4,1,0,98,0,0
25861,-83.3333333333333,4,1,0,99,0,0
25968,-83.3333333333333,4,1,0,45,0,0
26182,-83.3333333333333,4,1,0,23,0,0
26290,-83.3333333333333,4,1,0,72,0,0
26397,-83.3333333333333,4,1,0,87,0,0
26504,-83.3333333333333,4,1,0,72,0,0
26611,-83.3333333333333,4,1,0,87,0,0
26718,-83.3333333333333,4,1,0,72,0,0
26825,-83.3333333333333,4,1,0,87,0,0
26932,-83.3333333333333,4,1,0,87,0,0
27040,-83.3333333333333,4,1,0,72,0,0
27147,-83.3333333333333,4,1,0,87,0,0
27254,-83.3333333333333,4,1,0,72,0,0
27361,-83.3333333333333,4,1,0,87,0,0
27468,-83.3333333333333,4,1,0,72,0,0
27575,-83.3333333333333,4,1,0,65,0,0
28325,-83.3333333333333,4,1,0,9,0,0
28432,-83.3333333333333,4,1,0,93,0,0
28540,-83.3333333333333,4,1,0,98,0,0
28647,-83.3333333333333,4,1,0,93,0,0
28755,-83.3333333333333,4,1,0,98,0,0
28861,-83.3333333333333,4,1,0,93,0,0
28969,-83.3333333333333,4,1,0,98,0,0
29075,-83.3333333333333,4,1,0,93,0,0
29183,-83.3333333333333,4,1,0,98,0,0
29290,-55.5555555555556,4,1,0,99,0,0
29396,-55.5555555555556,4,1,0,45,0,0
29610,-83.3333333333333,4,1,0,23,0,0
29718,-83.3333333333333,4,1,0,72,0,0
29825,-83.3333333333333,4,1,0,87,0,0
29932,-83.3333333333333,4,1,0,72,0,0
30039,-83.3333333333333,4,1,0,87,0,0
30146,-83.3333333333333,4,1,0,72,0,0
30253,-83.3333333333333,4,1,0,87,0,0
30360,-83.3333333333333,4,1,0,87,0,0
30468,-83.3333333333333,4,1,0,72,0,0
30575,-83.3333333333333,4,1,0,87,0,0
30682,-83.3333333333333,4,1,0,72,0,0
30789,-83.3333333333333,4,1,0,87,0,0
30896,-83.3333333333333,4,1,0,72,0,0
31003,-83.3333333333333,4,1,0,65,0,0
31753,-83.3333333333333,4,1,0,9,0,0
31860,-83.3333333333333,4,1,0,93,0,0
31968,-83.3333333333333,4,1,0,98,0,0
32075,-83.3333333333333,4,1,0,93,0,0
32183,-83.3333333333333,4,1,0,98,0,0
32289,-83.3333333333333,4,1,0,93,0,0
32397,-83.3333333333333,4,1,0,98,0,0
32503,-83.3333333333333,4,1,0,93,0,0
32611,-83.3333333333333,4,1,0,98,0,0
32718,-83.3333333333333,4,1,0,99,0,0
32825,-83.3333333333333,4,1,0,45,0,0
33039,-83.3333333333333,4,1,0,23,0,0
33147,-83.3333333333333,4,1,0,72,0,0
33254,-83.3333333333333,4,1,0,87,0,0
33361,-83.3333333333333,4,1,0,72,0,0
33468,-83.3333333333333,4,1,0,87,0,0
33575,-83.3333333333333,4,1,0,72,0,0
33682,-83.3333333333333,4,1,0,87,0,0
33789,-83.3333333333333,4,1,0,87,0,0
33897,-83.3333333333333,4,1,0,72,0,0
34004,-83.3333333333333,4,1,0,87,0,0
34111,-83.3333333333333,4,1,0,72,0,0
34218,-83.3333333333333,4,1,0,87,0,0
34325,-83.3333333333333,4,1,0,72,0,0
34432,-83.3333333333333,4,1,0,65,0,0
35182,-83.3333333333333,4,1,0,9,0,0
35289,-83.3333333333333,4,1,0,93,0,0
35397,-83.3333333333333,4,1,0,98,0,0
35504,-83.3333333333333,4,1,0,93,0,0
35612,-83.3333333333333,4,1,0,98,0,0
35718,-83.3333333333333,4,1,0,97,0,0
35826,-83.3333333333333,4,1,0,98,0,0
35932,-83.3333333333333,4,1,0,97,0,0
36040,-83.3333333333333,4,1,0,98,0,0
36146,-100,4,1,0,100,0,1
36253,-100,4,1,0,80,0,1
36575,-100,4,1,0,100,0,1
36682,-100,4,1,0,80,0,1
37003,-100,4,1,0,100,0,1
37110,-100,4,1,0,80,0,1
37432,-100,4,1,0,100,0,1
37539,-100,4,1,0,80,0,1
37861,-100,4,1,0,100,0,1
37968,-100,4,1,0,80,0,1
38289,-100,4,1,0,100,0,1
38396,-100,4,1,0,80,0,1
38718,-100,4,1,0,100,0,1
38825,-100,4,1,0,80,0,1
39146,-100,4,1,0,100,0,1
39253,-100,4,1,0,80,0,1
39575,-100,4,1,0,100,0,1
39682,-100,4,1,0,80,0,1
40003,-100,4,1,0,100,0,1
40110,-100,4,1,0,80,0,1
40432,-100,4,1,0,100,0,1
40539,-100,4,1,0,80,0,1
40861,-100,4,1,0,100,0,1
40968,-100,4,1,0,80,0,1
41289,-100,4,1,0,100,0,1
41396,-100,4,1,0,80,0,1
41718,-100,4,1,0,100,0,1
41825,-100,4,1,0,80,0,1
42146,-100,4,1,0,100,0,1
42253,-100,4,1,0,80,0,1
42575,-66.6666666666667,4,1,0,100,0,1
42682,-66.6666666666667,4,1,0,80,0,1
43003,-100,4,1,0,100,0,1
43110,-100,4,1,0,80,0,1
43432,-100,4,1,0,100,0,1
43539,-100,4,1,0,80,0,1
43861,-100,4,1,0,100,0,1
43968,-100,4,1,0,80,0,1
44289,-100,4,1,0,100,0,1
44396,-100,4,1,0,80,0,1
44718,-100,4,1,0,100,0,1
44825,-100,4,1,0,80,0,1
45146,-100,4,1,0,100,0,1
45253,-100,4,1,0,80,0,1
45575,-100,4,1,0,100,0,1
45682,-100,4,1,0,80,0,1
46003,-100,4,1,0,100,0,1
46110,-100,4,1,0,80,0,1
46432,-100,4,1,0,100,0,1
46539,-100,4,1,0,80,0,1
46861,-100,4,1,0,100,0,1
46968,-100,4,1,0,80,0,1
47289,-100,4,1,0,100,0,1
47396,-100,4,1,0,80,0,1
47718,-100,4,1,0,100,0,1
47825,-100,4,1,0,80,0,1
48146,-100,4,1,0,100,0,1
48253,-100,4,1,0,80,0,1
48575,-100,4,1,0,100,0,1
48682,-100,4,1,0,80,0,1
49003,-100,4,1,0,100,0,1
49110,-100,4,1,0,80,0,1
49432,-100,4,1,0,95,0,1
49539,-100,4,1,0,99,0,1
49646,-100,4,1,0,95,0,1
49753,-100,4,1,0,99,0,1
49861,-100,4,1,0,80,0,0
50182,-100,4,1,0,90,0,0
50289,-100,4,1,0,70,0,0
50503,-100,4,1,0,80,0,0
51039,-100,4,1,0,90,0,0
51146,-100,4,1,0,70,0,0
51360,-100,4,1,0,80,0,0
51896,-100,4,1,0,90,0,0
52003,-100,4,1,0,70,0,0
52217,-100,4,1,0,80,0,0
52432,-100,4,1,0,70,0,0
52575,-100,4,1,0,80,0,0
52718,-100,4,1,0,90,0,0
52861,-100,4,1,0,100,0,0
53289,-100,4,1,0,80,0,0
53611,-100,4,1,0,90,0,0
53718,-100,4,1,0,70,0,0
53932,-100,4,1,0,80,0,0
54468,-100,4,1,0,90,0,0
54575,-100,4,1,0,70,0,0
54789,-100,4,1,0,80,0,0
55325,-100,4,1,0,90,0,0
55432,-100,4,1,0,70,0,0
55646,-100,4,1,0,80,0,0
55861,-100,4,1,0,70,0,0
56004,-100,4,1,0,80,0,0
56147,-100,4,1,0,90,0,0
56289,-100,4,1,0,45,0,0
56718,-133.333333333333,4,2,0,50,0,0
56825,-133.333333333333,4,2,0,40,0,0
57146,-133.333333333333,4,2,0,50,0,0
57253,-133.333333333333,4,2,0,40,0,0
57575,-133.333333333333,4,2,0,50,0,0
57682,-133.333333333333,4,2,0,40,0,0
58003,-133.333333333333,4,2,0,50,0,0
58110,-133.333333333333,4,2,0,40,0,0
58432,-133.333333333333,4,2,0,50,0,0
58539,-133.333333333333,4,2,0,40,0,0
58861,-133.333333333333,4,2,0,50,0,0
58968,-133.333333333333,4,2,0,40,0,0
59289,-133.333333333333,4,2,0,50,0,0
59396,-133.333333333333,4,2,0,40,0,0
59718,-133.333333333333,4,2,0,50,0,0
59825,-133.333333333333,4,2,0,40,0,0
60146,-133.333333333333,4,2,0,50,0,0
60253,-133.333333333333,4,2,0,40,0,0
60575,-133.333333333333,4,2,0,50,0,0
60682,-133.333333333333,4,2,0,40,0,0
61003,-88.8888888888889,4,2,0,50,0,0
61110,-88.8888888888889,4,2,0,40,0,0
61432,-133.333333333333,4,2,0,50,0,0
61539,-133.333333333333,4,2,0,40,0,0
61861,-133.333333333333,4,2,0,50,0,0
61968,-133.333333333333,4,2,0,40,0,0
62289,-133.333333333333,4,2,0,50,0,0
62396,-133.333333333333,4,2,0,40,0,0
62718,-133.333333333333,4,2,0,50,0,0
62825,-133.333333333333,4,2,0,40,0,0
63146,-133.333333333333,4,2,0,70,0,0
63253,-133.333333333333,4,2,0,85,0,0
63361,-133.333333333333,4,2,0,70,0,0
63468,-133.333333333333,4,2,0,85,0,0
63575,-83.3333333333333,4,1,0,99,0,0
63682,-83.3333333333333,4,1,0,45,0,0
63896,-83.3333333333333,4,1,0,23,0,0
64004,-83.3333333333333,4,1,0,72,0,0
64111,-83.3333333333333,4,1,0,87,0,0
64218,-83.3333333333333,4,1,0,72,0,0
64325,-83.3333333333333,4,1,0,87,0,0
64432,-83.3333333333333,4,1,0,72,0,0
64539,-83.3333333333333,4,1,0,87,0,0
64646,-83.3333333333333,4,1,0,87,0,0
64754,-83.3333333333333,4,1,0,72,0,0
64861,-83.3333333333333,4,1,0,87,0,0
64968,-83.3333333333333,4,1,0,72,0,0
65075,-83.3333333333333,4,1,0,87,0,0
65182,-83.3333333333333,4,1,0,72,0,0
65289,-83.3333333333333,4,1,0,65,0,0
66039,-83.3333333333333,4,1,0,9,0,0
66146,-83.3333333333333,4,1,0,93,0,0
66254,-83.3333333333333,4,1,0,98,0,0
66361,-83.3333333333333,4,1,0,93,0,0
66469,-83.3333333333333,4,1,0,98,0,0
66575,-83.3333333333333,4,1,0,93,0,0
66683,-83.3333333333333,4,1,0,98,0,0
66789,-83.3333333333333,4,1,0,93,0,0
66897,-83.3333333333333,4,1,0,98,0,0
67004,-83.3333333333333,4,1,0,99,0,0
67111,-83.3333333333333,4,1,0,45,0,0
67325,-83.3333333333333,4,1,0,23,0,0
67433,-83.3333333333333,4,1,0,72,0,0
67540,-83.3333333333333,4,1,0,87,0,0
67647,-83.3333333333333,4,1,0,72,0,0
67754,-83.3333333333333,4,1,0,87,0,0
67861,-83.3333333333333,4,1,0,72,0,0
67968,-83.3333333333333,4,1,0,87,0,0
68075,-83.3333333333333,4,1,0,87,0,0
68183,-83.3333333333333,4,1,0,72,0,0
68290,-83.3333333333333,4,1,0,87,0,0
68397,-83.3333333333333,4,1,0,72,0,0
68504,-83.3333333333333,4,1,0,87,0,0
68611,-83.3333333333333,4,1,0,72,0,0
68718,-83.3333333333333,4,1,0,65,0,0
69468,-83.3333333333333,4,1,0,9,0,0
69575,-83.3333333333333,4,1,0,93,0,0
69683,-83.3333333333333,4,1,0,98,0,0
69790,-83.3333333333333,4,1,0,93,0,0
69898,-83.3333333333333,4,1,0,98,0,0
70004,-83.3333333333333,4,1,0,93,0,0
70112,-83.3333333333333,4,1,0,98,0,0
70218,-83.3333333333333,4,1,0,93,0,0
70326,-83.3333333333333,4,1,0,98,0,0
70433,-83.3333333333333,4,1,0,99,0,0
70539,-83.3333333333333,4,1,0,45,0,0
70753,-83.3333333333333,4,1,0,23,0,0
70861,-83.3333333333333,4,1,0,72,0,0
70968,-83.3333333333333,4,1,0,87,0,0
71075,-83.3333333333333,4,1,0,72,0,0
71182,-83.3333333333333,4,1,0,87,0,0
71289,-83.3333333333333,4,1,0,72,0,0
71396,-83.3333333333333,4,1,0,87,0,0
71503,-83.3333333333333,4,1,0,87,0,0
71611,-83.3333333333333,4,1,0,72,0,0
71718,-83.3333333333333,4,1,0,87,0,0
71825,-83.3333333333333,4,1,0,72,0,0
71932,-83.3333333333333,4,1,0,87,0,0
72039,-83.3333333333333,4,1,0,72,0,0
72146,-83.3333333333333,4,1,0,65,0,0
72896,-83.3333333333333,4,1,0,9,0,0
73003,-83.3333333333333,4,1,0,93,0,0
73111,-83.3333333333333,4,1,0,98,0,0
73218,-83.3333333333333,4,1,0,93,0,0
73326,-83.3333333333333,4,1,0,98,0,0
73432,-83.3333333333333,4,1,0,93,0,0
73540,-83.3333333333333,4,1,0,98,0,0
73646,-83.3333333333333,4,1,0,93,0,0
73754,-83.3333333333333,4,1,0,98,0,0
73861,-83.3333333333333,4,1,0,99,0,0
73968,-83.3333333333333,4,1,0,45,0,0
74182,-83.3333333333333,4,1,0,23,0,0
74290,-83.3333333333333,4,1,0,72,0,0
74397,-83.3333333333333,4,1,0,87,0,0
74504,-83.3333333333333,4,1,0,72,0,0
74611,-83.3333333333333,4,1,0,87,0,0
74718,-83.3333333333333,4,1,0,72,0,0
74825,-83.3333333333333,4,1,0,72,0,0
74932,-83.3333333333333,4,1,0,87,0,0
75040,-83.3333333333333,4,1,0,72,0,0
75147,-83.3333333333333,4,1,0,87,0,0
75254,-83.3333333333333,4,1,0,72,0,0
75361,-83.3333333333333,4,1,0,87,0,0
75468,-83.3333333333333,4,1,0,72,0,0
75575,-83.3333333333333,4,1,0,65,0,0
76325,-83.3333333333333,4,1,0,9,0,0
76432,-83.3333333333333,4,1,0,93,0,0
76540,-83.3333333333333,4,1,0,98,0,0
76647,-83.3333333333333,4,1,0,93,0,0
76755,-83.3333333333333,4,1,0,98,0,0
76861,-83.3333333333333,4,1,0,97,0,0
76969,-83.3333333333333,4,1,0,98,0,0
77075,-83.3333333333333,4,1,0,97,0,0
77183,-83.3333333333333,4,1,0,98,0,0
77289,-100,4,1,0,100,0,1
77396,-100,4,1,0,80,0,1
77718,-100,4,1,0,100,0,1
77825,-100,4,1,0,80,0,1
78146,-100,4,1,0,100,0,1
78253,-100,4,1,0,80,0,1
78575,-100,4,1,0,100,0,1
78682,-100,4,1,0,80,0,1
79003,-100,4,1,0,100,0,1
79110,-100,4,1,0,80,0,1
79432,-100,4,1,0,100,0,1
79539,-100,4,1,0,80,0,1
79861,-100,4,1,0,100,0,1
79968,-100,4,1,0,80,0,1
80289,-100,4,1,0,100,0,1
80396,-100,4,1,0,80,0,1
80718,-100,4,1,0,100,0,1
80825,-100,4,1,0,80,0,1
81146,-100,4,1,0,100,0,1
81253,-100,4,1,0,80,0,1
81575,-100,4,1,0,100,0,1
81682,-100,4,1,0,80,0,1
82003,-100,4,1,0,100,0,1
82110,-100,4,1,0,80,0,1
82432,-100,4,1,0,100,0,1
82539,-100,4,1,0,80,0,1
82861,-100,4,1,0,100,0,1
82968,-100,4,1,0,80,0,1
83289,-100,4,1,0,100,0,1
83396,-100,4,1,0,80,0,1
83718,-66.6666666666667,4,1,0,100,0,1
83825,-66.6666666666667,4,1,0,80,0,1
84146,-100,4,1,0,100,0,1
84253,-100,4,1,0,80,0,1
84575,-100,4,1,0,100,0,1
84682,-100,4,1,0,80,0,1
85003,-100,4,1,0,100,0,1
85110,-100,4,1,0,80,0,1
85432,-100,4,1,0,100,0,1
85539,-100,4,1,0,80,0,1
85861,-100,4,1,0,100,0,1
85968,-100,4,1,0,80,0,1
86289,-100,4,1,0,100,0,1
86396,-100,4,1,0,80,0,1
86718,-100,4,1,0,100,0,1
86825,-100,4,1,0,80,0,1
87146,-100,4,1,0,100,0,1
87253,-100,4,1,0,80,0,1
87575,-100,4,1,0,100,0,1
87682,-100,4,1,0,80,0,1
88003,-100,4,1,0,100,0,1
88110,-100,4,1,0,80,0,1
88432,-100,4,1,0,100,0,1
88539,-100,4,1,0,80,0,1
88861,-100,4,1,0,100,0,1
88968,-100,4,1,0,80,0,1
89289,-100,4,1,0,100,0,1
89396,-100,4,1,0,80,0,1
89718,-100,4,1,0,100,0,1
89825,-100,4,1,0,80,0,1
90146,-100,4,1,0,100,0,1
90253,-100,4,1,0,80,0,1
90575,-100,4,1,0,90,0,1
90682,-100,4,1,0,95,0,1
90789,-100,4,1,0,90,0,1
90896,-100,4,1,0,95,0,1
91003,-100,4,1,0,40,0,0

[Colours]
Combo1 : 128,0,0
Combo2 : 255,0,0
Combo3 : 255,255,0

[HitObjects]
321,143,1861,6,0,B|349:104|349:104|390:106|448:44,2,135,8|0|8,0:0|0:0|0:0,0:0:0:0:
191,143,2718,2,0,B|163:104|163:104|122:106|64:44,2,135,8|0|8,0:0|0:0|0:0,0:0:0:0:
256,223,3575,2,0,B|259:283|259:283|246:313|254:372,2,135,8|0|8,0:0|0:0|0:0,0:0:0:0:
216,84,4432,2,8,P|256:64|298:88,1,90
256,133,4861,2,0,B|254:158|254:158|258:181,1,45,4|0,0:0|0:0,0:0:0:0:
317,332,5289,6,0,L|371:186,1,121.499996292114,8|0,0:0|0:0,0:0:0:0:
336,203,5718,2,0,P|354:161|387:117,1,80.9999975280762,8|0,0:0|0:0,0:0:0:0:
216,61,6146,6,0,L|265:194,1,121.499996292114,8|0,0:0|0:0,0:0:0:0:
283,164,6575,2,0,P|299:194|300:243,1,80.9999975280762,8|0,0:0|0:0,0:0:0:0:
227,354,7003,6,0,L|181:239,1,121.499996292114,8|0,0:0|0:0,0:0:0:0:
155,243,7432,2,0,P|144:200|159:151,1,80.9999975280762,8|0,0:0|0:0,0:0:0:0:
103,69,7861,5,8,0:0:0:0:
53,222,8075,1,0,0:0:0:0:
156,112,8289,5,8,0:0:0:0:
124,211,8503,1,2,0:0:0:0:
224,100,8718,6,0,P|277:86|362:115,1,141.749995674133,4|0,0:0|0:0,0:0:0:0:
383,126,9146,2,0,L|338:218,1,94.4999971160889,2|0,0:0|0:0,0:0:0:0:
291,291,9575,1,2,0:0:0:0:
189,192,9789,1,8,0:0:0:0:
205,158,9896,1,0,0:0:0:0:
221,124,10003,1,10,0:0:0:0:
115,166,10218,1,0,0:0:0:0:
119,25,10432,5,2,0:0:0:0:
221,124,10646,1,8,0:0:0:0:
205,158,10753,1,0,0:0:0:0:
189,192,10861,1,10,0:0:0:0:
295,150,11075,1,2,0:0:0:0:
384,40,11289,5,4,0:0:0:0:
413,226,11503,1,4,0:0:0:0:
307,68,11718,1,4,0:0:0:0:
307,68,11932,1,8,0:0:0:0:
298,89,12039,1,0,0:0:0:0:
287,110,12146,6,0,P|279:166|326:238,1,141.749995674133,8|0,0:0|0:0,0:0:0:0:
309,260,12575,1,2,0:0:0:0:
399,285,12789,1,0,0:0:0:0:
267,136,13003,5,2,0:0:0:0:
348,134,13218,1,8,0:0:0:0:
374,211,13432,1,10,0:0:0:0:
309,260,13646,1,0,0:0:0:0:
319,150,13861,5,2,0:0:0:0:
354,208,14076,1,8,0:0:0:0:
309,260,14290,1,10,0:0:0:0:
245,233,14504,1,8,0:0:0:0:
250,167,14718,5,4,0:0:0:0:
78,246,14932,1,4,0:0:0:0:
161,76,15146,1,4,0:0:0:0:
161,76,15361,1,2,0:0:0:0:
184,79,15468,1,0,0:0:0:0:
207,80,15575,6,0,B|256:88|256:88|278:103|332:119|369:104,1,141.749995674133,4|0,0:0|0:0,0:0:0:0:
360,84,16003,2,0,L|374:183,1,94.4999971160889,2|0,0:0|0:0,0:0:0:0:
302,194,16432,1,2,0:0:0:0:
444,157,16646,1,8,0:0:0:0:
291,234,16861,1,10,0:0:0:0:
468,187,17075,1,0,0:0:0:0:
280,273,17289,5,2,0:0:0:0:
493,216,17503,1,8,0:0:0:0:
394,271,17718,1,10,0:0:0:0:
382,291,17825,1,0,0:0:0:0:
370,311,17932,1,0,0:0:0:0:
359,332,18039,1,0,0:0:0:0:
341,347,18146,2,0,L|427:385,1,94.4999971160889,2|0,0:0|0:0,0:0:0:0:
283,244,18575,2,0,L|412:301,1,141.749995674133,2|0,0:0|0:0,0:0:0:0:
264,166,19003,6,0,L|406:228,1,141.749995674133,4|0,0:0|0:0,0:0:0:0:
415,229,19432,2,0,P|465:228|488:176,1,94.4999971160889,2|0,0:0|0:0,0:0:0:0:
411,137,19861,1,4,0:0:0:0:
273,170,20075,1,0,0:0:0:0:
390,107,20289,1,2,0:0:0:0:
286,204,20503,1,0,0:0:0:0:
302,221,20611,1,0,0:0:0:0:
318,237,20718,6,0,L|116:237,1,188.999994232178,4|0,0:0|0:0,0:0:0:0:
113,254,21253,1,0,0:0:0:0:
97,272,21361,1,0,0:0:0:0:
81,289,21468,1,0,0:0:0:0:
135,326,21575,6,0,L|109:373,1,47.2499985580445
200,306,21789,2,0,L|200:361,1,47.2499985580445
237,249,22003,2,2,L|279:284,1,47.2499985580445
241,181,22218,2,2,L|201:147,1,47.2499985580445
237,249,22432,6,0,P|281:283|414:210,1,215.999993408203,4|8,0:0|0:0,0:0:0:0:
421,197,22968,1,0,0:0:0:0:
431,172,23075,1,0,0:0:0:0:
441,147,23182,1,0,0:0:0:0:
418,112,23289,5,8,0:0:0:0:
397,94,23396,1,0,0:0:0:0:
372,125,23503,5,0,0:0:0:0:
354,146,23611,1,0,0:0:0:0:
334,120,23718,6,2,L|223:67,1,107.999996704102
227,221,24146,2,2,L|329:182,1,107.999996704102
172,135,24575,2,0,L|55:135,2,107.999996704102,0|0|8,0:0|0:0|0:0,0:0:0:0:
209,140,25111,1,0,0:0:0:0:
236,165,25218,1,0,0:0:0:0:
244,201,25325,1,0,0:0:0:0:
249,238,25432,6,2,L|249:318,1,53.9999983520508
306,207,25646,2,2,L|306:131,1,53.9999983520508
363,243,25861,6,0,P|363:331|400:348,1,107.999996704102,4|0,0:0|0:0,0:0:0:0:
436,278,26289,1,8,0:0:0:0:
463,252,26396,1,0,0:0:0:0:
431,231,26503,1,0,0:0:0:0:
459,205,26611,1,0,0:0:0:0:
431,178,26718,6,0,L|388:216,1,53.9999983520508,8|0,0:0|0:0,0:0:0:0:
364,146,26932,2,0,L|347:202,1,53.9999983520508
298,150,27146,5,2,0:0:0:0:
288,186,27253,1,0,0:0:0:0:
277,222,27361,1,2,0:0:0:0:
298,253,27468,1,0,0:0:0:0:
316,285,27575,6,2,P|308:359|191:257,1,323.999990112305
165,113,28432,2,8,L|115:222,1,107.999996704102
119,248,28753,1,0,0:0:0:0:
144,275,28861,1,8,0:0:0:0:
181,278,28968,1,0,0:0:0:0:
210,253,29075,1,8,0:0:0:0:
212,215,29182,1,0,0:0:0:0:
211,183,29289,6,0,B|234:129|234:129|332:143|332:143|363:77,1,215.999993408203,4|8,0:0|0:0,0:0:0:0:
375,123,29825,1,0,0:0:0:0:
388,158,29932,1,0,0:0:0:0:
400,193,30039,1,0,0:0:0:0:
407,229,30146,6,0,L|462:127,1,107.999996704102,8|0,0:0|0:0,0:0:0:0:
309,265,30575,2,0,L|368:147,1,107.999996704102
258,146,31003,6,0,L|205:269,1,107.999996704102,8|0,0:0|0:0,0:0:0:0:
199,66,31432,2,0,L|142:185,1,107.999996704102,8|0,0:0|0:0,0:0:0:0:
127,12,31861,5,2,0:0:0:0:
114,47,31968,1,0,0:0:0:0:
91,77,32075,1,2,0:0:0:0:
53,84,32182,1,0,0:0:0:0:
25,72,32289,5,8,0:0:0:0:
17,97,32396,1,0,0:0:0:0:
9,122,32503,1,8,0:0:0:0:
0,147,32611,1,0,0:0:0:0:
21,168,32718,6,0,B|0:223|0:223|13:239|64:297|0:363,1,215.999993408203,4|8,0:0|0:0,0:0:0:0:
21,362,33253,1,0,0:0:0:0:
42,362,33361,1,0,0:0:0:0:
63,362,33468,1,0,0:0:0:0:
84,360,33575,6,0,L|108:304,1,53.9999983520508,8|0,0:0|0:0,0:0:0:0:
45,290,33789,2,0,L|25:222,1,53.9999983520508
101,228,34003,1,2,0:0:0:0:
116,199,34111,1,0,0:0:0:0:
133,171,34218,1,2,0:0:0:0:
149,142,34325,1,0,0:0:0:0:
164,113,34432,6,0,P|207:69|256:68,1,107.999996704102,2|0,0:0|0:0,0:0:0:0:
89,45,34861,2,0,P|130:102|184:112,1,107.999996704102,2|0,0:0|0:0,0:0:0:0:
42,134,35289,2,2,B|51:76|51:76|99:36,1,107.999996704102
121,42,35611,1,0,0:0:0:0:
166,41,35718,6,0,L|149:-16,1,53.9999983520508,8|0,0:0|0:0,0:0:0:0:
235,58,35932,2,0,L|216:-12,1,53.9999983520508,8|0,0:0|0:0,0:0:0:0:
307,69,36146,5,4,0:0:0:0:
302,56,36253,1,0,0:0:0:0:
297,43,36361,1,0,0:0:0:0:
292,30,36468,1,0,0:0:0:0:
286,17,36575,5,8,0:0:0:0:
419,36,36789,1,0,0:0:0:0:
246,60,37003,5,8,0:0:0:0:
445,88,37217,1,2,0:0:0:0:
216,106,37432,5,8,0:0:0:0:
464,141,37646,1,8,0:0:0:0:
338,167,37861,5,2,0:0:0:0:
353,194,37968,1,0,0:0:0:0:
351,225,38075,1,2,0:0:0:0:
365,252,38182,1,0,0:0:0:0:
363,283,38289,6,0,L|421:265,1,45,2|0,0:0|0:0,0:0:0:0:
285,229,38503,2,0,L|337:238,1,45,2|0,0:0|0:0,0:0:0:0:
227,271,38718,6,0,L|210:219,1,45,2|0,0:0|0:0,0:0:0:0:
144,220,38932,2,0,L|165:158,1,45,2|0,0:0|0:0,0:0:0:0:
222,149,39146,1,2,0:0:0:0:
184,101,39361,1,8,0:0:0:0:
203,125,39468,1,8,0:0:0:0:
222,149,39575,5,8,0:0:0:0:
306,179,39789,1,0,0:0:0:0:
220,113,40003,5,8,0:0:0:0:
333,153,40217,1,0,0:0:0:0:
210,73,40432,5,8,0:0:0:0:
362,127,40646,1,0,0:0:0:0:
400,99,40861,5,8,0:0:0:0:
195,27,41075,1,0,0:0:0:0:
62,49,41289,5,2,0:0:0:0:
48,96,41396,1,0,0:0:0:0:
62,143,41503,1,2,0:0:0:0:
103,170,41611,1,0,0:0:0:0:
152,166,41718,5,2,0:0:0:0:
175,187,41825,1,0,0:0:0:0:
198,208,41932,1,2,0:0:0:0:
220,229,42039,1,0,0:0:0:0:
241,251,42146,6,8,L|330:205,1,90
249,310,42575,2,8,L|374:246,1,135.000005149842
447,203,43003,5,4,0:0:0:0:
460,159,43111,1,0,0:0:0:0:
430,125,43218,1,0,0:0:0:0:
445,82,43325,1,0,0:0:0:0:
423,42,43432,6,0,L|314:33,1,90,8|0,0:0|0:0,0:0:0:0:
296,146,43861,5,8,0:0:0:0:
256,17,44075,1,2,0:0:0:0:
89,42,44289,6,8,L|198:33,1,90
73,120,44718,6,0,L|99:172,1,45,2|0,0:0|0:0,0:0:0:0:
151,127,44932,2,0,L|150:181,1,45,2|0,0:0|0:0,0:0:0:0:
216,161,45146,5,2,0:0:0:0:
203,194,45253,1,0,0:0:0:0:
197,229,45361,1,2,0:0:0:0:
212,261,45468,1,0,0:0:0:0:
246,271,45575,5,2,0:0:0:0:
288,255,45682,1,0,0:0:0:0:
330,239,45789,1,2,0:0:0:0:
371,221,45896,1,0,0:0:0:0:
413,234,46003,6,2,L|449:140,1,90
422,93,46325,1,0,0:0:0:0:
365,117,46432,6,0,L|325:217,1,90,8|0,0:0|0:0,0:0:0:0:
253,293,46861,5,8,0:0:0:0:
323,237,47075,1,0,0:0:0:0:
197,279,47289,5,8,0:0:0:0:
169,314,47503,1,0,0:0:0:0:
170,206,47718,5,8,0:0:0:0:
223,133,47932,1,8,0:0:0:0:
180,53,48146,5,2,0:0:0:0:
135,57,48253,1,0,0:0:0:0:
97,82,48361,1,2,0:0:0:0:
81,124,48468,1,0,0:0:0:0:
87,168,48575,5,2,0:0:0:0:
108,175,48682,1,0,0:0:0:0:
129,182,48789,1,2,0:0:0:0:
149,190,48896,1,0,0:0:0:0:
169,198,49003,5,2,0:0:0:0:
249,239,49218,1,2,0:0:0:0:
169,198,49432,6,8,L|158:147,1,45
250,238,49646,2,8,L|235:165,1,45
323,249,49861,6,0,P|372:269|466:237,1,135,4|0,0:0|0:0,0:0:0:0:
474,235,50289,2,2,L|429:151,1,90
291,182,50718,6,0,P|323:223|412:260,1,135,8|0,0:0|0:0,0:0:0:0:
428,245,51146,2,2,L|431:149,1,90
296,108,51575,6,0,P|303:160|348:244,1,135,8|0,0:0|0:0,0:0:0:0:
383,231,52003,2,2,L|433:150,1,90
413,95,52325,1,2,0:0:0:0:
355,122,52432,6,8,L|319:188,2,60,8|8|8,0:2|0:2|0:2,0:2:0:0:
311,76,52861,2,8,L|261:165,1,90,8|8,0:3|0:3,0:3:0:0:
189,249,53289,6,0,P|140:269|46:237,1,135,8|0,0:0|0:0,0:0:0:0:
38,235,53717,2,2,L|83:151,1,90
221,182,54146,6,0,P|189:223|100:260,1,135,8|0,0:0|0:0,0:0:0:0:
84,245,54574,2,2,L|81:149,1,90
216,108,55003,6,0,P|209:160|164:244,1,135,8|0,0:0|0:0,0:0:0:0:
129,231,55431,2,2,L|79:150,1,90
99,95,55753,1,2,0:0:0:0:
157,122,55860,6,2,L|193:188,3,60,2|2|2|4,0:2|0:2|0:2|0:3,0:2:0:0:
276,57,56718,6,0,L|326:86,1,33.7500012874604,2|0,0:0|0:0,0:0:0:0:
273,130,56932,2,0,L|316:154,1,33.7500012874604
267,199,57146,5,2,0:0:0:0:
326,232,57361,1,0,0:0:0:0:
212,168,57575,5,2,0:0:0:0:
188,266,57789,1,0,0:0:0:0:
137,140,58003,5,2,0:0:0:0:
15,42,58218,1,2,0:0:0:0:
183,33,58432,5,8,0:0:0:0:
202,60,58539,1,0,0:0:0:0:
203,93,58646,1,0,0:0:0:0:
205,126,58753,1,0,0:0:0:0:
225,152,58861,1,8,0:0:0:0:
249,175,58968,1,0,0:0:0:0:
282,175,59075,1,0,0:0:0:0:
315,174,59182,1,0,0:0:0:0:
348,178,59289,6,0,L|394:139,1,33.7500012874604,8|0,0:0|0:0,0:0:0:0:
373,235,59503,2,0,L|343:264,1,33.7500012874604
395,297,59718,1,8,0:0:0:0:
395,297,59932,1,0,0:0:0:0:
366,314,60039,1,0,0:0:0:0:
335,328,60146,6,0,L|261:360,1,67.5000025749208,8|0,0:0|0:0,0:0:0:0:
214,320,60575,1,8,0:0:0:0:
214,320,60789,1,0,0:0:0:0:
175,247,61003,6,0,L|98:317,1,101.250003862381,8|0,0:0|0:0,0:0:0:0:
93,227,61432,1,8,0:0:0:0:
93,227,61646,1,0,0:0:0:0:
94,125,61861,5,2,0:0:0:0:
130,143,61968,1,0,0:0:0:0:
170,142,62075,1,2,0:0:0:0:
202,118,62182,1,0,0:0:0:0:
227,149,62289,5,2,0:0:0:0:
255,120,62396,1,0,0:0:0:0:
275,154,62503,1,2,0:0:0:0:
300,122,62611,1,0,0:0:0:0:
318,158,62718,5,8,0:0:0:0:
347,233,62932,1,8,0:0:0:0:
318,158,63146,6,8,L|301:221,1,33.7500012874604
349,230,63361,2,8,L|371:281,1,33.7500012874604
326,303,63575,5,4,0:0:0:0:
226,344,63789,1,0,0:0:0:0:
142,275,64003,2,0,L|117:223,3,53.9999983520508,8|0|0|0,0:0|0:0|0:0|0:0,0:0:0:0:
102,197,64432,1,8,0:0:0:0:
198,262,64646,1,0,0:0:0:0:
91,313,64861,1,0,0:0:0:0:
58,284,64968,1,0,0:0:0:0:
41,244,65075,1,0,0:0:0:0:
41,200,65182,1,0,0:0:0:0:
49,157,65289,5,2,0:0:0:0:
178,253,65503,1,2,0:0:0:0:
93,129,65718,1,2,0:0:0:0:
189,201,65932,1,2,0:0:0:0:
256,54,66146,5,2,0:0:0:0:
256,97,66253,1,0,0:0:0:0:
287,127,66361,5,8,0:0:0:0:
254,169,66468,1,0,0:0:0:0:
223,213,66575,1,8,0:0:0:0:
190,255,66682,1,0,0:0:0:0:
160,299,66789,1,8,0:0:0:0:
133,346,66896,1,0,0:0:0:0:
86,373,67003,6,0,P|38:323|124:222,1,215.999993408203,4|8,0:0|0:0,0:0:0:0:
146,245,67539,1,0,0:0:0:0:
183,224,67646,1,0,0:0:0:0:
219,246,67753,1,0,0:0:0:0:
255,222,67861,2,0,P|322:204|370:223,1,107.999996704102,8|0,0:0|0:0,0:0:0:0:
415,186,68182,1,0,0:0:0:0:
451,243,68289,2,2,P|435:300|390:326,1,107.999996704102
287,323,68718,5,2,0:0:0:0:
254,324,68932,1,2,0:0:0:0:
221,325,69146,1,2,0:0:0:0:
188,326,69361,1,2,0:0:0:0:
106,254,69575,6,0,P|94:318|116:357,1,107.999996704102,2|0,0:0|0:0,0:0:0:0:
136,340,69896,1,0,0:0:0:0:
159,327,70003,1,8,0:0:0:0:
182,313,70111,1,0,0:0:0:0:
205,299,70218,1,8,0:0:0:0:
228,285,70325,1,0,0:0:0:0:
253,274,70432,6,0,B|283:230|283:230|266:193|254:120|358:119,1,215.999993408203,4|8,0:0|0:0,0:0:0:0:
370,137,70968,1,0,0:0:0:0:
389,155,71075,1,0,0:0:0:0:
408,173,71182,1,0,0:0:0:0:
423,195,71289,6,0,L|479:167,1,53.9999983520508,8|0,0:0|0:0,0:0:0:0:
425,271,71503,2,0,L|479:232,1,53.9999983520508
362,252,71718,6,0,L|308:294,1,53.9999983520508,2|0,0:0|0:0,0:0:0:0:
345,185,71932,2,0,L|291:225,1,53.9999983520508
312,126,72146,6,2,L|401:42,1,107.999996704102
268,73,72575,2,2,P|243:133|273:183,1,107.999996704102
155,184,73003,2,2,P|177:127|154:63,1,107.999996704102
133,64,73325,1,0,0:0:0:0:
98,79,73432,2,0,L|59:38,1,53.9999983520508,8|0,0:0|0:0,0:0:0:0:
65,135,73646,2,0,L|104:177,1,53.9999983520508,8|0,0:0|0:0,0:0:0:0:
31,201,73861,5,4,0:0:0:0:
2,304,74075,1,0,0:0:0:0:
31,201,74289,2,0,L|67:262,1,53.9999983520508,8|0,0:0|0:0,0:0:0:0:
111,209,74503,2,0,L|147:263,1,53.9999983520508
184,202,74718,2,2,P|229:267|383:254,1,215.999993408203
274,203,75361,1,0,0:0:0:0:
373,162,75575,6,2,P|406:109|300:44,2,215.999993408203
359,185,76539,1,0,0:0:0:0:
346,208,76646,1,8,0:0:0:0:
336,233,76753,1,0,0:0:0:0:
324,257,76861,6,8,L|331:323,1,53.9999983520508
261,234,77075,2,8,L|267:302,1,53.9999983520508
197,222,77289,6,0,L|191:153,1,45,4|0,0:0|0:0,0:0:0:0:
127,195,77503,2,0,L|122:115,1,45
56,162,77718,5,8,0:0:0:0:
134,52,77932,1,0,0:0:0:0:
78,217,78146,5,8,0:0:0:0:
195,52,78360,1,2,0:0:0:0:
214,111,78575,5,8,0:0:0:0:
136,221,78789,1,8,0:0:0:0:
256,161,79003,5,2,0:0:0:0:
275,141,79111,1,0,0:0:0:0:
294,122,79218,1,2,0:0:0:0:
314,104,79325,1,0,0:0:0:0:
334,86,79432,6,0,L|317:31,1,45,2|0,0:0|0:0,0:0:0:0:
402,97,79646,2,0,L|384:43,1,45,2|0,0:0|0:0,0:0:0:0:
468,104,79861,5,2,0:0:0:0:
463,130,79968,1,0,0:0:0:0:
459,156,80075,1,2,0:0:0:0:
455,182,80182,1,0,0:0:0:0:
433,198,80289,5,2,0:0:0:0:
395,222,80396,1,0,0:0:0:0:
352,237,80503,1,2,0:0:0:0:
309,221,80611,1,2,0:0:0:0:
275,191,80718,6,0,L|207:269,1,90,8|0,0:0|0:0,0:0:0:0:
267,120,81146,1,8,0:0:0:0:
267,120,81361,1,0,0:0:0:0:
112,186,81575,6,0,L|177:124,1,90,8|0,0:0|0:0,0:0:0:0:
41,168,82003,1,8,0:0:0:0:
41,168,82218,1,0,0:0:0:0:
101,47,82432,5,2,0:0:0:0:
107,91,82539,1,0,0:0:0:0:
113,135,82646,1,2,0:0:0:0:
117,179,82753,1,0,0:0:0:0:
121,224,82861,5,2,0:0:0:0:
141,241,82968,1,0,0:0:0:0:
161,258,83075,1,2,0:0:0:0:
181,275,83182,1,0,0:0:0:0:
203,289,83289,6,8,L|276:215,1,90
234,348,83718,2,8,L|334:244,1,135.000005149842
300,371,84146,5,4,0:0:0:0:
319,352,84253,1,0,0:0:0:0:
339,333,84361,1,0,0:0:0:0:
359,315,84468,1,0,0:0:0:0:
380,298,84575,5,8,0:0:0:0:
271,217,84789,1,0,0:0:0:0:
438,280,85003,5,8,0:0:0:0:
274,158,85217,1,0,0:0:0:0:
445,217,85432,5,8,0:0:0:0:
391,92,85646,1,0,0:0:0:0:
267,37,85861,6,0,L|244:88,1,45,2|0,0:0|0:0,0:0:0:0:
192,50,86075,2,0,L|165:107,1,45,2|0,0:0|0:0,0:0:0:0:
116,62,86289,5,2,0:0:0:0:
100,94,86396,1,0,0:0:0:0:
92,129,86503,1,2,0:0:0:0:
99,164,86611,1,0,0:0:0:0:
121,192,86718,5,2,0:0:0:0:
149,169,86825,1,0,0:0:0:0:
177,146,86932,1,2,0:0:0:0:
205,124,87039,1,0,0:0:0:0:
240,122,87146,6,0,L|240:64,1,45,2|0,0:0|0:0,0:0:0:0:
280,171,87361,2,0,L|280:241,1,45,2|0,0:0|0:0,0:0:0:0:
314,105,87575,5,8,0:0:0:0:
211,187,87789,1,0,0:0:0:0:
354,198,88003,1,8,0:0:0:0:
354,198,88218,1,0,0:0:0:0:
187,209,88432,5,8,0:0:0:0:
342,86,88646,1,0,0:0:0:0:
143,90,88861,1,8,0:0:0:0:
143,90,89076,1,0,0:0:0:0:
18,191,89289,5,2,0:0:0:0:
46,225,89396,1,0,0:0:0:0:
76,257,89503,1,2,0:0:0:0:
121,255,89611,1,0,0:0:0:0:
165,257,89718,6,0,L|197:218,1,45,2|0,0:0|0:0,0:0:0:0:
191,321,89932,2,0,L|236:273,1,45,2|0,0:0|0:0,0:0:0:0:
237,364,90146,5,8,0:0:0:0:
333,269,90361,1,8,0:0:0:0:
239,362,90575,6,8,L|249:307,1,45
332,272,90789,2,8,L|344:211,1,45
422,166,91003,5,4,0:0:0:0:
256,192,91111,12,2,94432,0:0:0:0:
