osu file format v14

[General]
AudioFilename: audio.mp3
AudioLeadIn: 0
PreviewTime: 8245
Countdown: 0
SampleSet: Soft
StackLeniency: 0.7
Mode: 3
LetterboxInBreaks: 0
SpecialStyle: 0
WidescreenStoryboard: 0

[Editor]
DistanceSpacing: 1.7
BeatDivisor: 4
GridSize: 4
TimelineZoom: 1.5

[Metadata]
Title:East West Wobble
TitleUnicode:East West Wobble
Artist:SHK
ArtistUnicode:SHK
Creator:Dreamwalker
Version:Samulnori
Source:Cytus
Tags:Rayark Sound Holic K 東邦禮義之國 DubStep Style jack ln dump speedmap
BeatmapID:1754397
BeatmapSetID:837951

[Difficulty]
HPDrainRate:9.5
CircleSize:4
OverallDifficulty:8.5
ApproachRate:5
SliderMultiplier:1.4
SliderTickRate:1

[Events]
//Background and Video events
0,0,"East West Wobble.jpg",0,0
//Break Periods
//Storyboard Layer 0 (Background)
//Storyboard Layer 1 (Fail)
//Storyboard Layer 2 (Pass)
//Storyboard Layer 3 (Foreground)
//Storyboard Sound Samples

[TimingPoints]
1870,428.571428571429,4,2,0,10,1,0
22441,-100,4,2,0,10,0,1
36155,-100,4,2,0,10,0,0
63584,-100,4,2,0,10,0,1
77298,-100,4,2,0,10,0,0

[HitObjects]
448,192,1870,5,0,0:0:0:0:
192,192,1870,1,0,0:0:0:0:
64,192,1870,1,0,0:0:0:0:
192,192,2191,1,0,0:0:0:0:
64,192,2191,1,0,0:0:0:0:
320,192,2512,1,0,0:0:0:0:
192,192,2512,1,0,0:0:0:0:
64,192,2620,1,0,0:0:0:0:
448,192,2727,1,0,0:0:0:0:
320,192,2727,1,0,0:0:0:0:
192,192,2727,1,0,0:0:0:0:
320,192,3048,1,0,0:0:0:0:
448,192,3048,1,0,0:0:0:0:
320,192,3370,1,0,0:0:0:0:
192,192,3370,1,0,0:0:0:0:
192,192,3584,1,0,0:0:0:0:
64,192,3584,1,0,0:0:0:0:
448,192,3584,1,0,0:0:0:0:
192,192,3905,1,0,0:0:0:0:
64,192,3905,1,0,0:0:0:0:
320,192,4227,1,0,0:0:0:0:
192,192,4227,1,0,0:0:0:0:
64,192,4334,1,0,0:0:0:0:
320,192,4441,1,0,0:0:0:0:
448,192,4441,1,0,0:0:0:0:
192,192,4441,1,0,0:0:0:0:
448,192,4655,1,0,0:0:0:0:
320,192,4655,1,0,0:0:0:0:
64,192,4655,1,0,0:0:0:0:
192,192,4870,128,0,5191:0:0:0:0:
448,192,4870,128,0,5191:0:0:0:0:
320,192,4870,128,0,5191:0:0:0:0:
448,192,5298,1,0,0:0:0:0:
192,192,5298,1,0,0:0:0:0:
64,192,5298,1,0,0:0:0:0:
320,192,5298,1,0,0:0:0:0:
320,192,5620,1,0,0:0:0:0:
448,192,5620,1,0,0:0:0:0:
448,192,5727,1,0,0:0:0:0:
64,192,5727,1,0,0:0:0:0:
192,192,5727,1,0,0:0:0:0:
320,192,5727,1,0,0:0:0:0:
320,192,5941,1,0,0:0:0:0:
192,192,5941,1,0,0:0:0:0:
64,192,6048,1,0,0:0:0:0:
448,192,6155,1,0,0:0:0:0:
320,192,6155,1,0,0:0:0:0:
64,192,6155,1,0,0:0:0:0:
192,192,6477,1,0,0:0:0:0:
64,192,6477,1,0,0:0:0:0:
64,192,6584,1,0,0:0:0:0:
320,192,6584,1,0,0:0:0:0:
448,192,6584,1,0,0:0:0:0:
192,192,6584,1,0,0:0:0:0:
320,192,6798,1,0,0:0:0:0:
192,192,6798,1,0,0:0:0:0:
192,192,7012,1,0,0:0:0:0:
64,192,7012,1,0,0:0:0:0:
448,192,7012,1,0,0:0:0:0:
320,192,7012,1,0,0:0:0:0:
448,192,7334,1,0,0:0:0:0:
320,192,7334,1,0,0:0:0:0:
448,192,7441,1,0,0:0:0:0:
192,192,7441,1,0,0:0:0:0:
64,192,7441,1,0,0:0:0:0:
320,192,7441,1,0,0:0:0:0:
320,192,7655,1,0,0:0:0:0:
192,192,7655,1,0,0:0:0:0:
64,192,7762,1,0,0:0:0:0:
320,192,7870,1,0,0:0:0:0:
448,192,7870,1,0,0:0:0:0:
64,192,7870,1,0,0:0:0:0:
192,192,8084,1,0,0:0:0:0:
448,192,8084,1,0,0:0:0:0:
64,192,8084,1,0,0:0:0:0:
320,192,8084,1,0,0:0:0:0:
448,192,8298,1,0,0:0:0:0:
320,192,8298,1,0,0:0:0:0:
64,192,8298,128,0,8673:0:0:0:0:
448,192,8512,128,0,8673:0:0:0:0:
320,192,8620,128,0,8673:0:0:0:0:
192,192,8620,128,0,8673:0:0:0:0:
192,192,8727,1,0,0:0:0:0:
320,192,8727,1,0,0:0:0:0:
448,192,8727,1,0,0:0:0:0:
64,192,8727,128,0,8834:0:0:0:0:
448,192,9048,128,0,9155:0:0:0:0:
192,192,9048,1,0,0:0:0:0:
64,192,9048,1,0,0:0:0:0:
320,192,9155,128,0,9262:0:0:0:0:
192,192,9155,1,0,0:0:0:0:
64,192,9155,1,0,0:0:0:0:
192,192,9370,128,0,9477:0:0:0:0:
320,192,9370,1,0,0:0:0:0:
64,192,9584,128,0,9798:0:0:0:0:
448,192,9584,1,0,0:0:0:0:
320,192,9584,1,0,0:0:0:0:
192,192,9798,128,0,10012:0:0:0:0:
320,192,9905,1,0,0:0:0:0:
448,192,9905,1,0,0:0:0:0:
320,192,10012,128,0,10227:0:0:0:0:
448,192,10012,1,0,0:0:0:0:
64,192,10012,1,0,0:0:0:0:
448,192,10227,128,0,10441:0:0:0:0:
192,192,10227,1,0,0:0:0:0:
64,192,10227,1,0,0:0:0:0:
320,192,10441,1,0,0:0:0:0:
64,192,10441,1,0,0:0:0:0:
192,192,10441,128,0,10655:0:0:0:0:
64,192,10655,128,0,10870:0:0:0:0:
448,192,10762,1,0,0:0:0:0:
320,192,10762,1,0,0:0:0:0:
448,192,10870,128,0,11084:0:0:0:0:
192,192,10870,1,0,0:0:0:0:
320,192,10870,1,0,0:0:0:0:
320,192,11084,128,0,11298:0:0:0:0:
64,192,11084,1,0,0:0:0:0:
192,192,11084,1,0,0:0:0:0:
64,192,11298,1,0,0:0:0:0:
192,192,11298,1,0,0:0:0:0:
448,192,11298,1,0,0:0:0:0:
448,192,11512,1,0,0:0:0:0:
192,192,11512,1,0,0:0:0:0:
64,192,11512,1,0,0:0:0:0:
448,192,11727,1,0,0:0:0:0:
64,192,11727,1,0,0:0:0:0:
192,192,11727,1,0,0:0:0:0:
192,192,11941,128,0,12048:0:0:0:0:
448,192,12048,128,0,12155:0:0:0:0:
192,192,12155,1,0,0:0:0:0:
320,192,12155,1,0,0:0:0:0:
64,192,12155,128,0,12262:0:0:0:0:
64,192,12477,1,0,0:0:0:0:
192,192,12477,1,0,0:0:0:0:
320,192,12477,1,0,0:0:0:0:
64,192,12584,128,0,12691:0:0:0:0:
320,192,12584,1,0,0:0:0:0:
448,192,12584,1,0,0:0:0:0:
192,192,12798,128,0,12905:0:0:0:0:
320,192,12798,1,0,0:0:0:0:
192,192,13012,1,0,0:0:0:0:
64,192,13012,1,0,0:0:0:0:
448,192,13012,128,0,13227:0:0:0:0:
320,192,13227,128,0,13441:0:0:0:0:
192,192,13334,1,0,0:0:0:0:
64,192,13334,1,0,0:0:0:0:
64,192,13441,128,0,13655:0:0:0:0:
192,192,13441,1,0,0:0:0:0:
448,192,13441,1,0,0:0:0:0:
192,192,13655,128,0,13870:0:0:0:0:
448,192,13655,1,0,0:0:0:0:
320,192,13655,1,0,0:0:0:0:
448,192,13870,128,0,14084:0:0:0:0:
320,192,13870,1,0,0:0:0:0:
64,192,13870,1,0,0:0:0:0:
320,192,14084,128,0,14298:0:0:0:0:
192,192,14191,1,0,0:0:0:0:
64,192,14191,1,0,0:0:0:0:
64,192,14298,128,0,14512:0:0:0:0:
192,192,14298,1,0,0:0:0:0:
448,192,14298,1,0,0:0:0:0:
192,192,14512,128,0,14727:0:0:0:0:
320,192,14512,1,0,0:0:0:0:
448,192,14512,1,0,0:0:0:0:
320,192,14727,1,0,0:0:0:0:
64,192,14727,1,0,0:0:0:0:
448,192,14727,1,0,0:0:0:0:
448,192,14941,1,0,0:0:0:0:
320,192,14941,1,0,0:0:0:0:
64,192,14941,1,0,0:0:0:0:
64,192,15155,1,0,0:0:0:0:
320,192,15155,1,0,0:0:0:0:
448,192,15155,1,0,0:0:0:0:
192,192,15370,128,0,15477:0:0:0:0:
320,192,15477,128,0,15584:0:0:0:0:
64,192,15584,1,0,0:0:0:0:
192,192,15584,1,0,0:0:0:0:
448,192,15584,128,0,15691:0:0:0:0:
448,192,15905,1,0,0:0:0:0:
320,192,15905,1,0,0:0:0:0:
192,192,15905,1,0,0:0:0:0:
448,192,16012,128,0,16120:0:0:0:0:
192,192,16012,1,0,0:0:0:0:
64,192,16012,1,0,0:0:0:0:
320,192,16227,128,0,16334:0:0:0:0:
192,192,16227,1,0,0:0:0:0:
448,192,16441,128,0,16655:0:0:0:0:
192,192,16441,1,0,0:0:0:0:
64,192,16441,1,0,0:0:0:0:
192,192,16655,128,0,16870:0:0:0:0:
64,192,16655,1,0,0:0:0:0:
320,192,16762,1,0,0:0:0:0:
448,192,16762,1,0,0:0:0:0:
64,192,16870,128,0,17084:0:0:0:0:
448,192,16870,1,0,0:0:0:0:
320,192,16870,1,0,0:0:0:0:
320,192,17084,128,0,17298:0:0:0:0:
192,192,17084,1,0,0:0:0:0:
448,192,17298,128,0,17405:0:0:0:0:
192,192,17298,1,0,0:0:0:0:
64,192,17298,1,0,0:0:0:0:
192,192,17512,128,0,17620:0:0:0:0:
320,192,17620,1,0,0:0:0:0:
448,192,17620,1,0,0:0:0:0:
448,192,17727,128,0,17834:0:0:0:0:
64,192,17727,1,0,0:0:0:0:
192,192,17727,1,0,0:0:0:0:
192,192,17834,128,0,17941:0:0:0:0:
320,192,17941,128,0,18048:0:0:0:0:
448,192,17941,1,0,0:0:0:0:
64,192,18048,128,0,18155:0:0:0:0:
320,192,18155,128,0,18370:0:0:0:0:
448,192,18155,1,0,0:0:0:0:
192,192,18155,1,0,0:0:0:0:
64,192,18370,128,0,18477:0:0:0:0:
448,192,18477,1,0,0:0:0:0:
192,192,18477,1,0,0:0:0:0:
320,192,18584,128,0,18798:0:0:0:0:
448,192,18584,1,0,0:0:0:0:
64,192,18584,1,0,0:0:0:0:
192,192,18798,128,0,18905:0:0:0:0:
64,192,18798,1,0,0:0:0:0:
448,192,19012,128,0,19120:0:0:0:0:
64,192,19012,1,0,0:0:0:0:
192,192,19012,1,0,0:0:0:0:
320,192,19012,1,0,0:0:0:0:
448,192,19334,128,0,19441:0:0:0:0:
192,192,19334,1,0,0:0:0:0:
64,192,19334,1,0,0:0:0:0:
192,192,19441,128,0,19548:0:0:0:0:
64,192,19441,1,0,0:0:0:0:
320,192,19441,1,0,0:0:0:0:
320,192,19655,128,0,19762:0:0:0:0:
192,192,19655,1,0,0:0:0:0:
320,192,19870,1,0,0:0:0:0:
448,192,19870,1,0,0:0:0:0:
64,192,19870,128,0,20084:0:0:0:0:
192,192,19870,1,0,0:0:0:0:
448,192,20084,128,0,20191:0:0:0:0:
320,192,20084,1,0,0:0:0:0:
64,192,20298,128,0,20405:0:0:0:0:
192,192,20298,1,0,0:0:0:0:
448,192,20298,1,0,0:0:0:0:
64,192,20512,128,0,20620:0:0:0:0:
192,192,20512,1,0,0:0:0:0:
320,192,20620,1,0,0:0:0:0:
448,192,20620,1,0,0:0:0:0:
64,192,20727,1,0,0:0:0:0:
448,192,20727,1,0,0:0:0:0:
320,192,20727,1,0,0:0:0:0:
192,192,20727,128,0,20941:0:0:0:0:
448,192,21155,1,0,0:0:0:0:
64,192,21155,1,0,0:0:0:0:
320,192,21155,1,0,0:0:0:0:
192,192,21155,1,0,0:0:0:0:
448,192,21262,1,0,0:0:0:0:
448,192,21370,1,0,0:0:0:0:
64,192,21370,1,0,0:0:0:0:
448,192,21477,1,0,0:0:0:0:
320,192,21584,1,0,0:0:0:0:
64,192,21584,1,0,0:0:0:0:
192,192,21584,1,0,0:0:0:0:
448,192,21584,1,0,0:0:0:0:
192,192,21691,1,0,0:0:0:0:
320,192,21798,1,0,0:0:0:0:
64,192,21798,1,0,0:0:0:0:
64,192,21905,1,0,0:0:0:0:
448,192,22012,1,0,0:0:0:0:
192,192,22012,1,0,0:0:0:0:
64,192,22012,1,0,0:0:0:0:
64,192,22120,1,0,0:0:0:0:
192,192,22120,1,0,0:0:0:0:
448,192,22120,1,0,0:0:0:0:
64,192,22227,1,0,0:0:0:0:
448,192,22227,1,0,0:0:0:0:
192,192,22227,1,0,0:0:0:0:
448,192,22334,1,0,0:0:0:0:
192,192,22334,1,0,0:0:0:0:
64,192,22334,1,0,0:0:0:0:
192,192,22441,128,0,22762:0:0:0:0:
64,192,22441,128,0,22870:0:0:0:0:
320,192,22441,128,0,22655:0:0:0:0:
448,192,22441,1,0,0:0:0:0:
448,192,22870,1,0,0:0:0:0:
320,192,22870,1,0,0:0:0:0:
192,192,22870,1,0,0:0:0:0:
448,192,22977,1,0,0:0:0:0:
448,192,23084,1,0,0:0:0:0:
64,192,23084,1,0,0:0:0:0:
192,192,23084,1,0,0:0:0:0:
448,192,23191,1,0,0:0:0:0:
64,192,23298,1,0,0:0:0:0:
320,192,23298,1,0,0:0:0:0:
192,192,23298,1,0,0:0:0:0:
192,192,23405,1,0,0:0:0:0:
64,192,23512,1,0,0:0:0:0:
320,192,23512,1,0,0:0:0:0:
64,192,23620,1,0,0:0:0:0:
192,192,23727,128,0,23941:0:0:0:0:
448,192,23727,1,0,0:0:0:0:
320,192,23834,128,0,23941:0:0:0:0:
64,192,23941,128,0,24155:0:0:0:0:
192,192,24048,128,0,24155:0:0:0:0:
320,192,24102,128,0,24155:0:0:0:0:
448,192,24155,128,0,24370:0:0:0:0:
320,192,24370,128,0,24584:0:0:0:0:
192,192,24370,1,0,0:0:0:0:
64,192,24370,1,0,0:0:0:0:
192,192,24584,128,0,24798:0:0:0:0:
64,192,24584,1,0,0:0:0:0:
448,192,24584,1,0,0:0:0:0:
64,192,24798,128,0,25012:0:0:0:0:
320,192,24798,1,0,0:0:0:0:
320,192,25012,1,0,0:0:0:0:
448,192,25012,1,0,0:0:0:0:
192,192,25012,128,0,25120:0:0:0:0:
320,192,25120,1,0,0:0:0:0:
448,192,25227,1,0,0:0:0:0:
192,192,25227,128,0,25441:0:0:0:0:
448,192,25334,1,0,0:0:0:0:
64,192,25441,1,0,0:0:0:0:
320,192,25441,128,0,25762:0:0:0:0:
448,192,25441,1,0,0:0:0:0:
64,192,25548,1,0,0:0:0:0:
192,192,25655,1,0,0:0:0:0:
448,192,25655,1,0,0:0:0:0:
64,192,25762,1,0,0:0:0:0:
320,192,25870,128,0,26245:0:0:0:0:
448,192,25870,1,0,0:0:0:0:
192,192,25923,128,0,26191:0:0:0:0:
64,192,25977,128,0,26137:0:0:0:0:
448,192,26084,128,0,26298:0:0:0:0:
192,192,26298,128,0,26673:0:0:0:0:
320,192,26352,128,0,26620:0:0:0:0:
448,192,26405,128,0,26566:0:0:0:0:
64,192,26512,128,0,26727:0:0:0:0:
320,192,26727,1,0,0:0:0:0:
448,192,26727,1,0,0:0:0:0:
192,192,26727,1,0,0:0:0:0:
320,192,26834,1,0,0:0:0:0:
192,192,26941,1,0,0:0:0:0:
448,192,26941,1,0,0:0:0:0:
448,192,27048,1,0,0:0:0:0:
64,192,27155,1,0,0:0:0:0:
320,192,27155,128,0,27370:0:0:0:0:
192,192,27262,128,0,27370:0:0:0:0:
448,192,27370,128,0,27584:0:0:0:0:
320,192,27477,128,0,27584:0:0:0:0:
192,192,27530,128,0,27584:0:0:0:0:
64,192,27584,128,0,27798:0:0:0:0:
192,192,27798,128,0,28012:0:0:0:0:
448,192,27798,1,0,0:0:0:0:
320,192,27798,1,0,0:0:0:0:
320,192,28012,128,0,28227:0:0:0:0:
448,192,28012,1,0,0:0:0:0:
64,192,28012,1,0,0:0:0:0:
448,192,28227,128,0,28441:0:0:0:0:
192,192,28227,1,0,0:0:0:0:
320,192,28441,128,0,28548:0:0:0:0:
192,192,28441,1,0,0:0:0:0:
64,192,28441,1,0,0:0:0:0:
192,192,28548,1,0,0:0:0:0:
64,192,28655,1,0,0:0:0:0:
320,192,28655,128,0,28870:0:0:0:0:
64,192,28762,1,0,0:0:0:0:
192,192,28870,128,0,29191:0:0:0:0:
448,192,28870,1,0,0:0:0:0:
64,192,28870,1,0,0:0:0:0:
448,192,28977,1,0,0:0:0:0:
320,192,29084,1,0,0:0:0:0:
448,192,29191,1,0,0:0:0:0:
192,192,29298,128,0,29620:0:0:0:0:
64,192,29298,128,0,29727:0:0:0:0:
320,192,29298,128,0,29512:0:0:0:0:
448,192,29298,1,0,0:0:0:0:
448,192,29727,1,0,0:0:0:0:
320,192,29727,1,0,0:0:0:0:
192,192,29727,1,0,0:0:0:0:
448,192,29834,1,0,0:0:0:0:
448,192,29941,1,0,0:0:0:0:
64,192,29941,1,0,0:0:0:0:
192,192,29941,1,0,0:0:0:0:
448,192,30048,1,0,0:0:0:0:
64,192,30155,1,0,0:0:0:0:
320,192,30155,1,0,0:0:0:0:
192,192,30155,1,0,0:0:0:0:
192,192,30262,1,0,0:0:0:0:
64,192,30370,1,0,0:0:0:0:
320,192,30370,1,0,0:0:0:0:
64,192,30477,1,0,0:0:0:0:
192,192,30584,128,0,30798:0:0:0:0:
448,192,30584,1,0,0:0:0:0:
320,192,30691,128,0,30798:0:0:0:0:
64,192,30798,128,0,31012:0:0:0:0:
192,192,30905,128,0,31012:0:0:0:0:
320,192,30959,128,0,31012:0:0:0:0:
448,192,31012,128,0,31227:0:0:0:0:
320,192,31227,128,0,31441:0:0:0:0:
192,192,31227,1,0,0:0:0:0:
64,192,31227,1,0,0:0:0:0:
192,192,31441,128,0,31655:0:0:0:0:
64,192,31441,1,0,0:0:0:0:
448,192,31441,1,0,0:0:0:0:
64,192,31655,128,0,31870:0:0:0:0:
320,192,31655,1,0,0:0:0:0:
320,192,31870,1,0,0:0:0:0:
448,192,31870,1,0,0:0:0:0:
192,192,31870,128,0,31977:0:0:0:0:
320,192,31977,1,0,0:0:0:0:
448,192,32084,1,0,0:0:0:0:
192,192,32084,128,0,32298:0:0:0:0:
448,192,32191,1,0,0:0:0:0:
64,192,32298,1,0,0:0:0:0:
320,192,32298,128,0,32620:0:0:0:0:
448,192,32298,1,0,0:0:0:0:
64,192,32405,1,0,0:0:0:0:
192,192,32512,1,0,0:0:0:0:
448,192,32512,1,0,0:0:0:0:
64,192,32620,1,0,0:0:0:0:
320,192,32727,128,0,33102:0:0:0:0:
448,192,32727,1,0,0:0:0:0:
192,192,32780,128,0,33048:0:0:0:0:
64,192,32834,128,0,32995:0:0:0:0:
448,192,32941,128,0,33155:0:0:0:0:
192,192,33155,128,0,33530:0:0:0:0:
320,192,33209,128,0,33477:0:0:0:0:
448,192,33262,128,0,33423:0:0:0:0:
64,192,33370,128,0,33584:0:0:0:0:
320,192,33584,1,0,0:0:0:0:
448,192,33584,1,0,0:0:0:0:
192,192,33584,1,0,0:0:0:0:
320,192,33691,1,0,0:0:0:0:
192,192,33798,1,0,0:0:0:0:
448,192,33798,1,0,0:0:0:0:
448,192,33905,1,0,0:0:0:0:
64,192,34012,1,0,0:0:0:0:
320,192,34012,128,0,34227:0:0:0:0:
192,192,34120,128,0,34227:0:0:0:0:
448,192,34227,128,0,34441:0:0:0:0:
320,192,34334,128,0,34441:0:0:0:0:
192,192,34387,128,0,34441:0:0:0:0:
64,192,34441,128,0,34655:0:0:0:0:
192,192,34655,128,0,34870:0:0:0:0:
448,192,34655,1,0,0:0:0:0:
320,192,34655,1,0,0:0:0:0:
320,192,34870,128,0,35084:0:0:0:0:
448,192,34870,1,0,0:0:0:0:
64,192,34870,1,0,0:0:0:0:
448,192,35084,128,0,35298:0:0:0:0:
192,192,35084,1,0,0:0:0:0:
320,192,35298,128,0,35405:0:0:0:0:
192,192,35298,1,0,0:0:0:0:
64,192,35298,1,0,0:0:0:0:
192,192,35405,1,0,0:0:0:0:
64,192,35512,1,0,0:0:0:0:
320,192,35512,128,0,35727:0:0:0:0:
64,192,35620,1,0,0:0:0:0:
448,192,35727,1,0,0:0:0:0:
64,192,35727,1,0,0:0:0:0:
192,192,35727,1,0,0:0:0:0:
448,192,35834,1,0,0:0:0:0:
192,192,35834,1,0,0:0:0:0:
64,192,35834,1,0,0:0:0:0:
448,192,35941,1,0,0:0:0:0:
64,192,35941,1,0,0:0:0:0:
192,192,35941,1,0,0:0:0:0:
448,192,36048,1,0,0:0:0:0:
192,192,36048,1,0,0:0:0:0:
64,192,36048,1,0,0:0:0:0:
64,192,36155,1,0,0:0:0:0:
192,192,36155,1,0,0:0:0:0:
448,192,36155,1,0,0:0:0:0:
320,192,36155,1,0,0:0:0:0:
320,192,36298,1,0,0:0:0:0:
192,192,36370,1,0,0:0:0:0:
448,192,36441,1,0,0:0:0:0:
192,192,36512,1,0,0:0:0:0:
448,192,36584,1,0,0:0:0:0:
320,192,36584,128,0,36691:0:0:0:0:
64,192,36584,128,0,36691:0:0:0:0:
320,192,36798,1,0,0:0:0:0:
192,192,36798,128,0,36905:0:0:0:0:
64,192,36798,128,0,36905:0:0:0:0:
448,192,37012,1,0,0:0:0:0:
320,192,37012,128,0,37120:0:0:0:0:
64,192,37012,128,0,37120:0:0:0:0:
320,192,37227,1,0,0:0:0:0:
192,192,37227,128,0,37334:0:0:0:0:
64,192,37227,128,0,37334:0:0:0:0:
448,192,37441,1,0,0:0:0:0:
320,192,37441,128,0,37548:0:0:0:0:
64,192,37441,128,0,37548:0:0:0:0:
320,192,37655,1,0,0:0:0:0:
448,192,37655,128,0,37762:0:0:0:0:
192,192,37655,128,0,37762:0:0:0:0:
192,192,37870,1,0,0:0:0:0:
64,192,37870,1,0,0:0:0:0:
448,192,37870,1,0,0:0:0:0:
192,192,37977,1,0,0:0:0:0:
64,192,37977,1,0,0:0:0:0:
448,192,38084,1,0,0:0:0:0:
320,192,38084,1,0,0:0:0:0:
320,192,38191,1,0,0:0:0:0:
448,192,38191,1,0,0:0:0:0:
192,192,38298,1,0,0:0:0:0:
64,192,38298,1,0,0:0:0:0:
448,192,38298,1,0,0:0:0:0:
192,192,38405,1,0,0:0:0:0:
64,192,38405,1,0,0:0:0:0:
320,192,38512,1,0,0:0:0:0:
192,192,38512,1,0,0:0:0:0:
192,192,38620,1,0,0:0:0:0:
320,192,38620,1,0,0:0:0:0:
320,192,38727,1,0,0:0:0:0:
448,192,38727,1,0,0:0:0:0:
64,192,38727,1,0,0:0:0:0:
448,192,38834,1,0,0:0:0:0:
320,192,38834,1,0,0:0:0:0:
192,192,38941,1,0,0:0:0:0:
64,192,38941,1,0,0:0:0:0:
192,192,39048,1,0,0:0:0:0:
64,192,39048,1,0,0:0:0:0:
448,192,39155,1,0,0:0:0:0:
320,192,39155,1,0,0:0:0:0:
64,192,39155,1,0,0:0:0:0:
64,192,39262,1,0,0:0:0:0:
448,192,39262,1,0,0:0:0:0:
192,192,39370,1,0,0:0:0:0:
320,192,39370,1,0,0:0:0:0:
320,192,39477,1,0,0:0:0:0:
192,192,39477,1,0,0:0:0:0:
64,192,39584,1,0,0:0:0:0:
320,192,39584,128,0,39691:0:0:0:0:
192,192,39584,128,0,39691:0:0:0:0:
320,192,39798,128,0,39905:0:0:0:0:
192,192,39798,128,0,39905:0:0:0:0:
320,192,40012,128,0,40120:0:0:0:0:
448,192,40012,128,0,40120:0:0:0:0:
64,192,40012,1,0,0:0:0:0:
320,192,40227,128,0,40334:0:0:0:0:
448,192,40227,128,0,40334:0:0:0:0:
192,192,40441,128,0,40548:0:0:0:0:
64,192,40441,128,0,40548:0:0:0:0:
448,192,40441,1,0,0:0:0:0:
192,192,40655,128,0,40762:0:0:0:0:
64,192,40655,128,0,40762:0:0:0:0:
448,192,40870,128,0,40977:0:0:0:0:
64,192,40870,128,0,40977:0:0:0:0:
320,192,40870,1,0,0:0:0:0:
448,192,41084,128,0,41191:0:0:0:0:
64,192,41084,128,0,41191:0:0:0:0:
192,192,41298,1,0,0:0:0:0:
64,192,41298,1,0,0:0:0:0:
448,192,41298,1,0,0:0:0:0:
64,192,41405,1,0,0:0:0:0:
192,192,41405,1,0,0:0:0:0:
64,192,41512,1,0,0:0:0:0:
448,192,41512,1,0,0:0:0:0:
64,192,41620,1,0,0:0:0:0:
448,192,41620,1,0,0:0:0:0:
320,192,41727,1,0,0:0:0:0:
448,192,41727,1,0,0:0:0:0:
192,192,41727,1,0,0:0:0:0:
448,192,41834,1,0,0:0:0:0:
320,192,41834,1,0,0:0:0:0:
448,192,41941,1,0,0:0:0:0:
64,192,41941,1,0,0:0:0:0:
64,192,42048,1,0,0:0:0:0:
448,192,42048,1,0,0:0:0:0:
64,192,42155,1,0,0:0:0:0:
320,192,42155,128,0,42262:0:0:0:0:
192,192,42155,128,0,42262:0:0:0:0:
64,192,42370,1,0,0:0:0:0:
320,192,42370,128,0,42477:0:0:0:0:
192,192,42370,128,0,42477:0:0:0:0:
64,192,42584,1,0,0:0:0:0:
320,192,42584,128,0,42691:0:0:0:0:
192,192,42584,128,0,42691:0:0:0:0:
64,192,42798,1,0,0:0:0:0:
320,192,42798,128,0,42905:0:0:0:0:
192,192,42798,128,0,42905:0:0:0:0:
64,192,43012,1,0,0:0:0:0:
192,192,43012,1,0,0:0:0:0:
448,192,43012,1,0,0:0:0:0:
320,192,43012,1,0,0:0:0:0:
320,192,43155,1,0,0:0:0:0:
192,192,43227,1,0,0:0:0:0:
448,192,43298,1,0,0:0:0:0:
192,192,43370,1,0,0:0:0:0:
448,192,43441,1,0,0:0:0:0:
320,192,43441,128,0,43548:0:0:0:0:
64,192,43441,128,0,43548:0:0:0:0:
320,192,43655,1,0,0:0:0:0:
192,192,43655,128,0,43762:0:0:0:0:
64,192,43655,128,0,43762:0:0:0:0:
448,192,43870,1,0,0:0:0:0:
320,192,43870,128,0,43977:0:0:0:0:
64,192,43870,128,0,43977:0:0:0:0:
320,192,44084,1,0,0:0:0:0:
192,192,44084,128,0,44191:0:0:0:0:
64,192,44084,128,0,44191:0:0:0:0:
448,192,44298,1,0,0:0:0:0:
320,192,44298,128,0,44405:0:0:0:0:
64,192,44298,128,0,44405:0:0:0:0:
320,192,44512,1,0,0:0:0:0:
448,192,44512,128,0,44620:0:0:0:0:
192,192,44512,128,0,44620:0:0:0:0:
192,192,44727,1,0,0:0:0:0:
64,192,44727,1,0,0:0:0:0:
448,192,44727,1,0,0:0:0:0:
192,192,44834,1,0,0:0:0:0:
64,192,44834,1,0,0:0:0:0:
448,192,44941,1,0,0:0:0:0:
320,192,44941,1,0,0:0:0:0:
320,192,45048,1,0,0:0:0:0:
448,192,45048,1,0,0:0:0:0:
192,192,45155,1,0,0:0:0:0:
64,192,45155,1,0,0:0:0:0:
448,192,45155,1,0,0:0:0:0:
192,192,45262,1,0,0:0:0:0:
64,192,45262,1,0,0:0:0:0:
320,192,45370,1,0,0:0:0:0:
192,192,45370,1,0,0:0:0:0:
192,192,45477,1,0,0:0:0:0:
320,192,45477,1,0,0:0:0:0:
320,192,45584,1,0,0:0:0:0:
448,192,45584,1,0,0:0:0:0:
64,192,45584,1,0,0:0:0:0:
448,192,45691,1,0,0:0:0:0:
320,192,45691,1,0,0:0:0:0:
192,192,45798,1,0,0:0:0:0:
64,192,45798,1,0,0:0:0:0:
192,192,45905,1,0,0:0:0:0:
64,192,45905,1,0,0:0:0:0:
448,192,46012,1,0,0:0:0:0:
320,192,46012,1,0,0:0:0:0:
64,192,46012,1,0,0:0:0:0:
64,192,46120,1,0,0:0:0:0:
448,192,46120,1,0,0:0:0:0:
192,192,46227,1,0,0:0:0:0:
320,192,46227,1,0,0:0:0:0:
320,192,46334,1,0,0:0:0:0:
192,192,46334,1,0,0:0:0:0:
64,192,46441,1,0,0:0:0:0:
320,192,46441,128,0,46548:0:0:0:0:
448,192,46441,128,0,46548:0:0:0:0:
192,192,46441,1,0,0:0:0:0:
320,192,46655,128,0,46762:0:0:0:0:
448,192,46655,128,0,46762:0:0:0:0:
320,192,46870,128,0,46977:0:0:0:0:
192,192,46870,128,0,46977:0:0:0:0:
64,192,46870,1,0,0:0:0:0:
320,192,47084,128,0,47191:0:0:0:0:
192,192,47084,128,0,47191:0:0:0:0:
192,192,47298,128,0,47405:0:0:0:0:
64,192,47298,128,0,47405:0:0:0:0:
448,192,47298,1,0,0:0:0:0:
320,192,47298,1,0,0:0:0:0:
192,192,47512,128,0,47620:0:0:0:0:
64,192,47512,128,0,47620:0:0:0:0:
320,192,47727,128,0,47834:0:0:0:0:
192,192,47727,128,0,47834:0:0:0:0:
448,192,47727,1,0,0:0:0:0:
320,192,47941,128,0,48048:0:0:0:0:
192,192,47941,128,0,48048:0:0:0:0:
192,192,48155,1,0,0:0:0:0:
64,192,48155,1,0,0:0:0:0:
448,192,48155,1,0,0:0:0:0:
320,192,48155,1,0,0:0:0:0:
64,192,48262,1,0,0:0:0:0:
192,192,48262,1,0,0:0:0:0:
64,192,48370,1,0,0:0:0:0:
448,192,48370,1,0,0:0:0:0:
64,192,48477,1,0,0:0:0:0:
448,192,48477,1,0,0:0:0:0:
320,192,48584,1,0,0:0:0:0:
448,192,48584,1,0,0:0:0:0:
192,192,48584,1,0,0:0:0:0:
64,192,48584,1,0,0:0:0:0:
192,192,48691,1,0,0:0:0:0:
320,192,48691,1,0,0:0:0:0:
320,192,48798,1,0,0:0:0:0:
448,192,48798,1,0,0:0:0:0:
320,192,48905,1,0,0:0:0:0:
448,192,48905,1,0,0:0:0:0:
64,192,49012,1,0,0:0:0:0:
320,192,49012,128,0,49120:0:0:0:0:
448,192,49012,128,0,49120:0:0:0:0:
192,192,49012,1,0,0:0:0:0:
64,192,49227,1,0,0:0:0:0:
320,192,49227,128,0,49334:0:0:0:0:
448,192,49227,128,0,49334:0:0:0:0:
64,192,49441,1,0,0:0:0:0:
320,192,49441,1,0,0:0:0:0:
448,192,49441,1,0,0:0:0:0:
320,192,49548,1,0,0:0:0:0:
64,192,49548,1,0,0:0:0:0:
448,192,49548,1,0,0:0:0:0:
64,192,49655,1,0,0:0:0:0:
320,192,49655,1,0,0:0:0:0:
448,192,49655,1,0,0:0:0:0:
64,192,49762,1,0,0:0:0:0:
320,192,49762,1,0,0:0:0:0:
448,192,49762,1,0,0:0:0:0:
64,192,49870,128,0,49977:0:0:0:0:
192,192,49870,128,0,49977:0:0:0:0:
320,192,49870,128,0,49977:0:0:0:0:
448,192,49870,128,0,49977:0:0:0:0:
320,192,50191,1,0,0:0:0:0:
448,192,50191,1,0,0:0:0:0:
448,192,50298,1,0,0:0:0:0:
192,192,50298,128,0,50405:0:0:0:0:
64,192,50298,128,0,50405:0:0:0:0:
448,192,50512,1,0,0:0:0:0:
320,192,50512,1,0,0:0:0:0:
448,192,50727,128,0,50834:0:0:0:0:
320,192,50727,128,0,50834:0:0:0:0:
192,192,50727,128,0,50834:0:0:0:0:
64,192,50727,128,0,50834:0:0:0:0:
320,192,51048,1,0,0:0:0:0:
448,192,51048,1,0,0:0:0:0:
64,192,51155,128,0,51262:0:0:0:0:
192,192,51155,128,0,51262:0:0:0:0:
448,192,51155,1,0,0:0:0:0:
320,192,51370,1,0,0:0:0:0:
448,192,51370,1,0,0:0:0:0:
448,192,51584,128,0,51691:0:0:0:0:
320,192,51584,128,0,51691:0:0:0:0:
192,192,51584,128,0,51691:0:0:0:0:
64,192,51584,128,0,51691:0:0:0:0:
448,192,51905,1,0,0:0:0:0:
320,192,51905,1,0,0:0:0:0:
448,192,52012,1,0,0:0:0:0:
192,192,52012,128,0,52120:0:0:0:0:
64,192,52012,128,0,52120:0:0:0:0:
448,192,52227,1,0,0:0:0:0:
320,192,52227,1,0,0:0:0:0:
448,192,52441,1,0,0:0:0:0:
320,192,52441,1,0,0:0:0:0:
64,192,52441,1,0,0:0:0:0:
320,192,52584,1,0,0:0:0:0:
448,192,52584,1,0,0:0:0:0:
448,192,52727,1,0,0:0:0:0:
320,192,52727,1,0,0:0:0:0:
448,192,52870,1,0,0:0:0:0:
192,192,52870,128,0,52977:0:0:0:0:
64,192,52870,128,0,52977:0:0:0:0:
448,192,53084,1,0,0:0:0:0:
320,192,53084,1,0,0:0:0:0:
448,192,53298,128,0,53405:0:0:0:0:
320,192,53298,128,0,53405:0:0:0:0:
192,192,53298,128,0,53405:0:0:0:0:
64,192,53298,128,0,53405:0:0:0:0:
192,192,53620,1,0,0:0:0:0:
64,192,53620,1,0,0:0:0:0:
64,192,53727,1,0,0:0:0:0:
320,192,53727,128,0,53834:0:0:0:0:
448,192,53727,128,0,53834:0:0:0:0:
64,192,53941,1,0,0:0:0:0:
192,192,53941,1,0,0:0:0:0:
64,192,54155,128,0,54262:0:0:0:0:
192,192,54155,128,0,54262:0:0:0:0:
320,192,54155,128,0,54262:0:0:0:0:
448,192,54155,128,0,54262:0:0:0:0:
192,192,54477,1,0,0:0:0:0:
64,192,54477,1,0,0:0:0:0:
448,192,54584,128,0,54691:0:0:0:0:
320,192,54584,128,0,54691:0:0:0:0:
64,192,54584,1,0,0:0:0:0:
192,192,54798,1,0,0:0:0:0:
64,192,54798,1,0,0:0:0:0:
64,192,55012,128,0,55120:0:0:0:0:
192,192,55012,128,0,55120:0:0:0:0:
320,192,55012,128,0,55120:0:0:0:0:
448,192,55012,128,0,55120:0:0:0:0:
64,192,55334,1,0,0:0:0:0:
192,192,55334,1,0,0:0:0:0:
64,192,55441,1,0,0:0:0:0:
320,192,55441,128,0,55548:0:0:0:0:
448,192,55441,128,0,55548:0:0:0:0:
64,192,55655,1,0,0:0:0:0:
192,192,55655,1,0,0:0:0:0:
64,192,55870,1,0,0:0:0:0:
192,192,55870,1,0,0:0:0:0:
448,192,55870,1,0,0:0:0:0:
192,192,56012,1,0,0:0:0:0:
64,192,56012,1,0,0:0:0:0:
64,192,56155,1,0,0:0:0:0:
192,192,56155,1,0,0:0:0:0:
64,192,56298,1,0,0:0:0:0:
320,192,56298,128,0,56405:0:0:0:0:
448,192,56298,128,0,56405:0:0:0:0:
448,192,56727,1,0,0:0:0:0:
192,192,56727,1,0,0:0:0:0:
64,192,56727,1,0,0:0:0:0:
192,192,56834,1,0,0:0:0:0:
320,192,56941,1,0,0:0:0:0:
448,192,56941,1,0,0:0:0:0:
320,192,57048,1,0,0:0:0:0:
448,192,57155,1,0,0:0:0:0:
192,192,57155,1,0,0:0:0:0:
64,192,57155,1,0,0:0:0:0:
320,192,57370,1,0,0:0:0:0:
64,192,57370,1,0,0:0:0:0:
448,192,57584,1,0,0:0:0:0:
192,192,57584,1,0,0:0:0:0:
64,192,57584,1,0,0:0:0:0:
320,192,57798,1,0,0:0:0:0:
64,192,57798,1,0,0:0:0:0:
448,192,58012,1,0,0:0:0:0:
192,192,58012,1,0,0:0:0:0:
64,192,58012,1,0,0:0:0:0:
320,192,58227,1,0,0:0:0:0:
448,192,58227,1,0,0:0:0:0:
448,192,58441,1,0,0:0:0:0:
192,192,58441,1,0,0:0:0:0:
64,192,58441,1,0,0:0:0:0:
192,192,58548,1,0,0:0:0:0:
64,192,58655,1,0,0:0:0:0:
64,192,58762,1,0,0:0:0:0:
448,192,58870,1,0,0:0:0:0:
64,192,58870,1,0,0:0:0:0:
192,192,58870,1,0,0:0:0:0:
192,192,58977,1,0,0:0:0:0:
320,192,59084,1,0,0:0:0:0:
320,192,59191,1,0,0:0:0:0:
448,192,59298,1,0,0:0:0:0:
192,192,59298,1,0,0:0:0:0:
64,192,59298,1,0,0:0:0:0:
448,192,59405,1,0,0:0:0:0:
320,192,59512,1,0,0:0:0:0:
320,192,59620,1,0,0:0:0:0:
448,192,59727,1,0,0:0:0:0:
192,192,59727,1,0,0:0:0:0:
64,192,59727,1,0,0:0:0:0:
192,192,59834,1,0,0:0:0:0:
64,192,59941,1,0,0:0:0:0:
64,192,60048,1,0,0:0:0:0:
320,192,60155,1,0,0:0:0:0:
448,192,60155,1,0,0:0:0:0:
192,192,60155,1,0,0:0:0:0:
64,192,60155,1,0,0:0:0:0:
64,192,60370,1,0,0:0:0:0:
192,192,60370,1,0,0:0:0:0:
448,192,60584,1,0,0:0:0:0:
320,192,60584,1,0,0:0:0:0:
192,192,60584,1,0,0:0:0:0:
192,192,60798,1,0,0:0:0:0:
320,192,60798,1,0,0:0:0:0:
448,192,61012,1,0,0:0:0:0:
320,192,61012,1,0,0:0:0:0:
64,192,61012,1,0,0:0:0:0:
192,192,61012,1,0,0:0:0:0:
320,192,61227,1,0,0:0:0:0:
448,192,61227,1,0,0:0:0:0:
448,192,61441,1,0,0:0:0:0:
64,192,61441,1,0,0:0:0:0:
320,192,61441,1,0,0:0:0:0:
64,192,61655,1,0,0:0:0:0:
448,192,61655,1,0,0:0:0:0:
448,192,61870,1,0,0:0:0:0:
320,192,61870,1,0,0:0:0:0:
192,192,61870,1,0,0:0:0:0:
64,192,61870,1,0,0:0:0:0:
320,192,61977,1,0,0:0:0:0:
192,192,62084,1,0,0:0:0:0:
192,192,62191,1,0,0:0:0:0:
448,192,62298,1,0,0:0:0:0:
192,192,62298,1,0,0:0:0:0:
64,192,62298,1,0,0:0:0:0:
320,192,62298,1,0,0:0:0:0:
448,192,62405,1,0,0:0:0:0:
192,192,62512,1,0,0:0:0:0:
192,192,62620,1,0,0:0:0:0:
320,192,62727,1,0,0:0:0:0:
64,192,62727,1,0,0:0:0:0:
64,192,62941,1,0,0:0:0:0:
320,192,62941,1,0,0:0:0:0:
320,192,63155,1,0,0:0:0:0:
64,192,63155,1,0,0:0:0:0:
64,192,63262,1,0,0:0:0:0:
320,192,63262,1,0,0:0:0:0:
64,192,63370,1,0,0:0:0:0:
320,192,63370,1,0,0:0:0:0:
64,192,63477,1,0,0:0:0:0:
320,192,63477,1,0,0:0:0:0:
192,192,63584,128,0,63905:0:0:0:0:
64,192,63584,128,0,64012:0:0:0:0:
320,192,63584,128,0,63798:0:0:0:0:
448,192,63584,1,0,0:0:0:0:
448,192,64012,1,0,0:0:0:0:
320,192,64012,1,0,0:0:0:0:
192,192,64012,1,0,0:0:0:0:
448,192,64120,1,0,0:0:0:0:
448,192,64227,1,0,0:0:0:0:
64,192,64227,1,0,0:0:0:0:
192,192,64227,1,0,0:0:0:0:
448,192,64334,1,0,0:0:0:0:
320,192,64441,128,0,64816:0:0:0:0:
448,192,64441,1,0,0:0:0:0:
192,192,64495,128,0,64762:0:0:0:0:
64,192,64548,128,0,64709:0:0:0:0:
448,192,64655,128,0,64870:0:0:0:0:
192,192,64870,128,0,65245:0:0:0:0:
320,192,64923,128,0,65191:0:0:0:0:
448,192,64977,128,0,65137:0:0:0:0:
64,192,65084,128,0,65298:0:0:0:0:
448,192,65298,128,0,65512:0:0:0:0:
320,192,65298,1,0,0:0:0:0:
320,192,65512,128,0,65727:0:0:0:0:
192,192,65512,1,0,0:0:0:0:
64,192,65512,1,0,0:0:0:0:
192,192,65727,128,0,65941:0:0:0:0:
64,192,65727,1,0,0:0:0:0:
448,192,65727,1,0,0:0:0:0:
64,192,65941,128,0,66155:0:0:0:0:
320,192,65941,1,0,0:0:0:0:
320,192,66155,1,0,0:0:0:0:
448,192,66155,1,0,0:0:0:0:
192,192,66155,128,0,66262:0:0:0:0:
320,192,66262,1,0,0:0:0:0:
448,192,66370,1,0,0:0:0:0:
192,192,66370,128,0,66584:0:0:0:0:
448,192,66477,1,0,0:0:0:0:
64,192,66584,1,0,0:0:0:0:
320,192,66584,128,0,66905:0:0:0:0:
448,192,66584,1,0,0:0:0:0:
64,192,66691,1,0,0:0:0:0:
192,192,66798,1,0,0:0:0:0:
448,192,66798,1,0,0:0:0:0:
64,192,66905,1,0,0:0:0:0:
64,192,67012,128,0,67441:0:0:0:0:
448,192,67012,128,0,67655:0:0:0:0:
320,192,67012,128,0,67548:0:0:0:0:
192,192,67441,1,0,0:0:0:0:
192,192,67548,1,0,0:0:0:0:
64,192,67655,1,0,0:0:0:0:
320,192,67655,1,0,0:0:0:0:
192,192,67655,1,0,0:0:0:0:
64,192,67762,1,0,0:0:0:0:
320,192,67870,1,0,0:0:0:0:
448,192,67870,1,0,0:0:0:0:
64,192,67870,128,0,68084:0:0:0:0:
320,192,67977,1,0,0:0:0:0:
448,192,68084,1,0,0:0:0:0:
192,192,68084,128,0,68298:0:0:0:0:
448,192,68191,1,0,0:0:0:0:
64,192,68298,1,0,0:0:0:0:
320,192,68298,128,0,68512:0:0:0:0:
192,192,68405,128,0,68512:0:0:0:0:
448,192,68512,128,0,68727:0:0:0:0:
320,192,68620,128,0,68727:0:0:0:0:
192,192,68673,128,0,68727:0:0:0:0:
64,192,68727,128,0,69102:0:0:0:0:
448,192,68780,128,0,69048:0:0:0:0:
320,192,68834,128,0,68995:0:0:0:0:
192,192,68941,128,0,69155:0:0:0:0:
448,192,69155,128,0,69530:0:0:0:0:
64,192,69209,128,0,69477:0:0:0:0:
192,192,69262,128,0,69423:0:0:0:0:
320,192,69370,128,0,69584:0:0:0:0:
192,192,69584,1,0,0:0:0:0:
64,192,69584,1,0,0:0:0:0:
192,192,69691,1,0,0:0:0:0:
64,192,69798,1,0,0:0:0:0:
320,192,69798,128,0,70012:0:0:0:0:
64,192,69905,1,0,0:0:0:0:
192,192,70012,128,0,70334:0:0:0:0:
448,192,70012,1,0,0:0:0:0:
64,192,70012,1,0,0:0:0:0:
448,192,70120,1,0,0:0:0:0:
320,192,70227,1,0,0:0:0:0:
448,192,70334,1,0,0:0:0:0:
192,192,70441,128,0,70762:0:0:0:0:
64,192,70441,128,0,70870:0:0:0:0:
320,192,70441,128,0,70655:0:0:0:0:
448,192,70441,1,0,0:0:0:0:
448,192,70870,1,0,0:0:0:0:
320,192,70870,1,0,0:0:0:0:
192,192,70870,1,0,0:0:0:0:
448,192,70977,1,0,0:0:0:0:
448,192,71084,1,0,0:0:0:0:
64,192,71084,1,0,0:0:0:0:
192,192,71084,1,0,0:0:0:0:
448,192,71191,1,0,0:0:0:0:
320,192,71298,128,0,71673:0:0:0:0:
448,192,71298,1,0,0:0:0:0:
192,192,71352,128,0,71620:0:0:0:0:
64,192,71405,128,0,71566:0:0:0:0:
448,192,71512,128,0,71727:0:0:0:0:
192,192,71727,128,0,72102:0:0:0:0:
320,192,71780,128,0,72048:0:0:0:0:
448,192,71834,128,0,71995:0:0:0:0:
64,192,71941,128,0,72155:0:0:0:0:
448,192,72155,128,0,72370:0:0:0:0:
320,192,72155,1,0,0:0:0:0:
320,192,72370,128,0,72584:0:0:0:0:
192,192,72370,1,0,0:0:0:0:
64,192,72370,1,0,0:0:0:0:
192,192,72584,128,0,72798:0:0:0:0:
64,192,72584,1,0,0:0:0:0:
448,192,72584,1,0,0:0:0:0:
64,192,72798,128,0,73012:0:0:0:0:
320,192,72798,1,0,0:0:0:0:
320,192,73012,1,0,0:0:0:0:
448,192,73012,1,0,0:0:0:0:
192,192,73012,128,0,73120:0:0:0:0:
320,192,73120,1,0,0:0:0:0:
448,192,73227,1,0,0:0:0:0:
192,192,73227,128,0,73441:0:0:0:0:
448,192,73334,1,0,0:0:0:0:
64,192,73441,1,0,0:0:0:0:
320,192,73441,128,0,73762:0:0:0:0:
448,192,73441,1,0,0:0:0:0:
64,192,73548,1,0,0:0:0:0:
192,192,73655,1,0,0:0:0:0:
448,192,73655,1,0,0:0:0:0:
64,192,73762,1,0,0:0:0:0:
64,192,73870,128,0,74298:0:0:0:0:
448,192,73870,128,0,74512:0:0:0:0:
320,192,73870,128,0,74405:0:0:0:0:
192,192,74298,1,0,0:0:0:0:
192,192,74405,1,0,0:0:0:0:
64,192,74512,1,0,0:0:0:0:
320,192,74512,1,0,0:0:0:0:
192,192,74512,1,0,0:0:0:0:
64,192,74620,1,0,0:0:0:0:
320,192,74727,1,0,0:0:0:0:
448,192,74727,1,0,0:0:0:0:
64,192,74727,128,0,74941:0:0:0:0:
320,192,74834,1,0,0:0:0:0:
448,192,74941,1,0,0:0:0:0:
192,192,74941,128,0,75155:0:0:0:0:
448,192,75048,1,0,0:0:0:0:
64,192,75155,1,0,0:0:0:0:
320,192,75155,128,0,75370:0:0:0:0:
192,192,75262,128,0,75370:0:0:0:0:
448,192,75370,128,0,75584:0:0:0:0:
320,192,75477,128,0,75584:0:0:0:0:
192,192,75530,128,0,75584:0:0:0:0:
64,192,75584,128,0,75959:0:0:0:0:
448,192,75637,128,0,75905:0:0:0:0:
320,192,75691,128,0,75852:0:0:0:0:
192,192,75798,128,0,76012:0:0:0:0:
448,192,76012,128,0,76387:0:0:0:0:
64,192,76066,128,0,76334:0:0:0:0:
192,192,76120,128,0,76280:0:0:0:0:
320,192,76227,128,0,76441:0:0:0:0:
192,192,76441,1,0,0:0:0:0:
64,192,76441,1,0,0:0:0:0:
192,192,76548,1,0,0:0:0:0:
64,192,76655,1,0,0:0:0:0:
320,192,76655,128,0,76870:0:0:0:0:
448,192,76655,1,0,0:0:0:0:
64,192,76762,1,0,0:0:0:0:
448,192,76870,1,0,0:0:0:0:
64,192,76870,1,0,0:0:0:0:
192,192,76870,1,0,0:0:0:0:
448,192,76977,1,0,0:0:0:0:
192,192,76977,1,0,0:0:0:0:
64,192,76977,1,0,0:0:0:0:
448,192,77084,1,0,0:0:0:0:
64,192,77084,1,0,0:0:0:0:
192,192,77084,1,0,0:0:0:0:
448,192,77191,1,0,0:0:0:0:
192,192,77191,1,0,0:0:0:0:
64,192,77191,1,0,0:0:0:0:
64,192,77298,1,0,0:0:0:0:
192,192,77298,1,0,0:0:0:0:
448,192,77298,1,0,0:0:0:0:
320,192,77298,1,0,0:0:0:0:
320,192,77441,1,0,0:0:0:0:
192,192,77512,1,0,0:0:0:0:
448,192,77584,1,0,0:0:0:0:
192,192,77655,1,0,0:0:0:0:
448,192,77727,1,0,0:0:0:0:
320,192,77727,128,0,77834:0:0:0:0:
64,192,77727,128,0,77834:0:0:0:0:
320,192,77941,1,0,0:0:0:0:
192,192,77941,128,0,78048:0:0:0:0:
64,192,77941,128,0,78048:0:0:0:0:
448,192,78155,1,0,0:0:0:0:
320,192,78155,128,0,78262:0:0:0:0:
64,192,78155,128,0,78262:0:0:0:0:
320,192,78370,1,0,0:0:0:0:
192,192,78370,128,0,78477:0:0:0:0:
64,192,78370,128,0,78477:0:0:0:0:
448,192,78584,1,0,0:0:0:0:
320,192,78584,128,0,78691:0:0:0:0:
64,192,78584,128,0,78691:0:0:0:0:
320,192,78798,1,0,0:0:0:0:
448,192,78798,128,0,78905:0:0:0:0:
192,192,78798,128,0,78905:0:0:0:0:
192,192,79012,1,0,0:0:0:0:
64,192,79012,1,0,0:0:0:0:
448,192,79012,1,0,0:0:0:0:
192,192,79120,1,0,0:0:0:0:
64,192,79120,1,0,0:0:0:0:
448,192,79227,1,0,0:0:0:0:
320,192,79227,1,0,0:0:0:0:
320,192,79334,1,0,0:0:0:0:
448,192,79334,1,0,0:0:0:0:
192,192,79441,1,0,0:0:0:0:
64,192,79441,1,0,0:0:0:0:
448,192,79441,1,0,0:0:0:0:
192,192,79548,1,0,0:0:0:0:
64,192,79548,1,0,0:0:0:0:
320,192,79655,1,0,0:0:0:0:
192,192,79655,1,0,0:0:0:0:
192,192,79762,1,0,0:0:0:0:
320,192,79762,1,0,0:0:0:0:
320,192,79870,1,0,0:0:0:0:
448,192,79870,1,0,0:0:0:0:
64,192,79870,1,0,0:0:0:0:
448,192,79977,1,0,0:0:0:0:
320,192,79977,1,0,0:0:0:0:
192,192,80084,1,0,0:0:0:0:
64,192,80084,1,0,0:0:0:0:
192,192,80191,1,0,0:0:0:0:
64,192,80191,1,0,0:0:0:0:
448,192,80298,1,0,0:0:0:0:
320,192,80298,1,0,0:0:0:0:
64,192,80298,1,0,0:0:0:0:
64,192,80405,1,0,0:0:0:0:
448,192,80405,1,0,0:0:0:0:
192,192,80512,1,0,0:0:0:0:
320,192,80512,1,0,0:0:0:0:
320,192,80620,1,0,0:0:0:0:
192,192,80620,1,0,0:0:0:0:
64,192,80727,1,0,0:0:0:0:
320,192,80727,128,0,80834:0:0:0:0:
192,192,80727,128,0,80834:0:0:0:0:
320,192,80941,128,0,81048:0:0:0:0:
192,192,80941,128,0,81048:0:0:0:0:
320,192,81155,128,0,81262:0:0:0:0:
448,192,81155,128,0,81262:0:0:0:0:
64,192,81155,1,0,0:0:0:0:
320,192,81370,128,0,81477:0:0:0:0:
448,192,81370,128,0,81477:0:0:0:0:
192,192,81584,128,0,81691:0:0:0:0:
64,192,81584,128,0,81691:0:0:0:0:
448,192,81584,1,0,0:0:0:0:
192,192,81798,128,0,81905:0:0:0:0:
64,192,81798,128,0,81905:0:0:0:0:
448,192,82012,128,0,82120:0:0:0:0:
64,192,82012,128,0,82120:0:0:0:0:
320,192,82012,1,0,0:0:0:0:
448,192,82227,128,0,82334:0:0:0:0:
64,192,82227,128,0,82334:0:0:0:0:
192,192,82441,1,0,0:0:0:0:
64,192,82441,1,0,0:0:0:0:
448,192,82441,1,0,0:0:0:0:
64,192,82548,1,0,0:0:0:0:
192,192,82548,1,0,0:0:0:0:
64,192,82655,1,0,0:0:0:0:
448,192,82655,1,0,0:0:0:0:
64,192,82762,1,0,0:0:0:0:
448,192,82762,1,0,0:0:0:0:
320,192,82870,1,0,0:0:0:0:
448,192,82870,1,0,0:0:0:0:
192,192,82870,1,0,0:0:0:0:
448,192,82977,1,0,0:0:0:0:
320,192,82977,1,0,0:0:0:0:
448,192,83084,1,0,0:0:0:0:
64,192,83084,1,0,0:0:0:0:
64,192,83191,1,0,0:0:0:0:
448,192,83191,1,0,0:0:0:0:
64,192,83298,1,0,0:0:0:0:
320,192,83298,128,0,83405:0:0:0:0:
192,192,83298,128,0,83405:0:0:0:0:
64,192,83512,1,0,0:0:0:0:
320,192,83512,128,0,83620:0:0:0:0:
192,192,83512,128,0,83620:0:0:0:0:
64,192,83727,1,0,0:0:0:0:
320,192,83727,128,0,83834:0:0:0:0:
192,192,83727,128,0,83834:0:0:0:0:
64,192,83941,1,0,0:0:0:0:
320,192,83941,128,0,84048:0:0:0:0:
192,192,83941,128,0,84048:0:0:0:0:
64,192,84155,1,0,0:0:0:0:
192,192,84155,1,0,0:0:0:0:
448,192,84155,1,0,0:0:0:0:
320,192,84155,1,0,0:0:0:0:
320,192,84298,1,0,0:0:0:0:
192,192,84370,1,0,0:0:0:0:
448,192,84441,1,0,0:0:0:0:
192,192,84512,1,0,0:0:0:0:
448,192,84584,1,0,0:0:0:0:
320,192,84584,128,0,84691:0:0:0:0:
64,192,84584,128,0,84691:0:0:0:0:
320,192,84798,1,0,0:0:0:0:
192,192,84798,128,0,84905:0:0:0:0:
64,192,84798,128,0,84905:0:0:0:0:
448,192,85012,1,0,0:0:0:0:
320,192,85012,128,0,85120:0:0:0:0:
64,192,85012,128,0,85120:0:0:0:0:
320,192,85227,1,0,0:0:0:0:
192,192,85227,128,0,85334:0:0:0:0:
64,192,85227,128,0,85334:0:0:0:0:
448,192,85441,1,0,0:0:0:0:
320,192,85441,128,0,85548:0:0:0:0:
64,192,85441,128,0,85548:0:0:0:0:
320,192,85655,1,0,0:0:0:0:
448,192,85655,128,0,85762:0:0:0:0:
192,192,85655,128,0,85762:0:0:0:0:
192,192,85870,1,0,0:0:0:0:
64,192,85870,1,0,0:0:0:0:
448,192,85870,1,0,0:0:0:0:
192,192,85977,1,0,0:0:0:0:
64,192,85977,1,0,0:0:0:0:
448,192,86084,1,0,0:0:0:0:
320,192,86084,1,0,0:0:0:0:
320,192,86191,1,0,0:0:0:0:
448,192,86191,1,0,0:0:0:0:
192,192,86298,1,0,0:0:0:0:
64,192,86298,1,0,0:0:0:0:
448,192,86298,1,0,0:0:0:0:
192,192,86405,1,0,0:0:0:0:
64,192,86405,1,0,0:0:0:0:
320,192,86512,1,0,0:0:0:0:
192,192,86512,1,0,0:0:0:0:
192,192,86620,1,0,0:0:0:0:
320,192,86620,1,0,0:0:0:0:
320,192,86727,1,0,0:0:0:0:
448,192,86727,1,0,0:0:0:0:
64,192,86727,1,0,0:0:0:0:
448,192,86834,1,0,0:0:0:0:
320,192,86834,1,0,0:0:0:0:
192,192,86941,1,0,0:0:0:0:
64,192,86941,1,0,0:0:0:0:
192,192,87048,1,0,0:0:0:0:
64,192,87048,1,0,0:0:0:0:
448,192,87155,1,0,0:0:0:0:
320,192,87155,1,0,0:0:0:0:
64,192,87155,1,0,0:0:0:0:
64,192,87262,1,0,0:0:0:0:
448,192,87262,1,0,0:0:0:0:
192,192,87370,1,0,0:0:0:0:
320,192,87370,1,0,0:0:0:0:
320,192,87477,1,0,0:0:0:0:
192,192,87477,1,0,0:0:0:0:
64,192,87584,1,0,0:0:0:0:
320,192,87584,128,0,87691:0:0:0:0:
448,192,87584,128,0,87691:0:0:0:0:
192,192,87584,1,0,0:0:0:0:
320,192,87798,128,0,87905:0:0:0:0:
448,192,87798,128,0,87905:0:0:0:0:
320,192,88012,128,0,88120:0:0:0:0:
192,192,88012,128,0,88120:0:0:0:0:
64,192,88012,1,0,0:0:0:0:
320,192,88227,128,0,88334:0:0:0:0:
192,192,88227,128,0,88334:0:0:0:0:
192,192,88441,128,0,88548:0:0:0:0:
64,192,88441,128,0,88548:0:0:0:0:
448,192,88441,1,0,0:0:0:0:
320,192,88441,1,0,0:0:0:0:
192,192,88655,128,0,88762:0:0:0:0:
64,192,88655,128,0,88762:0:0:0:0:
320,192,88870,128,0,88977:0:0:0:0:
192,192,88870,128,0,88977:0:0:0:0:
448,192,88870,1,0,0:0:0:0:
320,192,89084,128,0,89191:0:0:0:0:
192,192,89084,128,0,89191:0:0:0:0:
192,192,89298,1,0,0:0:0:0:
64,192,89298,1,0,0:0:0:0:
448,192,89298,1,0,0:0:0:0:
320,192,89298,1,0,0:0:0:0:
64,192,89405,1,0,0:0:0:0:
192,192,89405,1,0,0:0:0:0:
64,192,89512,1,0,0:0:0:0:
448,192,89512,1,0,0:0:0:0:
64,192,89620,1,0,0:0:0:0:
448,192,89620,1,0,0:0:0:0:
320,192,89727,1,0,0:0:0:0:
448,192,89727,1,0,0:0:0:0:
192,192,89727,1,0,0:0:0:0:
64,192,89727,1,0,0:0:0:0:
192,192,89834,1,0,0:0:0:0:
320,192,89834,1,0,0:0:0:0:
320,192,89941,1,0,0:0:0:0:
448,192,89941,1,0,0:0:0:0:
320,192,90048,1,0,0:0:0:0:
448,192,90048,1,0,0:0:0:0:
64,192,90155,1,0,0:0:0:0:
320,192,90155,128,0,90262:0:0:0:0:
448,192,90155,128,0,90262:0:0:0:0:
64,192,90370,1,0,0:0:0:0:
320,192,90370,128,0,90477:0:0:0:0:
448,192,90370,128,0,90477:0:0:0:0:
64,192,90584,1,0,0:0:0:0:
320,192,90584,1,0,0:0:0:0:
448,192,90584,1,0,0:0:0:0:
192,192,90584,1,0,0:0:0:0:
320,192,90691,1,0,0:0:0:0:
64,192,90691,1,0,0:0:0:0:
448,192,90691,1,0,0:0:0:0:
192,192,90691,1,0,0:0:0:0:
64,192,90798,1,0,0:0:0:0:
320,192,90798,1,0,0:0:0:0:
448,192,90798,1,0,0:0:0:0:
192,192,90798,1,0,0:0:0:0:
64,192,90905,1,0,0:0:0:0:
320,192,90905,1,0,0:0:0:0:
448,192,90905,1,0,0:0:0:0:
192,192,90905,1,0,0:0:0:0:
64,192,91012,128,0,91120:0:0:0:0:
192,192,91012,128,0,91120:0:0:0:0:
320,192,91012,128,0,91120:0:0:0:0:
448,192,91012,128,0,91120:0:0:0:0:
