osu file format v14

[General]
AudioFilename: audio.mp3
AudioLeadIn: 0
PreviewTime: 63575
Countdown: 0
SampleSet: Normal
StackLeniency: 0.5
Mode: 0
LetterboxInBreaks: 0
WidescreenStoryboard: 1

[Editor]
DistanceSpacing: 1
BeatDivisor: 4
GridSize: 4
TimelineZoom: 3.059999

[Metadata]
Title:Death Moon
TitleUnicode:死月
Artist:SHK
ArtistUnicode:SHK
Creator:-Keitaro
Version:Normal
Source:O2Jam
Tags:video game instrumental electronic trance techno orchestra geometry dash demon pump it up 사월 soundholick sound holick 오투잼
BeatmapID:2481310
BeatmapSetID:1188834

[Difficulty]
HPDrainRate:4
CircleSize:3.5
OverallDifficulty:5
ApproachRate:5.5
SliderMultiplier:1.2
SliderTickRate:1

[Events]
//Background and Video events
0,0,"shkbg.jpg",0,0
//Break Periods
2,113075,123875
//Storyboard Layer 0 (Background)
//Storyboard Layer 1 (Fail)
//Storyboard Layer 2 (Pass)
//Storyboard Layer 3 (Foreground)
//Storyboard Layer 4 (Overlay)
//Storyboard Sound Samples

[TimingPoints]
1497,375,4,1,1,80,1,0
14997,375,4,1,1,80,1,0
26997,-100,4,2,1,70,0,0
32997,-100,4,1,1,80,0,0
51004,375,4,2,1,78,1,0
51004,-100,4,2,1,78,0,0
52504,-100,4,2,1,76,0,0
54009,400,4,2,1,68,1,8
54809,428.571428571429,4,2,1,65,1,8
55666,461.538461538462,4,2,1,65,1,8
56589,500,4,2,1,65,1,8
57339,705.882352941176,4,2,1,60,1,8
59075,375,4,1,1,70,1,0
63575,375,4,1,1,100,1,0
87575,-100,4,1,1,90,0,0
89075,375,4,1,1,80,1,0
89075,-100,4,1,1,80,0,0
104075,-100,4,1,1,70,0,0
105575,-100,4,1,1,60,0,0
107543,-100,4,1,1,50,0,0
108575,375,4,1,1,70,1,0
113075,375,4,1,1,70,1,0
125075,-100,4,1,1,100,0,0
149075,-100,4,1,1,80,0,0
150575,-100,4,1,1,90,0,0
152075,375,4,1,1,100,1,0

[Colours]
Combo1 : 241,206,10
Combo2 : 245,45,10
Combo3 : 255,128,128

[HitObjects]
51,80,1497,6,0,L|44:164,2,60,2|0|2,0:2|0:2|0:2,0:0:0:0:
12,34,2059,2,0,B|37:64|37:64|178:45,1,180,0|0,0:2|2:2,0:0:0:0:
295,26,2997,5,4,0:2:0:0:
302,145,3372,1,4,0:2:0:0:
311,264,3747,1,4,0:2:0:0:
316,383,4122,1,4,0:2:0:0:
435,372,4497,6,0,L|520:368,2,60,2|0|2,0:2|0:2|0:2,0:0:0:0:
424,318,5059,2,0,B|399:288|399:288|246:301,1,180,0|0,0:2|2:2,0:0:0:0:
146,340,5997,5,4,0:2:0:0:
139,221,6372,1,4,0:2:0:0:
130,102,6747,1,4,0:2:0:0:
125,0,7122,1,4,0:2:0:0:
249,7,7497,6,0,L|240:78,1,60,2|0,0:2|0:2,0:0:0:0:
293,106,7872,1,2,0:2:0:0:
293,106,8059,2,0,L|492:125,1,180,0|0,0:2|0:2,0:0:0:0:
497,240,8997,5,4,0:2:0:0:
377,227,9372,1,4,0:2:0:0:
257,218,9747,1,4,0:2:0:0:
137,205,10122,1,4,0:2:0:0:
98,91,10497,6,0,L|22:80,1,60,2|0,0:2|0:2,0:2:0:0:
7,133,10872,1,2,0:2:0:0:
7,133,11059,2,0,L|31:320,1,180,0|0,0:2|0:2,0:0:0:0:
128,382,11997,5,4,0:2:0:0:
248,369,12372,1,4,0:2:0:0:
368,360,12747,1,4,0:2:0:0:
488,347,13122,1,4,0:2:0:0:
416,250,13497,5,4,2:2:0:0:
416,250,14997,6,0,L|420:121,1,120,6|8,0:2|0:2,0:0:0:0:
421,74,15559,1,0,0:2:0:0:
421,74,15747,2,0,B|364:48|364:48|299:80,1,120,2|8,0:2|0:2,0:0:0:0:
272,186,16497,2,0,B|220:211|220:211|163:185,1,120,6|8,0:2|0:2,0:0:0:0:
123,148,17059,1,0,0:2:0:0:
123,148,17247,2,0,L|130:23,1,120,2|8,0:2|0:2,0:0:0:0:
22,81,17997,6,0,L|16:223,1,120,6|8,0:2|0:2,0:0:0:0:
64,245,18559,1,0,0:2:0:0:
64,245,18747,1,2,0:2:0:0:
8,351,19122,1,8,0:2:0:0:
124,381,19497,2,0,L|250:361,1,120,6|8,0:2|0:2,0:0:0:0:
274,252,20247,1,2,0:2:0:0:
274,252,20434,1,0,0:2:0:0:
274,252,20622,1,8,0:2:0:0:
176,181,20997,6,0,L|34:196,1,120,6|8,0:2|0:2,0:0:0:0:
14,158,21559,1,0,0:2:0:0:
14,158,21747,2,0,B|-12:101|-12:101|15:31,1,120,2|8,0:2|0:2,0:0:0:0:
127,26,22497,2,0,L|269:11,1,120,6|8,0:2|0:2,0:0:0:0:
289,49,23059,1,0,0:2:0:0:
289,49,23247,2,0,B|315:106|315:106|288:176,1,120,2|8,0:2|0:2,0:0:0:0:
176,181,23997,6,0,L|166:323,1,120,6|8,0:2|0:2,0:0:0:0:
203,348,24559,1,0,0:2:0:0:
203,348,24747,1,2,0:2:0:0:
291,266,25122,1,8,0:2:0:0:
372,354,25497,2,0,L|491:363,2,120,6|8|2,0:2|0:2|0:2,0:0:0:0:
291,266,26622,1,8,3:2:0:0:
382,187,26997,6,0,L|373:46,1,120,2|2,0:2|0:2,0:0:0:0:
367,7,27559,1,2,0:2:0:0:
187,27,28122,1,2,0:2:0:0:
67,38,28497,2,0,L|76:179,1,120,2|2,0:2|0:2,0:0:0:0:
82,218,29059,1,2,0:2:0:0:
262,198,29622,1,2,0:2:0:0:
258,78,29997,6,0,L|402:74,1,120,2|2,0:2|0:2,0:0:0:0:
438,74,30559,1,2,0:2:0:0:
445,254,31122,1,2,0:2:0:0:
325,258,31497,2,0,L|181:262,1,120,2|2,0:2|0:2,0:0:0:0:
145,262,32059,1,2,0:2:0:0:
138,82,32622,1,2,0:2:0:0:
26,125,32997,6,0,L|38:272,1,120,6|8,0:2|0:2,0:0:0:0:
75,289,33559,2,0,B|130:311|130:311|191:272,1,120,0|0,0:2|0:2,0:0:0:0:
212,226,34122,1,8,0:2:0:0:
315,166,34497,2,0,L|327:19,1,120,2|8,1:2|0:2,0:0:0:0:
364,9,35059,2,0,B|419:-13|419:-13|480:26,1,120,0|0,0:2|0:2,0:0:0:0:
501,65,35622,1,8,0:2:0:0:
413,146,35997,6,0,L|403:286,1,120,2|8,0:2|0:2,0:0:0:0:
364,310,36559,1,0,0:2:0:0:
364,310,36747,2,0,L|228:296,1,120,2|8,0:2|0:2,0:0:0:0:
255,178,37497,1,2,0:2:0:0:
135,170,37872,1,8,0:2:0:0:
126,289,38247,1,2,0:2:0:0:
6,285,38622,1,8,0:2:0:0:
13,165,38997,6,0,L|22:30,1,120,6|8,0:2|0:2,0:0:0:0:
75,19,39559,1,0,0:2:0:0:
129,44,39747,1,2,0:2:0:0:
114,163,40122,1,8,0:2:0:0:
209,235,40497,2,0,L|218:100,1,120,2|8,0:2|0:2,0:0:0:0:
271,89,41059,1,0,0:2:0:0:
325,114,41247,1,2,0:2:0:0:
310,233,41622,1,8,0:2:0:0:
396,315,41997,2,0,L|405:180,1,120,2|8,0:2|0:2,0:0:0:0:
458,169,42559,1,0,0:2:0:0:
512,194,42747,1,2,0:2:0:0:
497,313,43122,1,8,0:2:0:0:
391,370,43497,5,2,3:2:0:0:
276,334,43872,1,8,3:2:0:0:
356,245,44247,1,2,3:2:0:0:
241,209,44622,1,8,3:2:0:0:
166,302,44997,6,0,L|28:314,1,120,6|8,0:2|0:2,0:0:0:0:
7,266,45559,1,0,0:2:0:0:
29,210,45747,1,0,0:2:0:0:
148,198,46122,1,8,0:2:0:0:
243,125,46497,2,0,L|381:137,1,120,2|8,0:2|0:2,0:0:0:0:
402,89,47059,1,0,0:2:0:0:
380,33,47247,1,2,0:2:0:0:
261,21,47622,1,8,0:2:0:0:
172,101,47997,2,0,L|34:89,1,120,2|8,0:2|0:2,0:0:0:0:
14,137,48559,1,0,0:2:0:0:
35,193,48747,1,2,0:2:0:0:
154,205,49122,1,8,0:2:0:0:
253,272,49497,6,0,L|336:286,1,60,2|0,0:2|0:2,0:0:0:0:
362,249,49872,2,0,L|445:263,1,60,8|0,0:2|0:2,0:0:0:0:
478,242,50247,2,0,P|510:201|481:124,1,120,2|8,0:2|0:2,0:0:0:0:
397,70,51004,6,0,L|277:59,1,120,2|0,0:2|0:2,0:0:0:0:
352,153,51754,2,0,L|233:143,1,120,2|0,0:2|0:2,0:0:0:0:
180,251,52504,2,0,P|216:307|192:375,1,120,2|0,0:2|0:2,0:0:0:0:
89,383,53254,2,0,P|55:336|63:278,1,120,2|0,0:2|0:2,0:0:0:0:
2,188,54009,6,0,P|54:216|186:112,1,240,2|2,0:2|0:2,0:0:0:0:
424,32,55666,2,0,L|412:176,1,120,2|0,0:2|0:2,0:0:0:0:
317,218,56589,2,0,L|309:290,1,60,2|2,0:2|0:2,0:0:0:0:
362,304,57089,2,0,L|354:376,1,60,2|2,0:2|0:2,0:0:0:0:
256,192,59075,12,4,62075,3:2:0:0:
471,190,63575,6,0,L|479:334,1,120,0|8,0:2|0:2,0:0:0:0:
366,354,64325,1,2,0:2:0:0:
356,234,64700,1,8,0:2:0:0:
396,121,65075,2,0,B|414:60|414:60|381:14,1,120,6|8,0:2|0:2,0:0:0:0:
321,10,65637,2,0,L|133:29,1,180,2|8,0:2|0:2,0:0:0:0:
234,104,66575,6,0,P|258:160|226:208,1,120,6|8,0:2|0:2,0:0:0:0:
178,236,67137,2,0,P|154:292|186:340,1,120,2|2,0:2|0:2,0:0:0:0:
234,372,67700,1,8,0:2:0:0:
345,327,68075,2,0,L|353:197,1,120,6|8,0:2|0:2,0:0:0:0:
308,166,68637,2,0,P|258:149|199:201,1,120,0|0,0:2|0:2,0:0:0:0:
178,236,69200,1,8,0:2:0:0:
79,167,69575,6,0,L|91:27,1,120,6|8,0:2|0:2,0:0:0:0:
197,0,70325,1,2,0:2:0:0:
182,113,70700,1,8,0:2:0:0:
293,68,71075,2,0,L|281:200,1,120,6|8,0:2|0:2,0:0:0:0:
238,228,71637,2,0,P|282:200|378:276,1,180,0|8,0:2|0:2,0:0:0:0:
284,340,72575,6,0,L|156:324,1,120,6|8,0:2|0:2,0:0:0:0:
108,303,73137,2,0,B|87:243|87:243|120:180,1,120,0|0,0:2|0:2,0:0:0:0:
157,152,73700,1,8,0:2:0:0:
268,108,74075,2,0,L|396:124,1,120,6|8,0:2|0:2,0:0:0:0:
444,145,74637,2,0,B|465:205|465:205|432:268,1,120,0|0,0:2|0:2,0:0:0:0:
395,296,75200,1,8,0:2:0:0:
298,367,75575,6,0,L|224:360,1,60,6|2,0:2|0:2,0:0:0:0:
178,353,75950,2,0,L|185:283,1,60,8|0,0:2|0:2,0:0:0:0:
149,244,76325,2,0,P|100:299|51:303,1,120,2|8,0:2|0:2,0:0:0:0:
18,190,77075,2,0,L|14:130,1,60,6|2,0:2|0:2,0:0:0:0:
39,75,77450,2,0,L|118:69,1,60,8|0,0:2|0:2,0:0:0:0:
158,66,77825,2,0,P|191:117|266:103,1,120,2|8,0:2|0:2,0:0:0:0:
355,70,78575,6,0,L|359:-18,2,60,6|2|8,0:2|0:2|0:2,0:0:0:0:
327,124,79137,1,2,0:2:0:0:
327,124,79325,2,0,L|323:252,1,120,2|8,0:2|0:2,0:0:0:0:
384,347,80075,2,0,L|524:355,1,120,6|8,0:2|0:2,0:0:0:0:
443,250,80825,1,2,0:2:0:0:
323,243,81200,1,8,0:2:0:0:
252,146,81575,6,0,L|258:63,1,60,6|2,0:2|0:2,0:0:0:0:
210,46,81950,2,0,L|127:40,1,60,8|0,0:2|0:2,0:0:0:0:
102,78,82325,2,0,P|84:140|17:140,1,120,2|8,0:2|0:2,0:0:0:0:
11,267,83075,2,0,L|87:261,1,60,6|2,0:2|0:2,0:0:0:0:
129,275,83450,2,0,L|136:352,1,60,8|0,0:2|0:2,0:0:0:0:
184,367,83825,2,0,P|207:308|274:301,1,120,2|8,0:2|0:2,0:0:0:0:
377,299,84575,6,0,L|380:222,2,60,6|2|8,0:2|0:2|0:2,0:0:0:0:
384,362,85137,1,2,0:2:0:0:
384,362,85325,2,0,L|523:344,1,120,2|8,0:2|0:2,0:0:0:0:
493,226,86075,2,0,L|481:102,1,120,6|8,0:2|0:2,0:0:0:0:
436,76,86637,1,2,0:2:0:0:
436,76,86825,2,0,L|360:84,1,60,2|2,0:2|0:2,0:0:0:0:
319,63,87200,2,0,L|235:55,1,60,8|2,0:2|0:2,0:0:0:0:
218,12,87575,5,0,3:2:0:0:
199,130,87950,1,0,3:2:0:0:
177,248,88325,1,0,3:2:0:0:
160,366,88700,1,0,3:2:0:0:
65,290,89075,6,0,L|37:158,1,120,6|8,0:2|0:2,0:0:0:0:
74,123,89637,1,0,0:2:0:0:
132,137,89825,1,2,0:2:0:0:
161,253,90200,1,8,0:2:0:0:
252,175,90575,2,0,L|224:43,1,120,2|8,0:2|0:2,0:0:0:0:
261,11,91137,1,0,0:2:0:0:
319,22,91325,1,2,0:2:0:0:
348,138,91700,1,8,0:2:0:0:
453,194,92075,2,0,L|481:326,1,120,2|8,0:2|0:2,0:0:0:0:
444,358,92637,1,0,0:2:0:0:
386,347,92825,1,2,0:2:0:0:
357,231,93200,1,8,0:2:0:0:
272,315,93575,5,6,3:2:0:0:
154,337,93950,1,12,3:2:0:0:
52,272,94325,1,6,3:2:0:0:
32,152,94700,1,12,3:2:0:0:
115,65,95075,6,0,L|243:53,1,120,6|8,0:2|0:2,0:0:0:0:
283,89,95637,1,0,0:2:0:0:
255,141,95825,1,2,0:2:0:0:
135,157,96200,1,8,0:2:0:0:
185,266,96575,2,0,L|65:277,1,120,2|8,0:2|0:2,0:0:0:0:
31,325,97137,1,0,0:2:0:0:
59,377,97325,1,2,0:2:0:0:
178,361,97700,1,8,0:2:0:0:
289,315,98075,2,0,L|417:327,1,120,2|8,0:2|0:2,0:0:0:0:
457,291,98637,1,0,0:2:0:0:
429,239,98825,1,2,0:2:0:0:
309,223,99200,1,8,0:2:0:0:
385,130,99575,5,2,0:2:0:0:
266,112,99950,1,8,0:2:0:0:
190,205,100325,1,2,0:2:0:0:
198,325,100700,1,8,0:2:0:0:
312,359,101075,6,0,L|431:348,1,120,2|2,0:2|0:2,0:0:0:0:
350,259,101825,2,0,L|469:248,1,120,2|2,0:2|0:2,0:0:0:0:
439,132,102575,2,0,P|443:64|387:24,1,120,2|2,0:2|0:2,0:0:0:0:
291,56,103325,2,0,P|284:113|322:157,1,120,2|2,0:2|0:2,0:0:0:0:
242,246,104075,6,0,L|106:238,1,120,2|2,0:2|0:2,0:0:0:0:
31,160,104825,1,2,0:2:0:0:
50,41,105200,1,2,0:2:0:0:
164,6,105575,2,0,L|284:13,1,120,2|2,0:2|0:2,0:0:0:0:
354,109,106325,2,0,L|366:181,1,60,2|2,0:2|0:2,0:0:0:0:
328,216,106700,2,0,L|340:288,1,60,2|2,0:2|0:2,0:0:0:0:
256,192,108575,12,0,111575,3:2:0:0:
26,45,125075,6,0,B|44:69|44:69|137:58,1,120,6|8,0:2|0:2,0:0:0:0:
239,2,125825,1,2,0:2:0:0:
231,121,126200,1,8,0:2:0:0:
340,72,126575,2,0,P|398:61|456:109,1,120,6|8,0:2|0:2,0:0:0:0:
441,152,127137,2,0,L|525:168,2,60,0|2|0,0:2|0:2|0:0,0:0:0:0:
406,201,127700,1,8,0:2:0:0:
288,226,128075,6,0,L|304:374,1,120,6|8,0:2|0:2,0:0:0:0:
249,372,128637,2,0,P|205:372|153:320,1,120,0|0,0:2|0:0,0:0:0:0:
170,263,129200,1,8,0:2:0:0:
209,149,129575,2,0,L|225:1,1,120,6|8,0:2|0:2,0:0:0:0:
170,6,130137,2,0,P|126:6|74:58,1,120,0|0,0:2|0:2,0:0:0:0:
91,112,130700,1,8,0:2:0:0:
21,209,131075,6,0,L|159:219,1,120,6|8,0:2|0:2,0:0:0:0:
236,289,131825,1,2,0:2:0:0:
256,170,132200,1,8,0:2:0:0:
346,248,132575,2,0,L|473:252,1,120,6|8,0:2|0:2,0:0:0:0:
499,202,133137,2,0,B|524:146|524:146|484:82,1,120,0|0,0:2|0:2,0:0:0:0:
441,64,133700,1,8,0:2:0:0:
333,10,134075,6,0,P|309:51|226:54,1,120,4|8,0:2|0:2,0:0:0:0:
197,21,134637,2,0,L|217:156,1,120,0|0,0:2|0:2,0:0:0:0:
260,178,135200,1,8,0:2:0:0:
357,247,135575,2,0,P|381:206|464:203,1,120,6|8,0:2|0:2,0:0:0:0:
485,241,136137,2,0,L|505:376,1,120,0|0,0:2|0:2,0:0:0:0:
444,375,136700,1,8,0:2:0:0:
327,345,137075,6,0,L|199:337,1,120,6|8,0:2|0:2,0:0:0:0:
169,290,137637,1,0,0:2:0:0:
169,229,137825,1,2,0:2:0:0:
288,234,138200,1,8,0:2:0:0:
348,130,138575,2,0,L|476:122,1,120,6|8,0:2|0:2,0:0:0:0:
506,75,139137,1,0,0:2:0:0:
506,16,139325,1,2,0:2:0:0:
387,19,139700,1,8,0:2:0:0:
287,86,140075,6,0,L|206:73,1,60,6|2,0:2|0:2,0:0:0:0:
168,67,140450,2,0,L|156:148,1,60,8|2,0:2|0:2,0:0:0:0:
120,172,140825,2,0,P|79:141|-3:156,1,120,2|8,0:2|0:2,0:0:0:0:
41,262,141575,2,0,P|82:293|164:278,1,120,6|8,0:2|0:2,0:0:0:0:
192,248,142137,1,0,0:2:0:0:
192,248,142325,2,0,L|261:242,1,60,2|2,0:2|0:2,0:0:0:0:
303,273,142700,2,0,L|372:267,1,60,8|0,0:2|0:2,0:0:0:0:
404,224,143075,6,0,L|399:80,1,120,6|8,0:2|0:2,0:0:0:0:
351,68,143637,1,0,0:2:0:0:
291,73,143825,1,2,0:2:0:0:
303,192,144200,1,8,0:2:0:0:
188,227,144575,2,0,L|183:371,1,120,6|8,0:2|0:2,0:0:0:0:
135,383,145137,1,0,0:2:0:0:
75,378,145325,1,2,0:2:0:0:
87,259,145700,1,8,0:2:0:0:
99,139,146075,6,0,B|52:110|52:110|-19:130,1,120,6|8,0:2|0:2,0:0:0:0:
43,20,146825,2,0,B|89:49|89:49|161:29,1,120,2|8,0:2|0:2,0:0:0:0:
243,109,147575,1,6,0:2:0:0:
341,40,147950,1,8,0:2:0:0:
424,126,148325,2,0,L|437:198,1,60,2|2,0:2|0:2,0:0:0:0:
494,217,148700,2,0,L|507:289,1,60,8|0,0:2|0:2,0:0:0:0:
472,326,149075,5,0,3:2:0:0:
352,312,149450,1,0,3:2:0:0:
238,350,149825,2,0,L|102:338,1,120,0|0,3:2|3:2,0:0:0:0:
112,219,150575,2,0,P|105:155|152:111,1,120,0|0,3:2|3:2,0:0:0:0:
201,135,151137,1,0,3:2:0:0:
201,135,151325,2,0,P|208:199|161:243,1,120,0|0,3:2|3:2,0:0:0:0:
118,339,152075,5,4,3:2:0:0:
256,192,152168,12,0,158075,0:2:0:0:
