osu file format v14

[General]
AudioFilename: audio.mp3
AudioLeadIn: 0
PreviewTime: 68346
Countdown: 0
SampleSet: Normal
StackLeniency: 0.7
Mode: 0
LetterboxInBreaks: 0
WidescreenStoryboard: 0

[Editor]
Bookmarks: 24203,151232,201975
DistanceSpacing: 1.6
BeatDivisor: 4
GridSize: 4
TimelineZoom: 2.2

[Metadata]
Title:Kimi to Gelaende
TitleUnicode:君とゲレンデ
Artist:SHISHAMO
ArtistUnicode:SHISHAMO
Creator:Zero__wind
Version:Yiyo's Insane
Source:
Tags:rock indie iYiyo
BeatmapID:1155333
BeatmapSetID:543243

[Difficulty]
HPDrainRate:6.5
CircleSize:4
OverallDifficulty:7.5
ApproachRate:9
SliderMultiplier:1.6
SliderTickRate:1

[Events]
//Background and Video events
0,0,"bg.jpg",0,0
//Break Periods
2,96375,101260
2,180032,190403
//Storyboard Layer 0 (Background)
//Storyboard Layer 1 (Fail)
//Storyboard Layer 2 (Pass)
//Storyboard Layer 3 (Foreground)
//Storyboard Sound Samples

[TimingPoints]
3118,342.857142857143,4,1,1,60,1,0
14089,-100,4,1,1,50,0,0
19403,-100,4,1,1,60,0,0
29175,-100,4,1,1,50,0,0
34489,-100,4,1,1,60,0,0
47003,-133.333333333333,4,1,1,50,0,0
57803,-100,4,1,1,60,0,0
68946,-83.3333333333333,4,1,1,60,0,1
96032,-100,4,1,1,60,0,0
107346,-100,4,1,1,50,0,0
112660,-100,4,1,1,60,0,0
129289,-100,4,1,1,60,0,0
148746,-100,4,1,1,5,0,0
148832,-100,4,1,1,60,0,0
149260,-100,4,1,1,5,0,0
149346,-100,4,1,1,60,0,0
149775,-100,4,1,1,5,0,0
149860,-100,4,1,1,60,0,0
151232,-133.333333333333,4,1,1,60,0,0
173175,-100,4,1,1,60,0,0
180032,-133.333333333333,4,1,1,50,0,0
200603,-133.333333333333,4,1,1,60,0,0
201975,-83.3333333333333,4,1,1,60,0,1
208817,342.857142857143,4,1,1,60,1,1
208817,-83.3333333333333,4,1,1,60,0,1
211570,342.857142857143,4,1,1,60,1,1
211570,-83.3333333333333,4,1,1,60,0,1
236255,-83.3333333333333,4,1,1,60,0,0
239012,342.857142857143,4,1,1,50,1,0
240383,-100,4,1,1,60,0,0

[Colours]
Combo1 : 164,187,213
Combo2 : 215,148,140
Combo3 : 112,170,222
Combo4 : 250,226,156

[HitObjects]
360,144,3117,6,0,P|365:184|364:236,1,80,0|0,2:0|2:0,0:0:0:0:
243,314,3460,2,0,P|243:274|248:234,1,80,8|0,0:0|2:0,0:0:0:0:
212,120,3803,2,0,L|120:116,1,80,0|2,0:0|0:0,0:0:0:0:
93,226,4146,1,8,0:0:0:0:
93,226,4318,6,0,B|155:255|180:194|248:234,1,160,2|2,0:0|0:0,0:0:0:0:
308,328,4832,2,0,P|353:327|404:324,1,80,8|0,0:0|0:0,0:0:0:0:
436,224,5175,2,0,L|444:144,2,80,2|0|8,0:0|0:0|0:0,0:0:0:0:
332,244,5689,1,2,2:0:0:0:
459,140,5860,6,0,L|451:220,1,80,2|0,0:0|2:0,0:0:0:0:
360,152,6203,2,0,L|352:72,1,80,8|0,0:0|2:0,0:0:0:0:
248,120,6546,2,0,L|240:200,1,80,0|2,0:0|0:0,0:0:0:0:
148,264,6889,1,8,0:0:0:0:
148,264,7060,6,0,P|105:207|162:163,1,160,2|2,0:0|0:0,0:0:0:0:
272,180,7575,2,0,P|311:182|351:182,1,80,8|0,0:0|0:0,0:0:0:0:
392,288,7918,2,0,P|352:290|312:290,2,80,2|0|12,0:0|0:0|0:2,0:0:0:0:
468,208,8432,1,0,2:0:0:0:
452,80,8603,6,0,B|399:60|399:60|294:72,1,160,6|8,0:0|0:0,0:0:0:0:
212,152,9118,1,0,0:0:0:0:
112,100,9289,2,0,P|66:98|12:100,1,80,0|2,0:0|0:0,0:0:0:0:
60,208,9632,1,8,0:0:0:0:
108,308,9803,6,0,P|147:309|187:309,1,80,6|0,0:0|0:0,0:0:0:0:
192,196,10146,2,0,P|231:194|271:194,1,80,2|8,0:0|0:0,0:0:0:0:
344,272,10489,1,0,0:0:0:0:
420,160,10660,1,12,0:2:0:0:
472,280,10832,1,0,2:0:0:0:
456,85,11003,6,0,P|380:85|337:153,1,160,4|0,0:0|0:0,0:0:0:0:
344,272,11518,1,0,0:0:0:0:
420,160,11689,1,0,0:0:0:0:
287,154,11861,1,0,0:0:0:0:
364,271,12032,1,0,0:0:0:0:
408,143,12203,1,0,0:0:0:0:
278,171,12375,1,0,0:0:0:0:
383,264,12546,1,0,0:0:0:0:
392,129,12717,5,8,3:0:0:0:
278,70,12889,2,0,P|255:68|238:70,2,40,8|8|8,0:0|0:0|0:0,0:0:0:0:
245,170,13232,2,0,P|165:175|85:169,1,160,4|4,0:2|0:2,0:0:0:0:
52,276,13746,2,0,P|92:280|143:281,1,80,8|0,0:0|2:0,0:0:0:0:
244,268,14089,5,4,0:0:0:0:
396,156,14432,1,8,2:0:0:0:
436,260,14603,2,0,P|399:260|340:256,1,80,0|2,2:0|2:0,0:0:0:0:
284,172,14946,1,2,0:0:0:0:
324,68,15118,1,8,0:0:0:0:
212,52,15289,6,0,B|144:38|135:104|59:81,1,160,4|2,0:2|2:0,0:0:0:0:
16,172,15803,2,0,L|20:260,1,80,8|2,2:0|2:0,0:0:0:0:
108,308,16146,1,0,0:0:0:0:
152,212,16318,1,2,2:0:0:0:
236,272,16489,2,0,P|275:279|314:273,1,80,8|2,2:0|2:0,2:0:0:0:
388,200,16832,5,2,0:0:0:0:
267,52,17175,2,0,P|228:60|184:60,1,80,8|0,2:0|2:0,0:0:0:0:
80,80,17518,1,2,2:0:0:0:
40,184,17689,1,2,0:0:0:0:
68,292,17860,1,8,0:0:0:0:
246,280,18032,6,0,P|221:209|149:232,1,160,4|2,0:2|2:0,0:0:0:0:
128,352,18546,2,0,P|177:357|220:348,1,80,12|0,0:2|0:0,0:0:0:0:
320,324,18889,2,0,P|359:318|399:324,1,80,0|0,2:0|0:0,0:0:0:0:
500,352,19232,1,12,0:2:0:0:
487,227,19403,6,0,P|438:168|361:173,1,160,4|0,0:0|0:0,0:0:0:0:
272,244,19918,2,0,P|224:244|172:232,1,80,8|2,0:0|0:2,0:0:0:0:
192,128,20260,2,0,P|231:121|271:122,1,80,0|0,2:0|0:0,0:0:0:0:
361,173,20603,1,8,0:0:0:0:
414,308,20775,6,0,L|250:320,1,160,2|0,0:2|0:0,0:0:0:0:
128,224,21289,2,0,P|173:225|220:232,1,80,8|2,0:0|0:2,0:0:0:0:
271,122,21632,2,0,P|226:123|179:130,1,80
80,112,21975,1,8,0:0:0:0:
156,32,22146,1,0,2:0:0:0:
272,28,22318,6,0,L|364:40,1,80,2|0,1:2|0:0,0:0:0:0:
271,122,22660,2,0,L|363:134,1,80,8|0,0:0|0:0,0:0:0:0:
270,216,23003,2,0,L|362:228,1,80
448,280,23346,1,8,0:0:0:0:
348,336,23518,1,4,0:2:0:0:
240,312,23689,6,0,B|199:307|199:307|163:321,2,80,0|0|8,0:0|0:0|0:0,0:0:0:0:
348,336,24203,1,2,0:2:0:0:
350,132,24546,1,0,0:0:0:0:
240,124,24718,2,0,P|193:128|136:128,1,80,12|0,0:2|2:0,0:0:0:0:
55,224,25060,6,0,B|126:245|126:245|210:231,1,160,4|8,0:0|0:0,0:0:0:0:
340,210,25575,1,2,0:2:0:0:
340,210,25746,2,0,L|349:131,1,80,2|8,0:2|0:0,0:0:0:0:
240,124,26089,2,0,L|231:44,1,80,8|4,0:0|0:2,0:0:0:0:
340,210,26603,5,0,0:0:0:0:
304,328,26775,2,0,P|261:326|208:316,1,80,8|0,0:0|0:0,0:0:0:0:
148,232,27118,2,0,P|191:223|244:220,1,80,0|2,0:0|0:2,0:0:0:0:
340,210,27460,1,8,0:0:0:0:
240,124,27632,1,4,0:2:0:0:
240,124,27975,5,0,0:0:0:0:
132,92,28146,2,0,L|44:108,1,80,8|0,0:0|0:0,0:0:0:0:
69,217,28489,2,0,L|157:233,1,80,8|0,0:0|0:0,0:0:0:0:
228,308,28832,2,0,L|306:293,1,80,8|0,0:0|0:0,0:0:0:0:
416,312,29175,5,4,0:0:0:0:
452,136,29518,1,8,2:0:0:0:
368,208,29689,2,0,P|327:211|272:204,1,80,0|2,0:0|2:0,0:0:0:0:
192,152,30032,1,2,0:0:0:0:
300,104,30204,1,8,0:0:0:0:
176,52,30375,6,0,L|12:64,1,160,4|2,0:2|2:0,0:0:0:0:
48,172,30889,2,0,P|56:208|52:260,1,80,8|0,2:0|0:0,0:0:0:0:
148,312,31232,1,0,2:0:0:0:
164,200,31404,1,2,2:0:0:0:
240,120,31575,2,0,P|280:117|328:120,1,80,8|2,2:0|2:0,0:0:0:0:
396,208,31918,5,2,1:0:0:0:
227,313,32260,2,0,P|187:314|147:311,1,80,8|0,2:0|2:0,0:0:0:0:
164,200,32603,1,2,2:0:0:0:
276,176,32775,1,2,0:0:0:0:
200,92,32946,1,8,0:0:0:0:
334,38,33118,6,0,L|318:198,1,160,4|2,0:2|2:0,0:0:0:0:
320,324,33632,1,12,0:2:0:0:
192,324,33803,2,0,P|128:320|164:228,1,160
61,140,34318,2,0,L|153:148,1,80,12|0,0:2|0:0,0:0:0:0:
251,168,34660,6,0,P|316:136|280:68,1,160,4|8,0:0|0:0,0:0:0:0:
188,104,35175,1,0,0:0:0:0:
96,160,35346,2,0,P|92:199|96:239,1,80,0|0,2:0|0:0,0:0:0:0:
168,308,35689,1,8,0:0:0:0:
178,167,35860,6,0,P|233:115|310:132,1,160,2|0,0:2|0:0,0:0:0:0:
404,192,36375,2,0,L|392:288,1,80,8|2,0:2|0:2,0:0:0:0:
324,352,36718,2,0,L|228:340,1,80,0|0,2:0|0:0,0:0:0:0:
148,300,37061,1,8,0:0:0:0:
228,236,37232,1,0,0:0:0:0:
131,191,37404,6,0,P|92:187|52:192,1,80,2|0,0:2|0:0,0:0:0:0:
216,132,37746,2,0,P|251:127|296:132,1,80,8|0,0:0|0:0,0:0:0:0:
132,72,38089,2,0,P|96:67|51:72,1,80,2|0,0:2|0:0,0:0:0:0:
131,191,38432,1,8,0:0:0:0:
172,304,38603,6,0,B|215:307|215:307|251:297,1,80,4|0,0:2|0:0,0:0:0:0:
360,264,38946,1,0,0:0:0:0:
312,164,39118,2,0,B|307:122|307:122|319:85,1,80,8|2,0:0|0:2,0:0:0:0:
432,20,39460,2,0,B|443:55|443:55|438:97,1,80,0|0,2:0|0:0,0:0:0:0:
428,200,39803,1,12,0:2:0:0:
312,164,39975,1,0,2:0:0:0:
200,272,40146,6,0,B|368:263,1,160,4|8,0:0|0:0,0:0:0:0:
428,200,40660,1,2,2:0:0:0:
438,97,40832,2,0,P|395:99|346:93,1,80,2|2,0:2|2:0,0:0:0:0:
264,60,41175,2,0,P|224:56|184:58,1,80,8|2,0:0|2:0,0:0:0:0:
84,84,41518,5,0,0:0:0:0:
72,188,41689,1,0,0:0:0:0:
136,268,41860,2,0,P|175:270|215:266,1,80,8|2,0:0|2:0,0:0:0:0:
216,164,42203,2,0,P|255:161|295:165,1,80,2|2,0:2|2:0,0:0:0:0:
380,228,42546,1,8,0:0:0:0:
308,312,42718,1,0,2:0:0:0:
208,243,42889,6,0,L|216:159,1,80,4|0,0:0|2:0,0:0:0:0:
114,60,43232,2,0,L|121:139,1,80,8|2,0:0|2:0,0:0:0:0:
112,240,43575,2,0,L|104:319,1,80,2|2,0:2|2:0,0:0:0:0:
220,336,43918,1,8,0:0:0:0:
360,320,44089,6,0,P|379:240|372:144,1,160,4|0,0:2|0:0,0:0:0:0:
269,128,44603,2,0,P|266:166|257:212,1,80,8|0,0:0|0:0,0:0:0:0:
184,280,44946,2,0,P|146:277|100:268,1,80,0|0,2:0|0:0,0:0:0:0:
68,172,45289,2,0,P|71:134|80:88,1,80,8|0,0:0|2:0,0:0:0:0:
212,28,45632,5,4,0:2:0:0:
384,200,45975,2,0,B|344:213|344:213|283:206,1,80,8|8,0:0|0:0,0:0:0:0:
152,170,46318,2,0,B|192:183|192:183|253:176,1,80,8|8,3:0|3:0,0:0:0:0:
373,114,46660,2,0,B|333:127|333:127|272:120,1,80,4|4,3:0|3:0,0:0:0:0:
149,89,47003,6,0,P|95:109|71:163,1,120.000004577637,4|0,0:2|2:0,0:0:0:0:
146,316,47689,2,0,P|182:320|226:308,1,60.0000022888184,8|0,2:0|2:0,0:0:0:0:
288,284,48032,1,0,2:0:0:0:
247,199,48203,6,0,P|250:144|304:131,1,120.000004577637,2|8,0:2|2:0,0:0:0:0:
389,79,48718,2,0,P|397:118|400:152,1,60.0000022888184,0|0,0:0|2:0,0:0:0:0:
442,215,49060,2,0,P|434:254|431:288,1,60.0000022888184,8|0,2:0|2:0,0:0:0:0:
347,293,49403,2,0,P|314:287|267:281,1,60.0000022888184,2|0,2:0|2:0,0:0:0:0:
196,284,49746,6,0,P|199:313|206:343,2,60.0000022888184,2|0|0,0:2|0:0|0:0,0:0:0:0:
196,191,50260,2,0,P|186:136|131:126,1,120.000004577637,2|0,0:2|0:0,0:0:0:0:
72,196,50775,1,0,2:0:0:0:
40,112,50946,1,2,0:2:0:0:
108,52,51118,6,0,P|137:48|180:44,1,60.0000022888184,0|8,2:0|2:0,0:0:0:0:
248,88,51460,1,0,0:0:0:0:
331,51,51632,2,0,P|361:54|391:59,1,60.0000022888184,0|8,0:0|2:0,0:0:0:0:
500,172,52146,1,4,3:0:0:0:
488,268,52318,1,0,2:0:0:0:
408,320,52489,6,0,P|372:324|328:316,1,60.0000022888184,4|0,2:0|2:0,2:0:0:0:
288,256,52832,1,0,2:0:0:0:
212,112,53175,2,0,P|212:80|288:60,1,120.000004577637,8|0,2:0|2:0,0:0:0:0:
232,192,53689,6,0,B|184:201|184:201|100:188,1,120.000004577637,2|8,0:2|2:0,0:0:0:0:
160,104,54203,2,0,L|219:93,1,60.0000022888184,0|0,0:0|2:0,0:0:0:0:
363,138,54546,2,0,L|304:128,1,60.0000022888184,8|0,2:0|2:0,0:0:0:0:
232,192,54889,1,2,2:0:0:0:
160,256,55061,1,8,2:0:0:0:
324,236,55232,5,4,0:0:0:0:
160,315,55575,2,0,P|162:288|159:254,1,60.0000022888184,0|8,2:0|2:0,0:0:0:0:
232,192,55918,1,8,2:0:0:0:
324,236,56089,1,8,3:0:0:0:
416,280,56260,1,4,3:0:0:0:
275,318,56432,6,0,B|190:330|190:330|141:305,1,120.000004577637,4|4,0:2|0:2,0:0:0:0:
24,144,57118,2,0,B|109:132|109:132|158:157,1,120.000004577637,4|4,0:2|0:2,0:0:0:0:
232,192,57632,1,8,0:0:0:0:
439,163,57803,6,0,P|391:105|322:133,1,160,4|0,0:2|0:0,0:0:0:0:
324,236,58318,1,8,0:0:0:0:
260,328,58489,1,2,0:2:0:0:
152,296,58660,2,0,P|148:255|152:212,1,80,0|0,2:0|0:0,0:0:0:0:
182,110,59003,1,8,0:0:0:0:
284,47,59175,1,0,2:0:0:0:
408,76,59346,6,0,P|412:117|408:160,1,80,2|0,0:2|2:0,0:0:0:0:
372,264,59689,1,8,0:0:0:0:
268,224,59860,2,0,P|264:184|268:144,1,80,2|0,0:2|2:0,0:0:0:0:
256,32,60203,1,0,0:0:0:0:
148,68,60375,2,0,B|99:86|99:86|52:76,1,80,8|0,0:0|2:0,0:0:0:0:
72,200,60718,6,0,L|156:172,1,80,2|0,0:2|2:0,0:0:0:0:
183,262,61060,2,0,L|108:288,1,80,8|2,0:0|0:2,0:0:0:0:
144,376,61403,2,0,L|228:348,1,80,0|0,0:0|0:0,0:0:0:0:
328,324,61746,2,0,B|377:342|377:342|424:332,1,80,8|0,0:0|2:0,0:0:0:0:
460,240,62089,6,0,P|452:192|432:144,1,80,2|0,0:2|2:0,0:0:0:0:
340,116,62432,2,0,P|327:153|321:193,1,80,8|2,0:0|0:2,0:0:0:0:
224,248,62775,2,0,P|216:200|196:152,1,80,0|0,0:0|0:0,0:0:0:0:
112,108,63118,2,0,P|99:145|93:185,1,80,12|0,0:2|2:0,0:0:0:0:
64,312,63460,6,0,L|236:292,1,160,4|8,0:2|0:0,0:0:0:0:
316,348,63975,1,0,0:0:0:0:
420,312,64146,2,0,L|408:232,1,80,4|0,2:0|0:0,0:0:0:0:
340,144,64489,1,12,0:2:0:0:
288,244,64660,1,0,2:0:0:0:
180,212,64832,6,0,L|192:132,1,80,6|0,0:2|2:0,0:0:0:0:
188,20,65175,1,12,0:2:0:0:
72,32,65346,2,0,P|74:105|80:192,1,160,0|0,0:0|0:0,0:0:0:0:
112,300,65860,1,12,0:2:0:0:
216,340,66032,1,0,2:0:0:0:
324,312,66203,6,0,P|323:264|316:224,1,80,4|0,0:0|2:0,0:0:0:0:
212,192,66546,2,0,P|213:144|220:104,1,80,12|0,0:2|0:0,0:0:0:0:
312,52,66889,2,0,P|317:91|318:131,1,80,4|0,2:0|0:0,0:0:0:0:
424,172,67232,2,0,P|425:124|432:84,1,80,12|0,0:2|2:0,0:0:0:0:
312,52,67575,5,8,0:0:0:0:
212,192,67746,1,8,0:0:0:0:
228,32,67918,1,8,0:0:0:0:
304,204,68089,1,4,0:2:0:0:
312,52,68260,1,8,0:0:0:0:
131,164,68432,5,8,0:0:0:0:
126,195,68517,1,8,0:0:0:0:
133,226,68603,1,8,0:0:0:0:
151,252,68689,1,8,0:0:0:0:
177,270,68774,1,8,0:0:0:0:
208,278,68860,1,8,0:0:0:0:
238,273,68946,6,0,P|272:241|306:200,1,95.9999970703126,4|0,0:0|2:0,0:0:0:0:
304,80,69289,1,8,0:0:0:0:
191,136,69460,2,0,P|133:75|204:30,1,191.999994140625,2|0,0:2|0:0,0:0:0:0:
304,80,69975,1,8,0:0:0:0:
392,168,70146,1,0,2:0:0:0:
340,284,70318,6,0,B|291:300|291:300|244:287,1,95.9999970703126,2|0,0:2|2:0,0:0:0:0:
164,196,70660,1,8,0:0:0:0:
276,112,70832,2,0,B|292:161|292:161|279:207,1,95.9999970703126,2|0,0:2|2:0,0:0:0:0:
200,300,71175,2,0,P|152:305|96:284,2,95.9999970703126,0|8|0,0:0|0:0|2:0,0:0:0:0:
344,328,71689,6,0,B|364:278|364:278|350:193|350:193|366:137,1,191.999994140625,2|8,0:2|0:0,0:0:0:0:
452,232,72203,2,0,B|394:205|394:205|256:228,1,191.999994140625,2|0,0:2|0:0,0:0:0:0:
140,232,72718,1,8,0:0:0:0:
112,112,72889,1,0,2:0:0:0:
256,48,73060,6,0,P|256:92|248:156,1,95.9999970703126,2|0,0:2|0:0,0:0:0:0:
240,264,73403,1,8,0:0:0:0:
359,213,73575,2,0,P|336:128|250:143,1,191.999994140625,2|0,0:2|0:0,0:0:0:0:
132,184,74089,1,12,0:2:0:0:
108,304,74260,1,0,2:0:0:0:
223,351,74432,6,0,P|273:355|323:347,1,95.9999970703126,4|0,0:2|2:0,0:0:0:0:
439,266,74775,2,0,P|391:270|344:264,1,95.9999970703126,8|2,0:0|0:2,0:0:0:0:
222,181,75118,2,0,P|269:185|317:178,1,95.9999970703126,4|0,2:0|0:0,0:0:0:0:
382,66,75460,2,0,B|288:32|288:104|196:62,1,191.999994140625,8|2,0:0|0:2,0:0:0:0:
96,300,76146,5,8,0:0:0:0:
160,192,76318,2,0,B|204:180|204:180|272:196,1,95.9999970703126,2|4,0:2|2:0,0:0:0:0:
316,296,76660,1,0,0:0:0:0:
372,184,76832,1,8,0:0:0:0:
444,284,77003,1,0,2:0:0:0:
300,320,77175,6,0,P|253:320|196:316,1,95.9999970703126,2|0,0:2|2:0,0:0:0:0:
108,239,77518,2,0,P|108:192|112:135,1,95.9999970703126,8|2,0:0|1:2,0:0:0:0:
192,64,77860,2,0,P|260:60|232:156,1,191.999994140625,4|12,2:0|0:2,0:0:0:0:
111,143,78375,1,0,2:0:0:0:
196,232,78546,5,4,0:0:0:0:
320,212,78718,2,0,P|343:212|367:217,2,47.9999985351563,8|8|8,0:0|0:0|0:0,0:0:0:0:
196,232,79060,1,4,0:0:0:0:
120,348,79232,2,0,B|175:357|175:357|213:345,1,95.9999970703126,2|0,0:2|0:0,0:0:0:0:
316,256,79575,2,0,B|261:247|261:247|222:258,1,95.9999970703126,12|0,0:2|2:0,0:0:0:0:
368,343,79918,6,0,P|398:255|361:168,1,191.999994140625,4|8,0:2|0:0,0:0:0:0:
240,144,80432,2,0,P|194:141|132:120,1,95.9999970703126,2|0,0:2|0:0,0:0:0:0:
244,48,80775,2,0,P|289:34|337:30,2,95.9999970703126,0|8|0,0:0|0:0|2:0,0:0:0:0:
139,142,81289,6,0,P|184:155|232:159,1,95.9999970703126,2|0,0:2|0:0,0:0:0:0:
361,168,81632,1,8,0:0:0:0:
411,283,81803,2,0,P|323:262|264:331,1,191.999994140625,2|0,0:2|0:0,0:0:0:0:
196,224,82318,1,8,0:0:0:0:
252,112,82489,1,0,2:0:0:0:
104,115,82660,6,0,P|90:160|82:208,1,95.9999970703126,2|0,0:2|2:0,0:0:0:0:
88,332,83003,1,8,0:0:0:0:
217,317,83175,2,0,P|209:269|195:223,1,95.9999970703126,2|4,2:0|0:2,0:0:0:0:
252,112,83518,1,0,0:0:0:0:
332,208,83689,1,8,0:0:0:0:
376,60,83860,6,0,P|312:28|256:124,1,191.999994140625,4|0,0:0|0:0,0:0:0:0:
332,208,84375,2,0,L|322:307,1,95.9999970703126,12|0,0:2|0:0,0:0:0:0:
232,224,84718,2,0,L|222:323,1,95.9999970703126,4|0,2:0|0:0,0:0:0:0:
132,240,85060,2,0,L|122:339,1,95.9999970703126,12|0,0:2|2:0,0:0:0:0:
0,173,85403,6,0,B|59:138|59:138|191:157,1,191.999994140625,4|8,0:0|0:0,0:0:0:0:
300,196,85918,2,0,L|404:184,1,95.9999970703126,2|0,0:2|2:0,0:0:0:0:
368,64,86260,1,0,0:0:0:0:
252,20,86432,2,0,L|264:124,1,95.9999970703126,8|0,0:0|2:0,0:0:0:0:
220,244,86775,5,2,0:2:0:0:
220,244,86946,2,0,P|137:234|160:144,1,191.999994140625,0|2,0:0|0:2,0:0:0:0:
395,184,87632,1,0,0:0:0:0:
408,308,87804,2,0,P|363:311|312:308,1,95.9999970703126,12|0,0:2|2:0,0:0:0:0:
210,160,88146,6,0,P|221:257|218:352,1,191.999994140625,2|8,0:2|0:0,0:0:0:0:
89,317,88660,2,0,P|93:273|105:222,1,95.9999970703126,2|4,2:0|0:2,0:0:0:0:
210,160,89003,1,0,0:0:0:0:
108,88,89175,1,8,0:0:0:0:
257,60,89346,6,0,B|352:24|352:88|456:56,1,191.999994140625,4|0,0:2|0:0,0:0:0:0:
472,184,89860,2,0,B|424:197|424:197|356:188,1,95.9999970703126,12|0,0:2|0:0,0:0:0:0:
272,148,90203,1,4,2:0:0:0:
176,212,90375,1,0,0:0:0:0:
84,144,90546,1,12,0:2:0:0:
183,333,90889,6,0,P|230:338|280:332,1,95.9999970703126,4|0,0:0|2:0,0:0:0:0:
380,271,91232,1,8,0:0:0:0:
300,184,91403,2,0,P|252:178|204:183,1,95.9999970703126,2|0,0:2|2:0,0:0:0:0:
99,238,91746,2,0,L|83:138,2,95.9999970703126,0|8|0,0:0|0:0|2:0,0:0:0:0:
183,333,92260,6,0,L|199:233,1,95.9999970703126,2|0,0:2|0:0,0:0:0:0:
300,184,92603,1,8,0:0:0:0:
380,271,92775,1,0,0:0:0:0:
456,172,92946,2,0,P|456:120|460:72,1,95.9999970703126,8|0,0:0|0:0,0:0:0:0:
344,100,93289,2,0,P|344:48|340:0,1,95.9999970703126,12|0,0:2|2:0,0:0:0:0:
299,184,93632,6,0,P|217:210|191:128,1,191.999994140625,4|8,0:0|0:0,0:0:0:0:
268,328,94318,2,0,B|232:344|232:344|175:339,2,95.9999970703126,0|0|8,0:0|0:0|0:0,0:0:0:0:
380,271,94832,1,0,0:0:0:0:
256,192,95003,12,4,96032,3:0:0:0:
419,246,101860,6,0,P|340:256|262:242,1,160,6|8,0:0|0:0,0:0:0:0:
200,156,102375,1,0,0:0:0:0:
272,84,102546,2,0,P|316:79|351:85,1,80,0|2,0:0|0:0,0:0:0:0:
436,144,102889,1,8,0:0:0:0:
419,246,103060,6,0,P|402:280|388:319,1,80,6|0,0:0|0:0,0:0:0:0:
284,332,103403,2,0,P|267:298|253:258,1,80,2|8,0:0|0:0,0:0:0:0:
268,165,103746,1,0,0:0:0:0:
139,106,103918,2,0,P|143:149|152:192,1,80,12|0,0:2|2:0,0:0:0:0:
384,180,104260,6,0,L|220:184,1,160,4|0,0:0|0:0,0:0:0:0:
153,245,104775,1,0,0:0:0:0:
140,105,104947,1,0,0:0:0:0:
24,188,105118,1,0,0:0:0:0:
168,230,105289,1,0,0:0:0:0:
119,98,105461,1,0,0:0:0:0:
29,208,105632,1,0,0:0:0:0:
92,320,105803,5,0,0:0:0:0:
120,333,105888,1,8,0:0:0:0:
152,335,105974,1,8,0:0:0:0:
183,329,106060,1,8,0:0:0:0:
215,323,106145,1,8,3:0:0:0:
247,325,106231,1,0,0:0:0:0:
276,336,106317,1,8,0:0:0:0:
399,255,106489,2,0,P|326:241|313:167,1,160,4|4,0:2|0:2,0:0:0:0:
380,87,107003,2,0,P|419:85|453:105,1,80,8|0,0:0|2:0,0:0:0:0:
488,228,107346,5,4,0:0:0:0:
276,336,107689,1,8,2:0:0:0:
202,261,107860,2,0,B|194:223|194:223|214:187,1,80,0|2,2:0|2:0,0:0:0:0:
313,165,108203,1,2,0:0:0:0:
244,84,108375,1,8,0:0:0:0:
379,42,108546,6,0,P|449:65|444:139,1,160,4|2,0:2|2:0,0:0:0:0:
404,236,109060,2,0,P|403:274|408:324,1,80,8|2,2:0|2:0,0:0:0:0:
308,344,109403,1,0,2:0:0:0:
240,264,109575,1,2,2:0:0:0:
256,160,109746,2,0,P|294:153|343:150,1,80,8|2,2:0|2:0,0:0:0:0:
379,42,110089,5,2,0:0:0:0:
174,49,110432,2,0,P|166:88|173:131,1,80,8|0,2:0|2:0,0:0:0:0:
208,224,110775,1,2,2:0:0:0:
205,328,110946,1,2,0:0:0:0:
111,280,111117,1,8,0:0:0:0:
171,127,111289,6,0,P|248:129|305:188,1,160,4|2,0:2|2:0,0:0:0:0:
356,276,111803,2,0,P|394:289|435:273,1,80,12|0,0:2|0:0,0:0:0:0:
476,184,112146,1,0,2:0:0:0:
428,92,112318,2,0,P|399:64|355:61,1,80,0|12,0:0|0:2,0:0:0:0:
216,20,112660,6,0,L|240:184,1,160,4|0,0:0|0:0,0:0:0:0:
167,256,113175,2,0,P|128:256|88:250,1,80,8|2,0:0|0:2,0:0:0:0:
24,168,113518,2,0,P|23:128|29:88,1,80,0|0,2:0|0:0,0:0:0:0:
124,44,113860,1,8,0:0:0:0:
286,112,114032,6,0,L|122:136,1,160,2|0,0:2|0:0,0:0:0:0:
100,248,114546,2,0,P|144:240|191:238,1,80,8|2,0:0|0:2,0:0:0:0:
322,294,114889,1,0,2:0:0:0:
173,334,115060,1,0,0:0:0:0:
270,213,115232,1,8,0:0:0:0:
262,368,115403,1,0,2:0:0:0:
178,237,115575,6,0,P|161:197|151:151,1,80,2|0,0:2|0:0,0:0:0:0:
239,112,115918,2,0,P|239:69|231:22,1,80,8|0,0:0|0:0,0:0:0:0:
358,144,116260,2,0,P|343:108|333:69,1,80,2|0,0:2|0:0,0:0:0:0:
432,220,116603,1,8,0:0:0:0:
360,296,116775,6,0,P|321:298|281:298,1,80,4|0,0:2|2:0,0:0:0:0:
184,252,117118,1,0,0:0:0:0:
140,160,117289,1,8,0:0:0:0:
196,72,117460,2,0,P|235:70|275:70,1,80,2|0,0:2|2:0,0:0:0:0:
372,92,117803,1,0,0:0:0:0:
424,184,117975,2,0,B|394:211|394:211|354:208,1,80,12|0,0:2|2:0,0:0:0:0:
155,182,118318,6,0,B|220:122|220:122|292:126,1,160,4|8,0:0|0:0,0:0:0:0:
354,208,118832,1,0,2:0:0:0:
354,208,119003,2,0,L|364:296,1,80,2|0,0:2|0:0,0:0:0:0:
238,347,119346,1,8,0:0:0:0:
238,347,119517,2,0,L|248:259,1,80,2|0,2:0|0:0,0:0:0:0:
236,164,119860,5,2,2:0:0:0:
236,164,120032,2,0,P|197:163|157:157,1,80,8|2,0:0|2:0,0:0:0:0:
45,267,120375,2,0,P|84:259|124:256,1,80,2|2,0:2|2:0,0:0:0:0:
224,280,120717,1,8,0:0:0:0:
328,272,120889,1,0,2:0:0:0:
428,244,121060,6,0,B|446:213|446:213|437:169,1,80,4|0,0:0|2:0,0:0:0:0:
368,92,121403,2,0,P|330:78|291:69,1,80,8|2,0:0|2:0,0:0:0:0:
215,194,121746,2,0,P|254:185|292:172,1,80,2|2,0:2|2:0,0:0:0:0:
291,69,122089,1,8,0:0:0:0:
191,35,122260,6,0,P|126:68|126:149,1,160,2|2,2:0|2:0,0:0:0:0:
215,194,122775,1,8,0:0:0:0:
215,194,122946,2,0,B|208:304|208:304|168:264,1,160,2|4,2:0|2:0,0:0:0:0:
116,180,123460,1,12,0:2:0:0:
176,92,123632,1,0,2:0:0:0:
276,112,123803,6,0,B|322:125|322:125|341:150,1,80,4|0,0:0|0:0,0:0:0:0:
421,95,124146,2,0,B|447:134|447:134|446:166,1,80,8|2,0:0|0:2,0:0:0:0:
438,260,124489,2,0,B|392:273|392:273|372:298,1,80,0|0,2:0|0:0,0:0:0:0:
294,233,124832,2,0,B|267:272|267:272|268:304,1,80,8|0,0:0|0:0,0:0:0:0:
163,319,125175,6,0,P|156:280|159:241,1,80
60,216,125518,2,0,P|67:176|64:137,1,80,8|2,0:0|0:2,0:0:0:0:
172,128,125860,2,0,P|164:88|167:49,1,80,0|0,2:0|0:0,0:0:0:0:
272,36,126203,2,0,P|279:75|276:114,1,80,8|0,0:0|0:0,0:0:0:0:
248,216,126546,6,0,L|332:200,1,80,2|0,0:2|0:0,0:0:0:0:
340,304,126889,2,0,L|424:288,1,80,8|0,0:0|0:0,0:0:0:0:
480,204,127232,2,0,L|465:125,1,80,4|0,2:0|0:0,0:0:0:0:
364,104,127575,2,0,L|349:25,1,80,12|0,0:2|0:0,0:0:0:0:
326,201,127918,5,12,0:2:0:0:
344,236,128260,2,2,B|294:214|250:246|250:246|221:222|221:222|156:240|119:222,1,240,2|0,2:1|2:0,0:0:0:0:
120,222,128946,1,4,3:0:0:0:
236,68,129289,6,0,P|277:51|328:52,1,80,6|0,0:0|0:0,0:0:0:0:
320,152,129632,2,0,P|361:169|412:168,1,80,8|0,0:0|0:0,0:0:0:0:
500,156,129975,1,0,0:0:0:0:
476,256,130146,1,2,0:0:0:0:
376,292,130318,1,8,0:0:0:0:
271,271,130489,6,0,P|229:211|280:158,1,160,2|2,0:0|0:0,0:0:0:0:
372,108,131003,1,10,0:0:0:0:
276,68,131175,2,0,B|237:57|237:57|184:68,1,80,2|2,0:0|0:0,0:0:0:0:
96,80,131518,1,2,0:0:0:0:
55,175,131690,2,0,B|44:214|44:214|55:267,1,80,10|0,0:0|0:0,0:0:0:0:
156,326,132032,6,0,P|241:322|324:310,1,160,2|8,0:0|0:0,0:0:0:0:
432,120,132718,2,0,P|394:113|353:109,2,80,2|0|8,0:0|0:0|0:0,0:0:0:0:
467,216,133232,6,0,P|417:269|357:227,1,160,6|0,0:0|0:0,0:0:0:0:
252,212,133746,2,0,P|209:214|172:218,1,80,10|0,0:0|0:0,0:0:0:0:
220,124,134089,2,0,P|177:126|140:130,1,80,2|0,0:0|0:0,0:0:0:0:
188,36,134432,2,0,P|145:38|108:42,1,80,10|0,0:0|0:0,0:0:0:0:
36,116,134775,6,0,P|36:155|44:195,1,80,6|0,0:0|0:0,0:0:0:0:
124,260,135118,2,0,P|131:299|132:339,1,80,8|0,0:0|0:0,0:0:0:0:
236,328,135460,1,0,0:0:0:0:
232,224,135632,1,2,0:0:0:0:
332,244,135803,1,8,0:0:0:0:
416,128,135975,6,0,P|351:90|298:143,1,160,2|2,0:0|0:0,0:0:0:0:
232,224,136489,1,10,0:0:0:0:
128,208,136660,2,0,B|105:172|105:172|112:135,1,80,2|2,0:0|0:0,0:0:0:0:
179,54,137003,1,2,0:0:0:0:
283,70,137174,2,0,B|306:106|306:106|298:142,1,80,10|2,0:0|0:0,0:0:0:0:
232,224,137518,6,0,P|306:248|381:206,1,160,2|8,0:0|0:0,0:0:0:0:
476,188,138032,1,0,0:0:0:0:
488,292,138203,1,2,0:0:0:0:
384,308,138375,1,0,0:0:0:0:
280,324,138546,1,8,0:0:0:0:
161,231,138718,6,0,B|269:212|269:212|315:233,1,160,6|2,0:0|0:0,0:0:0:0:
384,308,139232,1,10,0:0:0:0:
400,204,139403,2,0,L|392:120,1,80,2|8,0:0|3:0,0:0:0:0:
312,56,139746,2,0,L|316:8,2,40,8|8|8,0:0|0:0|0:0,0:0:0:0:
276,156,140089,1,8,3:0:0:0:
124,88,140260,6,0,P|123:131|128:184,1,80,6|0,0:0|0:0,0:0:0:0:
140,272,140603,2,0,P|179:274|219:273,1,80,10|0,0:0|0:0,0:0:0:0:
324,252,140946,1,0,0:0:0:0:
276,156,141118,1,2,0:0:0:0:
380,152,141289,1,8,0:0:0:0:
483,236,141460,6,0,L|323:252,1,160,2|2,0:0|0:0,0:0:0:0:
232,304,141975,1,8,0:0:0:0:
128,304,142146,2,0,P|84:303|48:300,1,80,2|2,0:0|0:0,0:0:0:0:
48,196,142489,1,2,0:0:0:0:
152,196,142660,2,0,P|195:196|232:200,1,80,8|2,0:0|0:0,0:0:0:0:
336,196,143003,6,0,B|362:163|362:163|361:125,1,80,2|0,0:0|0:0,0:0:0:0:
445,122,143346,2,0,B|440:80|440:80|413:54,1,80,8|0,0:0|0:0,0:0:0:0:
308,36,143689,1,2,0:0:0:0:
208,56,143860,2,0,L|116:52,1,80,0|8,0:0|0:0,0:0:0:0:
52,124,144203,6,0,L|48:203,1,80,6|0,0:0|0:0,0:0:0:0:
104,292,144546,1,0,0:0:0:0:
208,276,144718,2,0,L|248:270,2,40,10|8|4,3:0|3:0|3:0,0:0:0:0:
176,176,145060,2,0,L|136:170,2,40,8|8|4,3:0|3:0|3:0,0:0:0:0:
280,180,145403,2,0,L|320:174,2,40,4|4|4,3:0|3:0|3:0,0:0:0:0:
340,76,145746,5,6,0:0:0:0:
416,148,145918,1,0,0:0:0:0:
396,248,146089,1,8,0:0:0:0:
320,316,146260,2,0,B|281:328|281:328|240:316,1,80,2|0,0:0|0:0,0:0:0:0:
160,252,146603,1,0,0:0:0:0:
140,152,146774,1,8,0:0:0:0:
144,48,146946,6,0,P|185:40|223:44,1,80,2|0,0:0|0:0,0:0:0:0:
300,116,147289,1,2,0:0:0:0:
320,216,147460,1,8,0:0:0:0:
320,316,147632,2,0,B|281:328|281:328|240:316,1,80,2|0,0:0|0:0,0:0:0:0:
160,252,147975,2,0,B|122:240|122:240|83:252,2,80,2|14|2,0:0|0:0|0:0,0:0:0:0:
260,235,148489,6,0,P|316:222|343:170,1,120,4|0,0:0|2:0,0:0:0:0:
343,170,148832,1,10,0:0:0:0:
276,92,149003,2,0,P|219:104|192:156,1,120,0|0,0:0|2:0,0:0:0:0:
192,155,149346,1,2,0:0:0:0:
156,254,149518,2,0,P|212:268|260:235,1,120,8|0,0:0|2:0,0:0:0:0:
259,235,149861,5,6,0:0:0:0:
192,155,150032,2,0,L|96:152,1,80,0|8,0:0|3:0,0:0:0:0:
76,52,150375,1,10,0:0:0:0:
176,24,150546,1,10,0:0:0:0:
264,80,150718,1,8,3:0:0:0:
364,52,150889,1,4,3:0:0:0:
452,108,151060,1,4,3:0:0:0:
480,212,151232,6,0,P|473:268|419:286,1,120.000004577637,4|0,0:0|0:0,0:0:0:0:
284,188,151918,2,0,B|228:176|228:176|152:192,1,120.000004577637,12|0,2:0|2:0,0:0:0:0:
248,336,152603,2,0,B|304:348|304:348|380:332,1,120.000004577637,2|0,0:2|0:0,0:0:0:0:
480,212,153289,2,0,P|473:156|419:138,1,120.000004577637,8|0,2:0|2:0,0:0:0:0:
312,268,153975,5,4,0:2:0:0:
252,112,154318,1,4,0:0:0:0:
116,208,154660,2,0,L|136:148,1,60.0000022888184,8|0,2:0|0:0,0:0:0:0:
156,88,155003,2,0,B|170:248|170:248|209:177,1,240.000009155274,4|4,0:0|0:2,0:0:0:0:
360,104,156032,2,0,P|365:145|357:179,1,60.0000022888184,8|0,2:0|2:0,0:0:0:0:
344,244,156375,1,0,0:0:0:0:
208,178,156718,6,0,B|177:184|177:184|149:177,2,60.0000022888184,4|0|0,0:0|2:0|0:0,0:0:0:0:
268,120,157232,1,0,0:0:0:0:
212,60,157403,2,0,B|184:53|184:53|153:59,1,60.0000022888184,8|0,2:0|0:0,0:0:0:0:
52,192,157918,1,0,0:0:0:0:
92,264,158089,2,0,B|137:254|137:254|220:272,1,120.000004577637,0|4,0:0|0:2,0:0:0:0:
372,316,158775,2,0,B|403:310|403:310|430:316,2,60.0000022888184,8|8|0,2:0|2:0|3:0,0:0:0:0:
288,288,159289,1,0,2:0:0:0:
328,196,159460,6,0,P|328:136|316:68,1,120.000004577637,4|4,0:2|0:0,0:0:0:0:
153,58,160146,1,8,0:0:0:0:
120,228,160489,2,0,P|183:223|239:213,1,120.000004577637,4|0,0:2|2:0,0:0:0:0:
328,196,161003,1,8,2:0:0:0:
392,292,161175,2,0,P|357:292|320:288,1,60.0000022888184,8|8,2:0|3:0,0:0:0:0:
268,344,161518,2,0,P|237:326|207:304,1,60.0000022888184,8|8,2:0|2:0,0:0:0:0:
136,332,161860,2,0,P|118:301|103:267,1,60.0000022888184,8|8,2:0|2:0,0:0:0:0:
120,196,162203,6,0,L|238:212,1,120.000004577637,4|0,0:0|0:0,0:0:0:0:
304,68,162889,2,0,L|185:84,1,120.000004577637,12|0,0:2|2:0,0:0:0:0:
152,220,163575,2,0,L|270:236,1,120.000004577637,2|0,0:2|0:0,0:0:0:0:
420,196,164260,2,0,L|403:314,1,120.000004577637,8|0,2:0|2:0,0:0:0:0:
270,236,164946,5,4,0:2:0:0:
128,320,165289,1,4,0:0:0:0:
88,156,165632,2,0,L|156:144,1,60.0000022888184,8|0,2:0|0:0,0:0:0:0:
227,124,165975,2,0,P|150:68|243:47,1,240.000009155274,4|4,0:0|0:2,0:0:0:0:
412,64,167003,2,0,L|408:136,1,60.0000022888184,8|0,2:0|2:0,0:0:0:0:
376,204,167346,1,0,0:0:0:0:
248,316,167689,6,0,B|165:326|165:326|138:301,1,120.000004577637,4|0,0:0|0:0,0:0:0:0:
168,224,168203,2,0,L|228:232,1,60.0000022888184,0|8,0:0|2:0,0:0:0:0:
292,180,168546,1,0,0:0:0:0:
161,80,168889,1,2,2:0:0:0:
173,164,169060,2,0,L|291:179,1,120.000004577637,0|4,0:0|0:2,0:0:0:0:
392,316,169746,2,0,L|376:197,1,120.000004577637,8|0,2:0|0:0,0:0:0:0:
360,116,170260,1,0,2:0:0:0:
284,80,170432,6,0,B|236:64|236:64|156:88,1,120.000004577637,2|0,0:2|2:0,0:0:0:0:
112,144,170946,2,0,L|104:216,1,60.0000022888184,0|8,0:0|0:0,0:0:0:0:
120,288,171289,1,0,0:0:0:0:
188,236,171460,1,8,2:0:0:0:
270,328,171632,6,0,B|264:272|264:272|290:208,1,120.000004577637,4|8,0:2|0:0,0:0:0:0:
312,96,172146,1,8,0:0:0:0:
396,228,172318,1,8,3:0:0:0:
416,96,172489,1,8,3:0:0:0:
500,228,172661,1,8,0:0:0:0:
500,228,172746,1,8,0:0:0:0:
500,228,172832,1,0,0:0:0:0:
368,328,173003,1,8,0:0:0:0:
236,176,173175,6,0,B|268:160|268:160|311:170,1,80,4|0,0:0|2:0,0:0:0:0:
240,284,173518,2,0,B|208:300|208:300|164:289,1,80,8|0,0:0|0:0,0:0:0:0:
155,152,173860,2,0,B|166:118|166:118|203:94,1,80,4|0,2:0|0:0,0:0:0:0:
323,308,174203,2,0,B|311:341|311:341|274:365,1,80,12|0,0:2|2:0,0:0:0:0:
85,286,174546,6,0,P|132:286|169:290,1,80,4|0,0:2|0:0,0:0:0:0:
234,147,174889,2,0,P|195:147|155:151,1,80,12|0,0:2|0:0,0:0:0:0:
323,308,175232,2,0,P|362:308|402:304,1,80,4|0,2:0|0:0,0:0:0:0:
488,112,175575,2,0,P|448:112|409:117,1,80,12|0,0:2|2:0,0:0:0:0:
234,147,175918,6,0,B|209:260|209:260|189:220,1,160,4|12,0:2|0:2,0:0:0:0:
156,96,176432,1,0,0:0:0:0:
264,68,176603,2,0,B|312:79|312:79|348:68,1,80,4|0,2:0|0:0,0:0:0:0:
426,157,176946,2,0,B|378:146|378:146|342:157,1,80,12|0,2:2|2:0,0:0:0:0:
316,300,177289,5,4,0:3:0:0:
234,147,177460,1,8,0:0:0:0:
201,293,177632,1,8,0:0:0:0:
348,154,177803,1,4,0:2:0:0:
431,307,177975,1,8,0:0:0:0:
316,300,178146,5,8,0:0:0:0:
290,280,178231,1,8,0:0:0:0:
260,272,178317,1,8,0:0:0:0:
228,277,178403,1,8,0:0:0:0:
201,293,178488,1,8,0:0:0:0:
169,298,178574,1,8,0:0:0:0:
138,292,178660,1,4,0:2:0:0:
312,64,191003,6,0,L|320:188,1,120.000004577637,4|4,0:0|3:0,0:0:0:0:
200,112,191518,1,8,3:0:0:0:
200,112,191689,1,4,3:0:0:0:
188,196,192032,1,4,3:0:0:0:
192,280,192375,1,4,3:0:0:0:
188,196,192718,5,4,3:0:0:0:
272,208,192889,1,8,3:0:0:0:
276,292,193060,1,4,3:0:0:0:
360,304,193231,1,4,3:0:0:0:
272,208,193403,1,4,3:0:0:0:
276,292,193574,1,4,3:0:0:0:
360,304,193746,6,0,B|368:288|364:264|364:264|376:240|376:240|364:212|368:176,1,120.000004577637,2|4,0:2|3:0,0:0:0:0:
444,88,194260,1,8,3:0:0:0:
444,88,194432,1,4,3:0:0:0:
348,76,194775,1,4,3:0:0:0:
252,64,195118,1,4,3:0:0:0:
348,76,195460,5,4,3:0:0:0:
356,172,195632,1,8,3:0:0:0:
260,160,195803,1,4,3:0:0:0:
252,64,195975,1,4,3:0:0:0:
156,52,196146,1,8,3:0:0:0:
164,148,196318,1,8,2:0:0:0:
172,244,196489,6,0,B|250:263|250:263|286:247,1,120.000004577637,4|4,0:0|3:0,0:0:0:0:
384,328,197003,1,8,3:0:0:0:
384,328,197175,1,4,3:0:0:0:
288,344,197518,1,4,3:0:0:0:
192,328,197860,1,4,3:0:0:0:
288,344,198203,5,4,3:0:0:0:
285,246,198375,2,0,P|253:200|190:200,1,120.000004577637,8|0,3:0|0:0,0:0:0:0:
116,256,198889,1,4,3:0:0:0:
221,78,199232,2,0,B|263:81|289:64|289:64|332:79|332:79|365:62|405:70,1,180.000006866455,4|0,0:0|2:0,0:0:0:0:
444,170,199918,2,0,B|402:173|376:156|376:156|333:171|333:171|300:154|260:162,1,180.000006866455,4|0,0:0|2:0,0:0:0:0:
285,246,200603,5,8,0:0:0:0:
120,208,200775,1,8,0:0:0:0:
271,160,200946,5,8,0:0:0:0:
134,294,201118,1,12,0:2:0:0:
271,160,201975,6,0,P|277:75|360:92,1,191.999994140625,4|8,0:2|0:0,0:0:0:0:
436,192,202489,2,0,B|341:260|341:260|260:244,1,191.999994140625,2|0,0:2|0:0,0:0:0:0:
176,156,203004,1,8,0:0:0:0:
144,276,203175,1,0,2:0:0:0:
267,245,203346,6,0,L|363:265,1,95.9999970703126,2|0,0:2|2:0,0:0:0:0:
271,160,203689,1,8,0:0:0:0:
364,136,203860,2,0,L|457:116,1,95.9999970703126,2|0,0:2|2:0,0:0:0:0:
295,65,204204,2,0,B|244:49|244:49|159:60|159:60|109:38,1,191.999994140625,0|0,0:0|2:0,0:0:0:0:
35,131,204718,6,0,P|27:177|33:225,2,95.9999970703126,2|0|8,0:2|2:0|0:0,0:0:0:0:
152,180,205232,2,0,B|247:205|251:141|339:177,1,191.999994140625,2|0,0:2|0:0,0:0:0:0:
428,264,205746,1,8,0:0:0:0:
324,336,205918,1,0,2:0:0:0:
200,316,206089,6,0,B|148:300|148:300|130:262,1,95.9999970703126,2|0,0:2|2:0,0:0:0:0:
228,180,206432,1,8,0:0:0:0:
372,92,206603,2,0,P|323:20|251:69,1,191.999994140625,2|0,0:2|0:0,0:0:0:0:
228,180,207118,1,12,0:2:0:0:
260,300,207289,1,0,2:0:0:0:
356,220,207460,6,0,P|353:174|344:124,1,95.9999970703126,4|0,0:0|2:0,0:0:0:0:
228,180,207803,2,0,P|230:134|240:84,1,95.9999970703126,8|2,0:0|0:2,0:0:0:0:
344,232,208146,2,0,P|341:186|332:136,1,95.9999970703126,4|0,2:0|0:0,0:0:0:0:
224,65,208489,2,0,P|176:58|120:88,1,95.9999970703126,8|0,0:0|2:0,0:0:0:0:
56,160,208817,6,0,P|60:213|72:264,1,95.9999970703126,2|0,0:2|2:0,0:0:0:0:
160,340,209160,1,8,0:0:0:0:
184,216,209331,2,0,P|230:206|278:202,1,95.9999970703126,2|4,0:2|2:0,0:0:0:0:
364,296,209674,1,0,0:0:0:0:
408,180,209846,1,8,0:0:0:0:
480,280,210017,1,0,2:0:0:0:
444,148,210188,6,0,P|397:144|343:152,1,95.9999970703126,2|0,0:2|2:0,0:0:0:0:
248,224,210531,2,0,P|200:230|152:226,1,95.9999970703126,8|0,0:0|0:0,0:0:0:0:
64,136,210874,2,0,P|158:122|254:129,1,191.999994140625,4|12,2:0|0:2,0:0:0:0:
332,228,211388,1,0,2:0:0:0:
252,336,211570,5,4,0:0:0:0:
140,280,211742,2,0,P|117:280|93:285,2,47.9999985351563,8|8|8,0:0|0:0|0:0,0:0:0:0:
252,336,212084,1,4,0:0:0:0:
228,216,212255,2,0,P|228:193|233:169,3,47.9999985351563,8|8|8|8,0:0|0:0|0:0|0:0,0:0:0:0:
244,140,212598,1,8,0:0:0:0:
264,115,212683,1,8,0:0:0:0:
293,103,212769,1,8,0:0:0:0:
325,104,212855,1,8,0:0:0:0:
352,120,212941,6,0,P|382:208|345:302,1,191.999994140625,4|8,0:2|0:0,0:0:0:0:
252,336,213455,2,0,P|204:338|162:316,1,95.9999970703126,2|0,0:2|2:0,0:0:0:0:
93,231,213798,2,0,P|134:208|182:211,2,95.9999970703126,2|8|0,0:2|0:0|2:0,0:0:0:0:
248,252,214312,6,0,P|261:197|230:152,1,95.9999970703126,2|0,0:2|2:0,0:0:0:0:
156,104,214655,1,8,0:0:0:0:
244,40,214827,2,0,P|319:88|389:31,1,191.999994140625,2|0,0:2|0:0,0:0:0:0:
464,124,215341,1,8,0:0:0:0:
432,244,215512,1,0,2:0:0:0:
324,180,215684,6,0,P|279:182|224:188,1,95.9999970703126,2|0,0:2|2:0,0:0:0:0:
136,272,216027,1,8,0:0:0:0:
228,356,216198,2,0,P|271:341|284:297,1,95.9999970703126,2|4,2:0|0:2,0:0:0:0:
228,187,216541,1,0,0:0:0:0:
108,152,216712,1,8,0:0:0:0:
240,72,216884,6,0,B|379:65|379:65|436:104,1,191.999994140625,4|0,0:0|0:0,0:0:0:0:
456,216,217398,2,0,B|396:230|396:230|352:197,1,95.9999970703126,12|0,0:2|0:0,0:0:0:0:
238,271,217741,2,0,B|298:257|298:257|342:290,1,95.9999970703126,4|0,2:0|0:0,0:0:0:0:
292,170,218084,2,0,B|232:184|232:184|188:151,1,95.9999970703126,12|0,0:2|2:0,0:0:0:0:
310,89,218427,6,0,P|373:153|340:238,1,191.999994140625,4|8,0:0|0:0,0:0:0:0:
238,271,218941,2,0,B|178:285|178:285|134:252,1,95.9999970703126,2|0,0:2|0:0,0:0:0:0:
152,148,219283,1,0,0:0:0:0:
292,170,219455,1,8,0:0:0:0:
163,55,219627,6,0,P|77:86|60:176,1,191.999994140625,2|0,0:2|2:0,0:0:0:0:
150,264,220141,2,0,P|200:267|258:264,1,95.9999970703126,8|2,0:0|0:2,0:0:0:0:
292,170,220484,1,0,0:0:0:0:
356,276,220655,1,0,0:0:0:0:
436,180,220827,2,0,P|430:130|424:72,1,95.9999970703126,12|0,0:2|2:0,0:0:0:0:
320,20,221169,6,0,P|232:56|216:152,1,191.999994140625,4|8,0:0|0:0,0:0:0:0:
142,305,221683,2,0,P|158:260|144:216,1,95.9999970703126,2|4,2:0|0:2,0:0:0:0:
24,176,222026,1,0,0:0:0:0:
88,68,222198,1,8,0:0:0:0:
240,128,222370,6,0,B|317:101|357:157|428:129,1,191.999994140625,4|0,0:2|0:0,0:0:0:0:
480,276,222884,2,0,L|380:272,1,95.9999970703126,12|8,0:2|0:0,0:0:0:0:
384,272,223141,1,8,0:0:0:0:
384,272,223227,1,8,3:0:0:0:
288,204,223398,1,8,0:0:0:0:
192,236,223570,1,8,0:0:0:0:
116,100,223741,1,8,0:0:0:0:
212,132,223912,6,0,L|328:108,1,95.9999970703126,6|0,0:0|2:0,0:0:0:0:
416,156,224255,1,8,0:0:0:0:
478,291,224427,2,0,L|362:267,1,95.9999970703126,2|0,2:1|0:0,0:0:0:0:
258,271,224770,2,0,L|163:290,2,95.9999970703126,0|8|2,2:0|0:0|2:1,0:0:0:0:
328,168,225283,6,0,P|333:120|328:68,1,95.9999970703126,0|2,0:0|2:1,0:0:0:0:
208,36,225627,2,0,P|170:66|137:106,1,95.9999970703126,8|2,0:0|2:1,0:0:0:0:
95,222,225970,2,0,P|125:258|163:288,1,95.9999970703126,2|0,0:0|2:0,0:0:0:0:
280,312,226312,1,8,0:0:0:0:
415,149,226655,6,0,B|366:142|366:142|327:167,2,95.9999970703126,6|0|8,0:0|2:0|0:0,0:0:0:0:
412,276,227170,1,2,2:1:0:0:
270,228,227341,2,0,P|187:212|80:204,1,191.999994140625,2|8,0:0|0:0,0:0:0:0:
128,88,227855,6,0,P|177:91|240:88,1,95.9999970703126,2|0,2:1|0:0,0:0:0:0:
340,44,228198,1,2,2:1:0:0:
332,168,228370,1,8,0:0:0:0:
444,112,228541,2,0,P|454:205|393:280,1,191.999994140625,2|12,2:1|0:2,0:0:0:0:
395,278,229055,1,12,0:2:0:0:
176,176,229398,6,0,L|184:288,2,95.9999970703126,6|0|8,0:0|2:0|0:0,0:0:0:0:
204,52,229912,2,0,B|248:40|248:40|308:52,1,95.9999970703126,2|0,2:1|0:0,0:0:0:0:
404,112,230255,1,0,2:0:0:0:
396,236,230427,2,0,L|389:331,1,95.9999970703126,8|2,0:0|2:1,0:0:0:0:
268,308,230770,6,0,L|168:320,1,95.9999970703126,0|2,0:0|2:1,0:0:0:0:
73,217,231112,2,0,L|173:229,1,95.9999970703126,8|2,0:0|2:1,0:0:0:0:
300,132,231455,2,0,L|200:144,1,95.9999970703126,0|0,0:0|2:0,0:0:0:0:
312,225,231798,1,12,0:2:0:0:
397,132,231970,1,0,2:0:0:0:
305,47,232141,6,0,L|114:69,1,191.999994140625,4|8,0:2|0:0,0:0:0:0:
114,69,232655,1,2,0:2:0:0:
112,304,232998,1,2,0:2:0:0:
216,230,233170,2,0,P|264:223|324:226,1,95.9999970703126,8|2,0:0|2:0,0:0:0:0:
436,219,233512,6,0,P|480:144|411:89,1,191.999994140625,2|8,0:2|0:0,0:0:0:0:
411,89,234027,1,2,0:2:0:0:
216,230,234370,1,0,0:0:0:0:
112,304,234541,2,0,P|105:252|108:192,1,95.9999970703126,8|2,0:0|2:0,0:0:0:0:
164,100,234884,6,0,B|256:76|256:76|342:119,1,191.999994140625,4|8,0:2|0:0,0:0:0:0:
342,119,235398,1,0,0:0:0:0:
396,232,235570,1,8,0:0:0:0:
428,92,235741,1,0,0:0:0:0:
310,259,235912,1,8,0:0:0:0:
256,92,236084,1,0,0:0:0:0:
377,320,236255,5,4,0:2:0:0:
244,120,239012,6,0,L|224:68,3,40,8|8|4|4,2:0|3:0|3:0|3:0,0:0:0:0:
164,156,239354,2,0,L|149:193,3,40,8|8|4|4,2:0|3:0|3:0|3:0,0:0:0:0:
72,144,239697,2,0,L|52:92,3,40,8|8|4|4,2:0|3:0|3:0|3:0,0:0:0:0:
72,236,240040,1,8,2:0:0:0:
90,262,240125,1,8,3:0:0:0:
116,279,240211,1,4,3:0:0:0:
148,284,240297,1,4,3:0:0:0:
179,276,240383,6,0,P|216:264|255:270,1,80,6|0,0:0|2:0,0:0:0:0:
410,312,240726,2,0,P|372:324|333:318,1,80,8|0,0:0|2:0,0:0:0:0:
264,260,241068,1,0,0:0:0:0:
360,220,241240,2,0,L|348:132,1,80,2|8,0:0|0:0,0:0:0:0:
113,155,241583,6,0,B|175:184|200:123|268:163,1,160,2|2,0:0|0:0,0:0:0:0:
264,260,242097,2,0,B|224:271|224:271|184:262,1,80,8|0,0:0|0:0,0:0:0:0:
88,260,242440,2,0,B|50:269|50:269|19:297,2,80,2|0|8,0:0|0:0|0:0,0:0:0:0:
186,263,242954,1,2,2:0:0:0:
152,164,243126,6,0,P|114:158|68:160,1,80,2|0,0:0|2:0,0:0:0:0:
104,60,243469,2,0,P|143:61|183:55,1,80,8|0,0:0|2:0,0:0:0:0:
284,80,243812,1,0,0:0:0:0:
388,20,243983,2,0,P|390:60|384:100,1,80,2|8,0:0|0:0,0:0:0:0:
344,220,244326,6,0,B|225:243|225:243|189:228,1,160,2|2,0:0|0:0,0:0:0:0:
88,260,244840,2,0,P|86:299|92:339,1,80,8|0,0:0|0:0,0:0:0:0:
196,344,245183,2,0,L|284:328,2,80,2|0|12,0:0|0:0|0:2,0:0:0:0:
189,228,245697,1,0,2:0:0:0:
312,104,245869,6,0,P|380:112|352:175,1,160,6|8,0:0|0:0,0:0:0:0:
248,164,246383,1,0,0:0:0:0:
159,111,246554,2,0,P|120:105|81:114,1,80,0|2,0:0|0:0,0:0:0:0:
32,200,246897,1,8,0:0:0:0:
148,304,247069,6,0,P|187:310|226:301,1,80,4|0,0:2|0:0,0:0:0:0:
248,204,247412,2,0,P|287:197|326:206,1,80,0|8,0:0|0:0,0:0:0:0:
440,240,247754,1,0,0:0:0:0:
416,124,247926,1,12,0:2:0:0:
326,206,248097,1,0,2:0:0:0:
302,90,248269,6,0,B|273:65|239:69|239:69|244:56|244:56|201:72|164:64,1,160,4|0,0:0|0:0,0:0:0:0:
112,192,248783,1,0,0:0:0:0:
248,204,248954,1,0,0:0:0:0:
88,280,249126,1,0,0:0:0:0:
224,291,249297,2,0,P|263:288|297:309,1,80,0|0,0:0|0:0,0:0:0:0:
426,325,249640,2,0,P|395:299|386:261,1,80
420,144,249983,5,0,0:0:0:0:
284,128,250154,1,0,0:0:0:0:
452,56,250326,1,0,0:0:0:0:
316,40,250497,1,0,0:0:0:0:
200,136,250669,2,0,L|216:224,1,80,0|0,0:0|0:0,0:0:0:0:
92,264,251012,2,0,L|106:185,1,80,0|2,0:0|0:0,0:0:0:0:
136,52,251354,5,2,0:0:0:0:
268,80,251526,1,2,0:0:0:0:
200,136,251697,1,2,0:0:0:0:
332,164,251869,1,0,0:0:0:0:
264,220,252040,1,2,0:0:0:0:
396,248,252212,1,2,0:0:0:0:
328,304,252383,1,2,0:0:0:0:
264,220,252554,1,0,0:0:0:0:
118,315,252726,5,6,0:0:0:0:
179,150,252897,1,10,0:0:0:0:
224,320,253069,1,10,0:0:0:0:
89,210,253240,1,4,0:2:0:0:
89,210,253583,5,10,0:0:0:0:
264,220,253754,1,10,0:0:0:0:
118,315,253926,1,12,0:2:0:0:
