osu file format v14

[General]
AudioFilename: audio.mp3
AudioLeadIn: 0
PreviewTime: 68346
Countdown: 0
SampleSet: Normal
StackLeniency: 0.7
Mode: 0
LetterboxInBreaks: 0
WidescreenStoryboard: 0

[Editor]
Bookmarks: 83518,211570
DistanceSpacing: 1
BeatDivisor: 4
GridSize: 4
TimelineZoom: 1.4

[Metadata]
Title:Kimi to Gelaende
TitleUnicode:君とゲレンデ
Artist:SHISHAMO
ArtistUnicode:SHISHAMO
Creator:Zero__wind
Version:Insane
Source:
Tags:rock indie iYiyo
BeatmapID:1151454
BeatmapSetID:543243

[Difficulty]
HPDrainRate:6
CircleSize:4
OverallDifficulty:8.2
ApproachRate:9.2
SliderMultiplier:1.6
SliderTickRate:1

[Events]
//Background and Video events
0,0,"bg.jpg",0,0
//Break Periods
2,180032,190433
//Storyboard Layer 0 (Background)
//Storyboard Layer 1 (Fail)
//Storyboard Layer 2 (Pass)
//Storyboard Layer 3 (Foreground)
//Storyboard Sound Samples

[TimingPoints]
3118,342.857142857143,4,1,1,60,1,0
14089,-100,4,1,1,50,0,0
19232,-76.9230769230769,4,1,1,50,0,0
19575,-100,4,1,1,60,0,0
29003,-100,4,1,1,50,0,0
34318,-76.9230769230769,4,1,1,50,0,0
34660,-100,4,1,1,60,0,0
47003,-133.333333333333,4,1,1,50,0,0
57803,-100,4,1,1,60,0,0
68946,-100,4,1,1,60,0,1
79575,-66.6666666666667,4,1,1,60,0,1
79918,-100,4,1,1,60,0,1
95003,-133.333333333333,4,1,1,60,0,0
95089,-133.333333333333,4,1,1,5,0,0
96032,-100,4,1,1,60,0,0
107346,-100,4,1,1,50,0,0
112489,-76.9230769230769,4,1,1,50,0,0
112832,-100,4,1,1,60,0,0
128260,-133.333333333333,4,1,1,60,0,0
128946,-100,4,1,1,60,0,0
151232,-133.333333333333,4,1,1,60,0,0
171632,-100,4,1,1,60,0,0
180032,-133.333333333333,4,1,1,50,0,0
200603,-133.333333333333,4,1,1,60,0,0
201975,-100,4,1,1,60,0,1
208817,342.857142857143,4,1,1,60,1,1
211570,342.857142857143,4,1,1,60,1,1
236255,-300,4,1,1,60,0,0
236341,-300,4,1,1,5,0,0
239012,342.857142857143,4,1,1,50,1,0
240383,-100,4,1,1,60,0,0

[Colours]
Combo1 : 164,187,213
Combo2 : 215,148,140
Combo3 : 112,170,222
Combo4 : 250,226,156

[HitObjects]
320,140,3117,6,0,P|360:116|384:84,1,80,6|0,0:0|2:0,0:0:0:0:
388,276,3460,2,0,P|372:324|372:364,1,80,8|0,0:0|2:0,0:0:0:0:
464,148,3803,1,0,0:0:0:0:
264,204,3975,1,2,0:0:0:0:
340,24,4146,1,8,0:0:0:0:
464,168,4318,6,0,L|376:156,1,80,2|2,0:0|2:0,0:0:0:0:
184,232,4660,2,0,L|192:344,1,80,2|8,0:0|0:0,0:0:0:0:
332,232,5003,1,0,0:0:0:0:
260,84,5175,2,0,P|216:92|168:88,1,80,2|0,0:0|0:0,0:0:0:0:
72,248,5518,1,8,0:0:0:0:
64,32,5689,1,2,2:0:0:0:
64,32,5860,6,0,L|56:124,1,80,2|0,0:0|2:0,0:0:0:0:
184,280,6203,2,0,L|176:188,1,80,8|0,0:0|2:0,0:0:0:0:
24,248,6546,1,0,0:0:0:0:
208,108,6718,1,2,0:0:0:0:
160,288,6889,1,8,0:0:0:0:
40,108,7060,6,0,P|88:116|128:132,1,80,2|2,0:0|2:0,0:0:0:0:
244,228,7403,2,0,P|256:275|257:318,1,80,2|8,0:0|0:0,0:0:0:0:
140,376,7746,1,0,0:0:0:0:
292,144,7918,1,2,0:0:0:0:
140,224,8089,1,0,0:0:0:0:
364,296,8260,2,0,L|284:284,1,80,12|0,0:2|2:0,0:0:0:0:
208,55,8603,6,0,P|278:20|354:38,1,160,6|8,0:0|0:0,0:0:0:0:
420,148,9118,1,0,0:0:0:0:
336,260,9289,1,0,0:0:0:0:
216,152,9460,2,0,P|216:200|212:248,1,80,2|8,0:0|0:0,0:0:0:0:
440,236,9803,6,0,B|432:192|432:192|452:144|452:144|444:72,1,160,6|2,0:0|0:0,0:0:0:0:
356,316,10318,1,8,0:0:0:0:
512,200,10489,1,0,0:0:0:0:
368,132,10660,2,0,L|268:140,1,80,12|0,0:2|2:0,0:0:0:0:
64,256,11003,6,0,B|88:252|88:252|112:264|112:264|138:255|172:265|172:265|232:252,1,160,4|0,0:0|2:0,0:0:0:0:
218,254,11518,1,0,0:0:0:0:
140,344,11689,1,0,0:0:0:0:
296,228,11860,1,0,0:0:0:0:
248,336,12032,1,0,0:0:0:0:
176,168,12203,1,0,0:0:0:0:
248,356,12375,1,0,0:0:0:0:
292,208,12546,1,0,0:0:0:0:
120,348,12718,5,8,3:0:0:0:
164,152,12889,1,8,0:0:0:0:
172,124,12975,1,8,0:0:0:0:
180,96,13060,1,8,0:0:0:0:
384,220,13232,1,4,0:2:0:0:
56,248,13575,5,4,0:2:0:0:
220,300,13746,1,8,0:0:0:0:
164,188,13918,1,0,2:0:0:0:
108,364,14089,1,4,0:0:0:0:
352,320,14432,5,8,2:0:0:0:
280,368,14603,1,0,2:0:0:0:
352,320,14775,1,2,2:0:0:0:
276,216,14946,2,0,L|192:212,1,80,2|8,0:0|0:0,0:0:0:0:
364,152,15289,1,4,0:2:0:0:
364,152,15632,5,2,2:0:0:0:
344,256,15803,1,8,2:0:0:0:
432,188,15975,1,2,2:0:0:0:
236,240,16318,5,2,2:0:0:0:
328,292,16489,1,8,2:0:0:0:
296,192,16660,1,2,2:0:0:0:
184,296,16832,1,2,0:0:0:0:
456,328,17175,5,8,2:0:0:0:
380,372,17346,1,0,2:0:0:0:
456,328,17518,1,2,2:0:0:0:
312,280,17689,2,0,L|316:192,1,80,2|8,0:0|0:0,0:0:0:0:
428,80,18032,1,4,0:2:0:0:
428,80,18375,5,2,2:0:0:0:
180,104,18546,2,0,L|348:96,1,160,12|0,0:2|2:0,0:0:0:0:
304,256,19060,1,0,0:0:0:0:
56,280,19232,6,0,B|60:252|60:252|56:212|56:212|60:172,1,103.999995239258,12|0,0:2|2:0,0:0:0:0:
160,24,19575,6,0,P|77:54|7:13,1,160,4|8,0:2|0:0,0:0:0:0:
196,136,20089,2,0,P|240:116|284:112,1,80,2|0,0:2|2:0,0:0:0:0:
216,288,20432,1,0,0:0:0:0:
56,312,20603,2,0,L|64:220,1,80,8|0,0:0|2:0,0:0:0:0:
216,288,20946,6,0,L|376:300,1,160,2|0,0:2|0:0,0:0:0:0:
504,240,21460,2,0,P|453:221|416:197,1,80,2|0,0:2|2:0,0:0:0:0:
384,64,21803,1,0,0:0:0:0:
296,200,21975,2,0,L|312:100,1,80,8|0,0:0|2:0,0:0:0:0:
484,56,22318,5,2,1:2:0:0:
416,160,22489,1,0,2:0:0:0:
512,236,22660,1,8,0:0:0:0:
400,176,22832,1,0,2:0:0:0:
404,316,23003,5,2,0:2:0:0:
504,148,23175,1,0,0:0:0:0:
312,200,23346,1,8,0:0:0:0:
503,59,23518,6,0,P|437:19|362:43,1,160,4|0,0:2|0:0,0:0:0:0:
256,116,24032,1,8,0:0:0:0:
356,284,24203,2,0,P|360:224|372:176,1,80,2|0,0:2|2:0,0:0:0:0:
426,115,24546,1,0,0:0:0:0:
200,208,24718,2,0,L|292:216,1,80,12|0,0:2|2:0,0:0:0:0:
512,244,25060,6,0,L|432:250,1,80,4|0,0:0|2:0,0:0:0:0:
288,316,25403,1,8,0:0:0:0:
352,168,25575,1,2,0:2:0:0:
352,168,25746,1,2,0:2:0:0:
388,324,25918,1,8,0:0:0:0:
192,348,26089,1,8,0:0:0:0:
232,76,26260,6,0,P|254:161|264:245,1,160,4|0,0:2|0:0,0:0:0:0:
136,268,26775,2,0,L|52:260,1,80,8|0,0:0|2:0,0:0:0:0:
112,376,27118,1,0,0:0:0:0:
260,336,27289,2,0,P|304:328|344:304,1,80,2|8,0:2|0:0,0:0:0:0:
328,72,27632,1,4,0:2:0:0:
328,72,27975,5,0,0:0:0:0:
272,184,28146,1,8,0:0:0:0:
220,108,28318,1,0,0:0:0:0:
164,220,28489,1,8,0:0:0:0:
112,144,28660,1,0,0:0:0:0:
56,256,28831,1,8,0:0:0:0:
248,272,29003,1,0,0:0:0:0:
248,272,29089,1,0,0:0:0:0:
248,272,29175,1,4,0:0:0:0:
20,352,29518,5,8,2:0:0:0:
260,360,29860,1,2,2:0:0:0:
332,248,30032,2,0,L|328:168,1,80,2|8,0:0|0:0,0:0:0:0:
128,192,30375,1,4,0:2:0:0:
128,192,30718,5,2,2:0:0:0:
248,212,30889,2,0,B|292:204|292:204|328:216|328:216|364:204|364:204|408:212,1,160,8|0,2:0|2:0,0:0:0:0:
500,236,31403,1,2,2:0:0:0:
368,304,31575,1,8,2:0:0:0:
402,211,31746,1,2,2:0:0:0:
471,338,31918,1,2,1:0:0:0:
228,288,32260,5,8,2:0:0:0:
272,368,32432,1,0,2:0:0:0:
228,288,32603,1,2,2:0:0:0:
348,204,32775,2,0,L|260:196,1,80,2|8,0:0|0:0,0:0:0:0:
80,216,33118,1,4,0:2:0:0:
80,216,33460,5,2,2:0:0:0:
256,72,33632,2,0,P|172:60|120:120,1,160,12|0,0:2|2:0,0:0:0:0:
256,220,34146,1,0,1:0:0:0:
480,128,34318,6,0,B|476:100|476:100|480:60|480:60|476:20,1,103.999995239258,12|0,0:2|2:0,0:0:0:0:
340,236,34660,6,0,P|408:260|480:220,1,160,4|8,0:2|0:0,0:0:0:0:
404,64,35175,2,0,L|320:76,1,80,2|0,0:2|2:0,0:0:0:0:
208,96,35518,1,0,0:0:0:0:
252,255,35689,2,0,P|266:218|276:180,1,80,8|0,0:0|2:0,0:0:0:0:
160,184,36032,6,0,L|0:172,1,160,2|8,0:2|0:2,0:2:0:0:
60,48,36546,2,0,P|116:28|160:20,1,80,2|0,0:2|2:0,0:0:0:0:
256,40,36889,1,0,0:0:0:0:
324,140,37060,2,0,L|308:232,1,80,8|0,0:0|2:0,0:0:0:0:
148,272,37403,5,2,0:2:0:0:
228,192,37575,1,0,2:0:0:0:
92,204,37746,1,8,0:0:0:0:
172,124,37918,1,0,2:0:0:0:
236,280,38089,5,2,0:2:0:0:
80,224,38260,1,0,0:0:0:0:
172,92,38432,1,8,0:0:0:0:
392,196,38603,6,0,P|316:188|212:172,1,160,4|0,0:2|0:0,0:0:0:0:
112,148,39118,1,8,0:0:0:0:
300,60,39289,2,0,P|260:52|208:48,1,80,2|0,0:2|2:0,0:0:0:0:
320,172,39632,1,0,0:0:0:0:
456,16,39803,2,0,L|448:100,1,80,12|0,0:2|2:0,0:0:0:0:
404,280,40146,6,0,L|488:288,1,80,4|0,0:0|2:0,0:0:0:0:
280,312,40489,1,8,0:0:0:0:
344,216,40660,1,2,2:0:0:0:
196,232,40832,1,2,0:2:0:0:
308,136,41003,2,0,P|296:96|272:52,1,80,2|8,2:0|0:0,0:0:0:0:
132,164,41346,6,0,P|113:199|102:237,1,80,2|0,2:0|0:0,0:0:0:0:
112,60,41689,2,0,P|72:62|33:71,1,80,2|8,2:0|0:0,0:0:0:0:
196,232,42032,1,2,2:0:0:0:
216,88,42203,1,2,0:2:0:0:
33,160,42375,2,0,P|72:169|112:171,1,80,2|8,2:0|0:0,0:0:0:0:
296,172,42718,1,0,2:0:0:0:
168,352,42889,6,0,L|180:260,1,80,4|0,0:0|2:0,0:0:0:0:
212,120,43232,1,8,0:0:0:0:
296,256,43403,1,2,2:0:0:0:
104,252,43575,1,2,0:2:0:0:
228,204,43746,1,2,2:0:0:0:
56,324,43918,1,8,0:0:0:0:
12,108,44089,6,0,P|98:115|172:128,1,160,4|0,0:2|0:0,0:0:0:0:
300,180,44603,2,0,P|386:173|460:160,1,160,8|0,0:0|2:0,0:0:0:0:
352,272,45118,1,0,0:0:0:0:
404,76,45289,2,0,P|364:83|324:87,1,80,8|0,0:0|2:0,0:0:0:0:
480,252,45632,1,4,0:2:0:0:
512,4,45975,5,8,0:0:0:0:
391,43,46146,1,8,0:0:0:0:
312,148,46318,5,8,3:0:0:0:
412,180,46489,1,8,3:0:0:0:
496,280,46660,5,4,3:0:0:0:
416,305,46831,1,4,3:0:0:0:
336,280,47003,6,0,P|252:284|192:280,1,120.000004577637,4|0,0:2|2:0,0:0:0:0:
376,104,47689,1,8,2:0:0:0:
188,196,48032,1,0,2:0:0:0:
272,16,48203,2,0,P|265:75|260:136,1,120.000004577637,2|8,0:2|2:0,0:0:0:0:
308,248,48718,2,0,P|332:260|364:260,1,60.0000022888184,0|0,0:0|2:0,0:0:0:0:
200,216,49060,2,0,L|76:228,1,120.000004577637,8|2,2:0|2:0,0:0:0:0:
16,284,49575,1,0,2:0:0:0:
48,364,49746,5,2,0:2:0:0:
120,132,50089,1,0,0:0:0:0:
276,320,50432,2,0,P|320:276|332:208,1,120.000004577637,8|0,2:0|2:0,0:0:0:0:
304,100,50946,2,0,L|244:108,1,60.0000022888184,2|0,0:2|2:0,0:0:0:0:
116,164,51289,1,8,2:0:0:0:
196,328,51460,2,0,P|204:268|215:209,1,120.000004577637,0|8,0:0|2:0,0:0:0:0:
484,136,52146,1,4,3:0:0:0:
512,252,52318,1,4,3:0:0:0:
444,348,52489,6,0,L|316:336,1,120.000004577637,4|0,0:0|2:0,0:0:0:0:
108,348,53175,1,8,2:0:0:0:
232,176,53518,1,0,2:0:0:0:
108,222,53689,2,0,P|98:164|118:108,1,120.000004577637,2|8,0:2|2:0,0:0:0:0:
248,72,54203,2,0,L|316:80,1,60.0000022888184,0|0,0:0|2:0,0:0:0:0:
160,8,54546,2,0,L|24:24,1,120.000004577637,8|2,2:0|2:0,0:0:0:0:
32,140,55060,1,8,2:0:0:0:
248,72,55232,5,4,0:0:0:0:
188,268,55575,1,0,2:0:0:0:
296,152,55746,1,8,2:0:0:0:
128,196,55918,1,8,2:0:0:0:
276,243,56089,1,8,3:0:0:0:
292,340,56260,1,4,3:0:0:0:
80,336,56432,5,4,0:2:0:0:
360,236,56775,1,4,0:2:0:0:
80,76,57118,1,4,0:2:0:0:
416,4,57460,1,4,0:2:0:0:
444,132,57632,1,8,0:0:0:0:
196,108,57803,6,0,L|364:96,1,160,4|0,0:2|0:0,0:0:0:0:
480,56,58318,1,8,0:0:0:0:
496,200,58489,2,0,P|459:215|420:213,1,80,2|0,0:2|2:0,0:0:0:0:
292,208,58832,1,0,0:0:0:0:
350,364,59003,2,0,P|365:327|364:288,1,80,8|0,0:0|2:0,0:0:0:0:
328,100,59346,6,0,P|260:104|236:108,1,80,2|0,0:2|2:0,0:0:0:0:
124,140,59689,1,8,0:0:0:0:
112,248,59860,2,0,P|100:320|100:340,1,80,2|0,0:2|2:0,0:0:0:0:
220,212,60203,1,0,0:0:0:0:
104,132,60375,2,0,L|20:124,1,80,8|0,0:0|2:0,0:0:0:0:
12,296,60718,6,0,P|60:288|96:272,1,80,2|0,0:2|2:0,0:0:0:0:
228,280,61060,1,8,0:0:0:0:
344,200,61232,2,0,P|268:180|184:140,1,160,2|0,0:2|0:0,0:0:0:0:
72,132,61746,2,0,P|88:64|88:36,1,80,8|0,0:0|2:0,0:0:0:0:
280,8,62089,6,0,P|296:76|296:104,1,80,2|0,0:2|2:0,0:0:0:0:
296,224,62432,1,8,0:0:0:0:
128,320,62603,2,0,P|204:328|292:328,1,160,2|0,0:2|0:0,0:0:0:0:
496,184,63118,2,0,P|496:140|480:104,1,80,12|0,0:2|2:0,0:0:0:0:
224,12,63460,6,0,L|404:28,1,160,4|8,0:2|0:0,0:0:0:0:
484,24,63975,1,0,0:0:0:0:
393,107,64146,2,0,P|379:144|380:184,1,80,4|0,2:0|0:0,0:0:0:0:
324,292,64489,2,0,P|339:328|368:355,1,80,12|0,0:2|2:0,0:0:0:0:
211,300,64832,6,0,P|140:332|65:308,1,160,6|12,0:2|0:2,0:0:0:0:
204,168,65346,1,0,0:0:0:0:
24,204,65518,1,4,2:0:0:0:
136,252,65689,1,0,0:0:0:0:
72,106,65860,2,0,P|76:62|96:26,1,80,12|0,0:2|2:0,0:0:0:0:
300,151,66203,6,0,P|297:191|279:227,1,80,4|0,0:0|2:0,0:0:0:0:
128,172,66546,1,12,0:2:0:0:
184,76,66718,1,0,0:0:0:0:
292,64,66889,2,0,P|340:60|380:56,1,80,4|0,2:0|0:0,0:0:0:0:
488,232,67232,2,0,P|440:228|400:224,1,80,12|0,0:2|2:0,0:0:0:0:
208,264,67575,5,8,0:0:0:0:
424,128,67746,1,8,0:0:0:0:
364,328,67918,1,8,0:0:0:0:
260,128,68089,2,0,P|268:72|276:40,1,80,4|8,0:2|0:0,0:0:0:0:
280,308,68432,1,8,0:0:0:0:
257,332,68517,1,8,0:0:0:0:
227,345,68603,1,8,0:0:0:0:
194,346,68689,1,8,0:0:0:0:
163,335,68774,1,8,0:0:0:0:
139,312,68860,1,8,0:0:0:0:
125,282,68946,6,0,P|120:184|124:116,1,160,4|8,0:0|0:0,0:0:0:0:
280,20,69460,2,0,P|344:40|376:32,1,80,2|0,0:2|2:0,0:0:0:0:
440,148,69803,1,0,0:0:0:0:
260,200,69975,1,8,0:0:0:0:
340,124,70146,1,0,2:0:0:0:
384,272,70318,6,0,P|384:320|388:376,1,80,2|0,0:2|2:0,0:0:0:0:
480,228,70660,1,8,0:0:0:0:
280,312,70832,2,0,P|184:312|96:296,1,160,2|0,0:2|0:0,0:0:0:0:
232,172,71346,1,8,0:0:0:0:
344,40,71518,1,0,2:0:0:0:
344,40,71689,6,0,P|339:98|336:180,1,120,2|0,0:2|2:0,0:0:0:0:
336,159,72032,1,8,0:0:0:0:
144,68,72203,2,0,P|183:65|222:55,1,80,2|0,0:2|2:0,0:0:0:0:
116,204,72546,2,0,L|28:196,1,80,0|8,0:0|0:0,0:0:0:0:
240,156,72889,1,0,2:0:0:0:
308,304,73060,6,0,P|228:324|188:312,1,120,2|0,0:2|2:0,0:0:0:0:
193,314,73403,1,8,0:0:0:0:
352,192,73575,2,0,P|444:200|512:200,1,160,2|0,0:2|0:0,0:0:0:0:
212,92,74089,2,0,L|200:176,1,80,12|0,0:2|2:0,0:0:0:0:
472,316,74432,6,0,L|360:328,1,80,4|0,0:2|2:0,0:0:0:0:
224,348,74775,2,0,P|272:312|288:288,1,80,8|2,0:0|0:2,0:0:0:0:
372,176,75118,2,0,P|372:120|376:88,1,80,4|0,2:0|0:0,0:0:0:0:
216,8,75460,2,0,P|196:72|176:104,1,80,8|0,0:0|2:0,0:0:0:0:
108,224,75803,6,0,P|180:216|272:204,1,160,2|8,0:2|0:0,0:0:0:0:
288,84,76318,1,2,0:2:0:0:
224,284,76489,1,4,2:0:0:0:
344,200,76660,1,0,0:0:0:0:
172,120,76832,2,0,L|68:108,1,80,8|0,0:0|2:0,0:0:0:0:
20,328,77175,6,0,P|60:332|100:324,1,80,2|0,0:2|2:0,0:0:0:0:
268,220,77518,1,8,0:0:0:0:
200,344,77689,1,2,1:2:0:0:
144,208,77860,2,0,P|156:165|176:124,1,80,4|0,2:0|0:0,0:0:0:0:
412,60,78203,2,0,L|492:100,1,80,12|0,0:2|2:0,0:0:0:0:
492,328,78546,5,4,0:0:0:0:
288,240,78718,1,8,0:0:0:0:
292,212,78803,1,8,0:0:0:0:
296,184,78889,1,8,0:0:0:0:
512,360,79060,2,0,P|432:364|344:356,1,160,4|0,0:0|0:0,0:0:0:0:
184,268,79575,6,0,B|172:236|188:212|188:212|180:184|180:184|188:152,1,120.000004577637,12|0,0:2|2:0,0:0:0:0:
428,20,79918,6,0,L|324:36,1,80,4|0,0:2|2:0,0:0:0:0:
192,64,80260,1,8,0:0:0:0:
356,120,80432,2,0,P|424:164|488:216,1,160,2|0,0:2|0:0,0:0:0:0:
448,328,80946,1,8,0:0:0:0:
336,376,81118,1,0,2:0:0:0:
240,300,81289,6,0,P|152:308|76:324,1,160,2|8,0:2|0:0,0:0:0:0:
8,196,81803,2,0,P|68:216|108:220,1,80,2|0,0:2|2:0,0:0:0:0:
228,196,82146,1,0,0:0:0:0:
168,360,82318,1,8,0:0:0:0:
100,240,82489,1,0,2:0:0:0:
100,240,82660,6,0,P|108:184|116:140,1,80,2|0,0:2|2:0,0:0:0:0:
168,24,83003,1,8,0:0:0:0:
280,120,83175,1,2,2:0:0:0:
24,172,83346,1,4,0:2:0:0:
184,100,83518,1,0,0:0:0:0:
128,300,83689,1,8,0:0:0:0:
288,224,83860,6,0,P|367:230|447:229,1,160,4|0,0:0|0:0,0:0:0:0:
260,320,84375,1,12,0:2:0:0:
376,156,84546,1,0,0:0:0:0:
360,312,84718,1,4,2:0:0:0:
276,148,84889,1,0,0:0:0:0:
432,0,85060,2,0,P|476:16|516:40,1,80,12|0,0:2|2:0,0:0:0:0:
500,232,85403,6,0,L|408:244,1,80,4|0,0:0|2:0,0:0:0:0:
248,252,85746,1,8,0:0:0:0:
360,160,85918,2,0,P|360:96|340:0,1,160,2|0,0:2|0:0,0:0:0:0:
192,52,86432,1,8,0:0:0:0:
256,144,86603,1,0,2:0:0:0:
160,204,86775,6,0,P|120:201|80:197,1,80,2|0,0:2|2:0,0:0:0:0:
256,272,87118,1,8,0:0:0:0:
184,368,87289,2,0,P|124:340|4:372,1,160,2|0,0:2|0:0,0:0:0:0:
164,180,87803,2,0,L|156:100,1,80,12|0,0:2|2:0,0:0:0:0:
0,236,88146,6,0,P|44:244|80:244,1,80,2|0,0:2|2:0,0:0:0:0:
240,220,88489,1,8,0:0:0:0:
136,88,88660,1,2,2:0:0:0:
88,272,88832,1,4,0:2:0:0:
168,168,89003,1,0,0:0:0:0:
0,148,89175,1,8,0:0:0:0:
48,372,89346,6,0,P|125:375|182:322,1,160,4|0,0:2|0:0,0:0:0:0:
280,200,89860,2,0,P|230:197|180:192,1,80,12|0,0:2|0:0,0:0:0:0:
320,320,90203,1,4,2:0:0:0:
408,216,90375,1,0,0:0:0:0:
296,84,90546,2,0,P|246:81|196:76,1,80,12|0,0:2|2:0,0:0:0:0:
56,176,90889,5,4,0:0:0:0:
184,156,91060,1,0,2:0:0:0:
92,276,91232,1,8,0:0:0:0:
96,75,91403,2,0,P|103:36|124:3,1,80,2|0,0:2|2:0,0:0:0:0:
292,156,91746,1,0,0:0:0:0:
188,244,91918,1,8,0:0:0:0:
100,184,92089,1,0,2:0:0:0:
224,332,92260,5,2,0:2:0:0:
352,248,92432,1,0,2:0:0:0:
188,128,92603,1,8,0:0:0:0:
108,272,92775,1,0,0:0:0:0:
236,224,92946,1,8,0:0:0:0:
156,368,93118,1,0,0:0:0:0:
188,127,93289,2,0,P|227:120|267:120,1,80,12|0,0:2|2:0,0:0:0:0:
456,360,93632,6,0,P|324:352|280:344,1,160,4|8,0:0|0:0,0:0:0:0:
192,292,94146,1,0,0:0:0:0:
340,236,94318,1,0,0:0:0:0:
96,228,94489,1,0,0:0:0:0:
304,324,94660,1,8,0:0:0:0:
224,156,94832,1,0,0:0:0:0:
168,380,95003,6,0,B|120:392|76:384|36:364|68:300|88:244|184:360|224:232,1,300.000011444092,4|0,0:2|2:0,0:0:0:0:
104,188,96032,2,0,L|132:280,1,80,4|0,3:0|2:0,0:0:0:0:
292,192,96375,6,0,L|320:100,1,80,6|0,0:0|2:0,0:0:0:0:
112,76,96718,2,0,P|152:92|188:100,1,80,8|0,0:0|2:0,0:0:0:0:
324,88,97060,1,0,0:0:0:0:
216,188,97232,1,2,0:0:0:0:
244,20,97403,1,8,0:0:0:0:
400,60,97575,6,0,P|442:55|476:36,1,80,2|0,0:0|2:0,0:0:0:0:
384,184,97918,2,0,P|422:200|461:201,1,80,2|8,0:0|0:0,0:0:0:0:
376,308,98260,1,0,0:0:0:0:
284,188,98432,2,0,L|200:200,1,80,2|0,0:0|0:0,0:0:0:0:
108,304,98775,2,0,L|112:388,1,80,8|0,0:0|2:0,0:0:0:0:
16,208,99118,6,0,P|36:164|68:132,1,80,2|0,0:0|2:0,0:0:0:0:
200,280,99460,2,0,P|240:296|292:296,1,80,8|0,0:0|2:0,0:0:0:0:
408,276,99803,1,0,0:0:0:0:
412,128,99975,1,2,0:0:0:0:
268,160,100146,1,10,0:0:0:0:
424,20,100318,6,0,P|424:64|416:104,1,80,2|0,0:0|2:0,0:0:0:0:
484,208,100660,2,0,P|462:246|435:276,1,80,2|8,0:0|0:0,0:0:0:0:
320,324,101003,1,0,0:0:0:0:
339,136,101175,1,2,0:0:0:0:
420,288,101346,1,0,0:0:0:0:
192,216,101518,2,0,L|284:224,1,80,12|0,0:2|2:0,0:0:0:0:
87,15,101860,6,0,P|28:66|28:144,1,160,6|8,0:0|0:0,0:0:0:0:
60,248,102375,1,0,0:0:0:0:
180,192,102546,1,0,0:0:0:0:
72,88,102718,2,0,P|24:64|-8:40,1,80,2|8,0:0|0:0,0:0:0:0:
248,72,103060,6,0,B|308:52|308:52|432:80,1,160,6|2,0:0|0:0,0:0:0:0:
404,216,103575,1,8,0:0:0:0:
488,100,103746,1,0,0:0:0:0:
280,212,103918,2,0,L|196:192,1,80,12|0,0:2|2:0,0:0:0:0:
296,360,104260,6,0,B|324:368|324:368|340:348|340:348|368:364|408:352|408:352|452:360,1,160,4|0,0:0|2:0,0:0:0:0:
442,358,104775,1,0,0:0:0:0:
280,240,104946,1,0,0:0:0:0:
484,184,105118,1,0,0:0:0:0:
376,260,105289,1,0,0:0:0:0:
380,80,105460,1,0,0:0:0:0:
504,284,105632,1,0,0:0:0:0:
292,312,105803,5,0,0:0:0:0:
264,312,105889,1,8,0:0:0:0:
240,296,105975,1,8,0:0:0:0:
212,296,106061,1,8,0:0:0:0:
188,280,106146,1,8,3:0:0:0:
217,384,106318,1,8,0:0:0:0:
284,132,106489,1,4,0:2:0:0:
104,336,106832,5,4,0:2:0:0:
140,132,107003,1,8,0:0:0:0:
216,208,107175,1,0,2:0:0:0:
0,240,107346,1,4,0:0:0:0:
272,304,107689,5,8,2:0:0:0:
316,372,107860,1,0,2:0:0:0:
344,268,108032,1,2,2:0:0:0:
236,180,108203,2,0,L|324:188,1,80,2|8,0:0|0:0,0:0:0:0:
368,32,108546,1,4,0:2:0:0:
368,32,108889,5,2,2:0:0:0:
408,144,109060,1,8,2:0:0:0:
444,68,109232,1,2,2:0:0:0:
192,112,109575,5,2,2:0:0:0:
280,208,109746,1,8,2:0:0:0:
200,240,109918,1,2,2:0:0:0:
240,344,110089,1,2,0:0:0:0:
4,292,110432,5,8,2:0:0:0:
80,252,110603,1,0,2:0:0:0:
20,372,110775,1,2,2:0:0:0:
172,308,110946,2,0,L|252:288,1,80,2|8,0:0|0:0,0:0:0:0:
152,144,111289,1,4,0:2:0:0:
152,144,111632,5,2,2:0:0:0:
344,28,111803,2,0,L|324:196,1,160,12|0,0:2|2:0,0:0:0:0:
232,264,112318,1,0,0:0:0:0:
76,64,112489,6,0,B|120:68|120:68|144:60|144:60|208:68,1,103.999995239258,12|0,0:2|2:0,0:0:0:0:
420,148,112832,6,0,P|420:228|362:283,1,160,4|8,0:2|0:0,0:0:0:0:
216,188,113346,2,0,P|144:208|104:212,1,80,2|0,0:2|2:0,0:0:0:0:
88,316,113689,1,0,0:0:0:0:
252,360,113860,2,0,L|272:268,1,80,8|0,0:0|2:0,0:0:0:0:
188,160,114203,6,0,P|104:172|20:176,1,160,2|8,0:2|0:0,0:0:0:0:
96,276,114718,2,0,P|80:320|76:364,1,80,2|0,0:2|2:0,0:0:0:0:
224,380,115060,1,0,0:0:0:0:
356,312,115232,2,0,L|448:320,1,80,8|0,0:0|2:0,0:0:0:0:
492,144,115575,5,2,0:2:0:0:
364,72,115746,1,0,2:0:0:0:
388,212,115918,1,8,0:0:0:0:
456,60,116089,1,0,2:0:0:0:
288,204,116260,5,2,0:2:0:0:
480,236,116432,1,0,0:0:0:0:
404,4,116603,1,8,0:0:0:0:
239,91,116775,6,0,P|168:59|93:80,1,160,4|0,0:2|0:0,0:0:0:0:
160,168,117289,1,8,0:0:0:0:
347,169,117460,2,0,P|356:130|368:92,1,80,2|0,0:2|2:0,0:0:0:0:
352,292,117803,1,0,0:0:0:0:
216,232,117975,2,0,L|116:252,1,80,12|0,0:2|2:0,0:0:0:0:
16,376,118318,5,4,0:0:0:0:
128,332,118489,1,0,2:0:0:0:
8,196,118660,1,8,0:0:0:0:
116,248,118832,1,0,2:0:0:0:
56,88,119003,2,0,P|100:28|192:16,1,160,2|8,0:2|0:0,0:0:0:0:
264,168,119518,6,0,L|336:212,1,80,2|0,2:0|0:0,0:0:0:0:
328,88,119860,2,0,L|400:132,1,80,2|8,2:0|0:0,0:0:0:0:
392,8,120203,1,2,2:0:0:0:
360,208,120375,1,2,0:2:0:0:
476,120,120546,1,2,2:0:0:0:
304,76,120718,2,0,L|216:84,1,80,8|0,0:0|2:0,0:0:0:0:
32,160,121060,6,0,L|120:168,1,80,4|0,0:0|2:0,0:0:0:0:
260,176,121403,1,8,0:0:0:0:
216,60,121575,1,2,2:0:0:0:
188,248,121746,1,2,0:2:0:0:
348,236,121918,2,0,P|392:248|432:244,1,80,2|8,2:0|0:0,0:0:0:0:
252,96,122260,6,0,P|212:116|184:144,1,80,2|0,2:0|0:0,0:0:0:0:
96,76,122603,1,2,2:0:0:0:
76,200,122775,1,8,0:0:0:0:
184,264,122946,2,0,P|222:272|262:269,1,80,2|0,2:0|0:0,0:0:0:0:
72,336,123289,1,4,2:0:0:0:
12,148,123460,2,0,L|20:60,1,80,12|0,0:2|2:0,0:0:0:0:
212,132,123803,6,0,P|296:164|352:216,1,160,4|8,0:0|0:0,0:0:0:0:
364,352,124318,2,0,P|324:364|284:360,1,80,2|0,0:2|2:0,0:0:0:0:
488,344,124660,1,0,0:0:0:0:
428,236,124832,2,0,L|436:148,1,80,8|0,0:0|2:0,0:0:0:0:
296,220,125175,6,0,P|320:144|316:64,1,160,2|8,0:2|0:0,0:0:0:0:
192,48,125689,2,0,P|208:92|212:136,1,80,2|0,0:2|2:0,0:0:0:0:
184,264,126032,1,0,0:0:0:0:
20,168,126203,2,0,L|112:176,1,80,8|0,0:0|2:0,0:0:0:0:
188,364,126546,6,0,P|147:357|112:335,1,80,2|0,0:2|2:0,0:0:0:0:
332,232,126889,2,0,P|362:257|382:291,1,80,8|0,0:0|0:0,0:0:0:0:
180,160,127232,2,0,P|165:120|167:79,1,80,4|0,2:0|0:0,0:0:0:0:
408,76,127575,2,0,P|401:117|378:152,1,80,12|0,0:2|0:0,0:0:0:0:
292,316,127918,1,12,0:2:0:0:
292,316,128260,6,2,B|272:272|272:272|284:236|284:236|260:196|260:196|260:148,1,180.000006866455,2|0,2:1|2:0,0:0:0:0:
260,148,128946,6,0,B|282:192|282:192|276:223,1,80,4|0,3:0|2:0,0:0:0:0:
112,220,129289,6,0,L|12:208,1,80,6|0,0:0|0:0,0:0:0:0:
120,360,129632,2,0,L|220:348,1,80,8|0,0:0|0:0,0:0:0:0:
352,264,129975,1,0,0:0:0:0:
184,128,130146,1,2,0:0:0:0:
248,264,130318,1,8,0:0:0:0:
416,180,130489,6,0,L|500:172,1,80,2|0,0:0|0:0,0:0:0:0:
416,180,130832,1,2,0:0:0:0:
416,180,131003,1,10,0:0:0:0:
416,180,131175,1,2,0:0:0:0:
416,180,131346,1,2,0:0:0:0:
416,180,131518,1,2,0:0:0:0:
416,180,131689,1,10,0:0:0:0:
416,180,131860,1,2,0:0:0:0:
407,340,132032,6,0,P|370:351|330:346,1,80,2|0,0:0|0:0,0:0:0:0:
156,332,132375,2,0,L|244:312,1,80,8|0,0:0|0:0,0:0:0:0:
364,272,132718,1,2,0:0:0:0:
136,312,132889,2,0,L|224:292,1,80,0|8,0:0|0:0,0:0:0:0:
312,76,133232,6,2,P|320:156|284:236,1,160,6|0,0:0|0:0,0:0:0:0:
312,76,133746,1,10,0:0:0:0:
278,224,133918,1,0,0:0:0:0:
324,80,134089,1,2,0:0:0:0:
266,220,134260,1,0,0:0:0:0:
336,84,134432,2,0,P|344:136|340:164,1,80,10|0,0:0|0:0,0:0:0:0:
128,228,134775,6,0,P|164:200|212:192,1,80,6|0,0:0|0:0,0:0:0:0:
68,364,135118,2,0,P|32:348|0:320,1,80,8|0,0:0|0:0,0:0:0:0:
4,184,135460,1,0,0:0:0:0:
200,88,135632,1,2,0:0:0:0:
200,272,135803,1,8,0:0:0:0:
104,120,135975,6,0,L|24:127,1,80,2|0,0:0|0:0,0:0:0:0:
104,120,136318,1,2,0:0:0:0:
104,120,136489,1,10,0:0:0:0:
104,120,136660,1,2,0:0:0:0:
104,120,136832,1,2,0:0:0:0:
104,120,137003,1,2,0:0:0:0:
104,120,137175,1,10,0:0:0:0:
108,124,137346,2,0,L|156:132,1,40,2|0,0:0|2:0,0:0:0:0:
220,132,137518,6,0,L|308:120,1,80,2|2,0:0|0:0,0:0:0:0:
176,264,137860,1,8,0:0:0:0:
364,216,138032,1,0,0:0:0:0:
224,48,138203,1,2,0:0:0:0:
260,204,138375,1,0,0:0:0:0:
380,36,138546,1,8,0:0:0:0:
304,280,138718,6,2,P|378:300|443:255,1,160,6|2,0:0|0:0,0:0:0:0:
488,76,139232,1,10,0:0:0:0:
364,216,139403,1,2,0:0:0:0:
280,84,139575,1,8,3:0:0:0:
144,184,139746,1,8,0:0:0:0:
172,188,139832,1,8,0:0:0:0:
200,192,139918,1,8,0:0:0:0:
156,320,140089,1,8,3:0:0:0:
64,120,140260,6,0,L|80:36,1,80,6|0,0:0|0:0,0:0:0:0:
4,224,140603,2,0,L|20:308,1,80,10|0,0:0|0:0,0:0:0:0:
116,384,140946,1,0,0:0:0:0:
256,224,141118,1,2,0:0:0:0:
104,168,141289,1,8,0:0:0:0:
248,356,141460,6,0,L|328:336,1,80,2|0,0:0|0:0,0:0:0:0:
248,356,141803,1,2,0:0:0:0:
248,356,141975,1,10,0:0:0:0:
248,356,142146,1,2,0:0:0:0:
248,356,142318,1,2,0:0:0:0:
248,356,142489,1,2,0:0:0:0:
248,356,142660,1,10,0:0:0:0:
248,356,142832,1,2,0:0:0:0:
127,296,143003,6,0,P|91:311|51:311,1,80,2|0,0:0|0:0,0:0:0:0:
260,236,143346,2,0,P|300:252|348:248,1,80,8|0,0:0|0:0,0:0:0:0:
74,224,143689,1,2,0:0:0:0:
248,260,143860,2,0,P|288:276|336:272,1,80,0|8,0:0|0:0,0:0:0:0:
436,68,144203,6,0,L|456:228,1,160,6|0,0:0|0:0,0:0:0:0:
412,72,144718,2,0,L|417:111,1,40,10|8,0:0|0:0,0:0:0:0:
431,230,144889,1,0,0:0:0:0:
388,76,145060,2,0,L|393:115,1,40,8|8,3:0|3:0,0:0:0:0:
407,234,145232,1,4,3:0:0:0:
364,80,145403,2,0,L|369:119,1,40,4|4,3:0|3:0,0:0:0:0:
383,238,145575,1,4,3:0:0:0:
192,164,145746,5,6,0:0:0:0:
372,140,145918,1,0,0:0:0:0:
244,284,146089,1,8,0:0:0:0:
284,92,146260,2,0,L|272:12,1,80,2|8,0:0|0:0,0:0:0:0:
284,204,146603,5,0,0:0:0:0:
144,260,146775,1,8,0:0:0:0:
40,92,146946,2,0,L|148:100,1,80,2|8,0:0|0:0,0:0:0:0:
424,104,147289,5,2,0:0:0:0:
488,244,147460,1,8,0:0:0:0:
408,376,147632,2,0,L|300:384,1,80,2|8,0:0|0:0,0:0:0:0:
156,352,147975,5,2,0:0:0:0:
200,180,148146,1,14,0:0:0:0:
244,8,148318,1,2,0:0:0:0:
304,174,148489,5,4,0:0:0:0:
131,144,148660,1,0,0:0:0:0:
244,8,148831,1,10,0:0:0:0:
305,179,149003,5,0,0:0:0:0:
137,129,149174,1,0,0:0:0:0:
266,7,149345,1,2,0:0:0:0:
306,186,149518,5,8,0:0:0:0:
146,115,149689,1,0,0:0:0:0:
288,10,149860,1,6,0:0:0:0:
307,192,150032,5,0,0:0:0:0:
156,102,150203,1,8,3:0:0:0:
310,15,150374,1,10,0:0:0:0:
440,112,150546,5,10,0:0:0:0:
483,252,150718,1,8,3:0:0:0:
412,360,150889,1,4,3:0:0:0:
300,379,151060,1,4,3:0:0:0:
216,328,151232,6,0,P|148:324|68:332,1,120.000004577637,4|0,0:0|2:0,0:0:0:0:
344,268,151918,2,0,P|403:272|463:268,1,120.000004577637,12|0,2:0|2:0,0:0:0:0:
500,184,152432,1,0,2:0:0:0:
464,100,152603,5,2,0:2:0:0:
188,152,152946,1,4,0:2:0:0:
280,372,153289,1,8,2:0:0:0:
327,136,153632,2,0,P|320:106|307:80,1,60.0000022888184,0|0,2:0|2:0,0:0:0:0:
176,244,153975,5,4,0:2:0:0:
464,240,154318,2,0,P|408:268|364:332,1,120.000004577637,4|8,0:0|2:0,0:0:0:0:
304,376,154832,1,0,2:0:0:0:
216,344,155003,6,0,P|144:348|80:372,1,120.000004577637,4|0,0:0|2:0,0:0:0:0:
112,104,155689,1,4,0:2:0:0:
272,244,156032,1,8,2:0:0:0:
463,152,156375,2,0,P|468:122|465:92,1,60.0000022888184,0|0,2:0|2:0,0:0:0:0:
376,120,156718,6,0,L|316:112,1,60.0000022888184,4|0,0:0|2:0,0:0:0:0:
308,204,157060,2,0,L|368:212,1,60.0000022888184,0|0,0:0|2:0,0:0:0:0:
360,304,157403,1,8,2:0:0:0:
268,296,157575,2,0,P|216:312|176:372,1,120.000004577637,0|0,2:0|2:0,0:0:0:0:
88,356,158089,5,0,0:0:0:0:
120,272,158260,1,8,2:0:0:0:
80,192,158432,1,4,0:2:0:0:
196,24,158775,1,8,2:0:0:0:
164,108,158946,1,8,2:0:0:0:
204,188,159118,2,0,L|264:196,1,60.0000022888184,0|0,3:0|2:0,0:0:0:0:
444,176,159460,5,4,0:2:0:0:
348,368,159803,2,0,P|348:316|360:248,1,120.000004577637,4|8,0:0|0:0,0:0:0:0:
456,48,160489,2,0,P|372:68|320:56,1,120.000004577637,4|0,0:2|2:0,0:0:0:0:
256,28,161003,1,8,2:0:0:0:
224,112,161175,1,8,2:0:0:0:
344,220,161346,5,8,3:0:0:0:
248,292,161518,1,8,2:0:0:0:
156,284,161689,1,8,2:0:0:0:
92,184,161860,1,8,2:0:0:0:
0,192,162031,1,8,2:0:0:0:
16,344,162203,6,0,P|80:372|136:376,1,120.000004577637,4|0,0:0|2:0,0:0:0:0:
264,168,162889,2,0,P|292:104|296:48,1,120.000004577637,12|0,0:2|2:0,0:0:0:0:
332,140,163403,1,0,2:0:0:0:
424,120,163575,5,2,0:2:0:0:
352,336,163918,1,4,0:2:0:0:
124,256,164260,2,0,L|0:272,1,120.000004577637,8|0,2:0|2:0,0:0:0:0:
48,192,164775,1,0,2:0:0:0:
84,336,164946,5,4,0:2:0:0:
124,96,165289,2,0,P|168:40|224:24,1,120.000004577637,4|8,0:0|2:0,0:0:0:0:
296,60,165803,1,0,2:0:0:0:
380,96,165975,6,0,P|444:100|512:88,1,120.000004577637,4|0,0:0|2:0,0:0:0:0:
228,224,166660,1,4,0:2:0:0:
368,16,167003,1,8,2:0:0:0:
488,236,167346,1,0,2:0:0:0:
496,328,167518,1,0,2:0:0:0:
413,289,167689,6,0,L|288:284,1,120.000004577637,4|0,0:0|2:0,0:0:0:0:
48,348,168375,2,0,P|120:332|176:300,1,120.000004577637,8|0,2:0|2:0,0:0:0:0:
108,236,168889,1,2,2:0:0:0:
184,188,169060,1,0,0:0:0:0:
131,113,169232,1,2,2:0:0:0:
276,196,169403,5,4,0:2:0:0:
16,264,169746,1,8,2:0:0:0:
56,79,170089,2,0,P|72:55|96:37,1,60.0000022888184,0|0,2:0|2:0,0:0:0:0:
88,184,170432,6,0,P|112:238|118:298,1,120.000004577637,2|0,0:2|2:0,0:0:0:0:
356,280,171118,2,0,P|318:326|297:382,1,120.000004577637,8|8,2:0|2:0,0:0:0:0:
363,183,171632,6,0,L|204:172,1,160,4|8,0:2|0:0,0:0:0:0:
200,352,172146,1,8,0:0:0:0:
368,296,172318,1,8,3:0:0:0:
292,136,172489,1,8,3:0:0:0:
456,216,172660,1,8,0:0:0:0:
484,208,172746,1,8,0:0:0:0:
512,200,172832,1,0,0:0:0:0:
440,372,173003,1,8,0:0:0:0:
284,268,173175,6,0,P|250:246|212:234,1,80,4|0,0:0|2:0,0:0:0:0:
24,340,173518,2,0,P|64:324|96:296,1,80,8|0,0:0|0:0,0:0:0:0:
100,128,173860,2,0,L|0:108,1,80,4|0,2:0|0:0,0:0:0:0:
248,120,174203,2,0,L|348:100,1,80,12|0,0:2|2:0,0:0:0:0:
508,12,174546,6,0,P|484:100|504:176,1,160,4|12,0:2|0:2,0:0:0:0:
456,280,175060,1,0,0:0:0:0:
360,204,175232,2,0,P|312:204|268:224,1,80,4|0,2:0|0:0,0:0:0:0:
112,268,175575,2,0,P|120:224|112:184,1,80,12|0,0:2|2:0,0:0:0:0:
232,4,175918,6,0,L|204:176,1,160,4|12,0:2|0:2,0:0:0:0:
216,284,176432,1,0,0:0:0:0:
336,252,176603,2,0,P|384:260|424:252,1,80,4|0,2:0|0:0,0:0:0:0:
252,364,176946,2,0,P|212:368|173:360,1,80,12|0,2:2|2:0,0:0:0:0:
16,308,177289,5,4,0:3:0:0:
220,228,177460,1,8,0:0:0:0:
152,348,177632,1,8,0:0:0:0:
88,160,177803,2,0,P|92:108|104:64,1,80,4|8,0:2|0:0,0:0:0:0:
348,164,178146,5,8,0:0:0:0:
358,189,178231,1,8,0:0:0:0:
364,217,178317,1,8,0:0:0:0:
363,245,178403,1,8,0:0:0:0:
357,272,178488,1,8,0:0:0:0:
345,297,178574,1,8,0:0:0:0:
329,321,178660,1,4,0:2:0:0:
292,20,191003,5,4,0:0:0:0:
284,240,191346,1,4,3:0:0:0:
368,204,191518,1,8,3:0:0:0:
272,272,191689,1,4,3:0:0:0:
260,304,192032,5,4,3:0:0:0:
248,336,192375,5,4,3:0:0:0:
456,264,192718,1,4,3:0:0:0:
436,176,192889,1,8,3:0:0:0:
344,296,193060,1,4,3:0:0:0:
360,324,193231,1,4,3:0:0:0:
376,352,193403,1,4,3:0:0:0:
392,380,193575,1,4,3:0:0:0:
236,368,193746,5,2,0:2:0:0:
16,368,194089,1,4,3:0:0:0:
60,288,194260,1,8,3:0:0:0:
156,360,194432,1,4,3:0:0:0:
124,368,194775,5,4,3:0:0:0:
92,376,195118,5,4,3:0:0:0:
276,256,195460,1,4,3:0:0:0:
244,168,195632,1,8,3:0:0:0:
160,252,195803,1,4,3:0:0:0:
216,324,195975,1,4,3:0:0:0:
96,304,196146,1,8,3:0:0:0:
128,152,196318,1,8,2:0:0:0:
292,200,196489,5,4,0:0:0:0:
440,364,196832,1,4,3:0:0:0:
500,296,197003,1,8,3:0:0:0:
380,312,197175,1,4,3:0:0:0:
356,336,197518,5,4,3:0:0:0:
332,360,197860,5,4,3:0:0:0:
376,148,198203,1,4,3:0:0:0:
296,104,198375,1,8,3:0:0:0:
328,220,198546,1,4,3:0:0:0:
104,382,198889,1,4,3:0:0:0:
104,382,199232,6,0,P|160:330|260:306,1,180.000006866455,4|0,0:0|2:0,0:0:0:0:
448,298,199918,2,0,P|392:246|292:222,1,180.000006866455,4|0,0:0|2:0,0:0:0:0:
108,244,200603,5,8,0:0:0:0:
328,137,200775,1,8,0:0:0:0:
48,108,200946,1,8,0:0:0:0:
388,1,201118,1,12,0:2:0:0:
388,1,201975,6,0,P|416:84|400:164,1,160,4|8,0:2|0:0,0:0:0:0:
239,207,202489,2,0,P|203:192|173:163,1,80,2|0,0:2|2:0,0:0:0:0:
364,236,202832,1,0,0:0:0:0:
232,296,203003,1,8,0:0:0:0:
256,112,203175,1,0,2:0:0:0:
388,136,203346,6,0,P|436:152|476:148,1,80,2|0,0:2|2:0,0:0:0:0:
348,0,203689,1,8,0:0:0:0:
272,152,203860,2,0,P|292:224|264:304,1,160,2|0,0:2|0:0,0:0:0:0:
120,352,204375,1,8,0:0:0:0:
32,176,204546,1,0,2:0:0:0:
32,176,204718,6,0,L|132:184,1,80,2|0,0:2|2:0,0:0:0:0:
244,228,205060,1,8,0:0:0:0:
276,48,205232,2,0,P|232:76|208:100,1,80,2|0,0:2|2:0,0:0:0:0:
160,268,205575,1,0,0:0:0:0:
256,344,205746,1,8,0:0:0:0:
372,308,205918,1,0,2:0:0:0:
491,280,206089,6,0,P|495:316|480:365,1,80,2|0,0:2|2:0,0:0:0:0:
340,212,206432,1,8,0:0:0:0:
432,132,206603,2,0,L|512:144,1,80,2|0,0:2|2:0,0:0:0:0:
408,312,206946,1,0,0:0:0:0:
267,151,207118,2,0,P|228:153|192:171,1,80,12|0,0:2|2:0,0:0:0:0:
0,332,207460,6,0,P|44:352|96:348,1,80,4|0,0:0|2:0,0:0:0:0:
293,297,207803,2,0,P|273:261|245:229,1,80,8|2,0:0|0:2,0:0:0:0:
80,192,208146,2,0,P|100:152|104:100,1,80,4|0,2:0|0:0,0:0:0:0:
236,8,208489,2,0,P|272:24|316:16,1,80,8|0,0:0|2:0,0:0:0:0:
484,132,208817,6,0,P|407:117|340:157,1,160,2|8,0:2|0:0,0:0:0:0:
280,262,209331,1,2,0:2:0:0:
432,258,209502,1,4,2:0:0:0:
376,370,209674,1,0,0:0:0:0:
184,303,209845,2,0,P|180:264|181:224,1,80,8|0,0:0|2:0,0:0:0:0:
16,296,210188,6,0,P|28:356|28:380,1,80,2|0,0:2|2:0,0:0:0:0:
200,328,210531,1,8,0:0:0:0:
88,220,210702,1,0,0:0:0:0:
240,136,210874,2,0,P|288:140|332:140,1,80,4|0,2:0|0:0,0:0:0:0:
80,32,211217,2,0,P|36:52|16:84,1,80,12|0,0:2|2:0,0:0:0:0:
108,312,211570,5,4,0:0:0:0:
172,184,211741,1,8,0:0:0:0:
164,156,211827,1,8,0:0:0:0:
156,128,211912,1,8,0:0:0:0:
276,276,212084,1,4,0:0:0:0:
418,154,212255,1,8,0:0:0:0:
443,164,212340,1,8,0:0:0:0:
465,182,212426,1,8,0:0:0:0:
479,206,212512,1,8,0:0:0:0:
486,233,212597,1,8,0:0:0:0:
483,260,212683,1,8,0:0:0:0:
472,286,212769,1,8,0:0:0:0:
454,307,212855,1,8,0:0:0:0:
429,321,212941,6,0,L|266:273,1,160,4|8,0:2|0:0,0:0:0:0:
244,128,213455,2,0,P|252:80|268:40,1,80,2|0,0:2|2:0,0:0:0:0:
108,112,213798,1,2,0:2:0:0:
156,224,213970,2,0,P|164:276|164:320,1,80,8|0,0:0|2:0,0:0:0:0:
308,260,214312,6,0,P|388:252|472:232,1,160,2|8,0:2|0:0,0:0:0:0:
444,368,214827,2,0,P|396:380|340:380,1,80,2|0,0:2|2:0,0:0:0:0:
244,332,215170,1,0,0:0:0:0:
388,228,215341,1,8,0:0:0:0:
268,88,215512,1,0,2:0:0:0:
268,88,215684,6,0,P|252:140|248:192,1,80,2|0,0:2|2:0,0:0:0:0:
340,308,216027,1,8,0:0:0:0:
408,152,216198,1,2,2:0:0:0:
196,248,216370,1,4,0:2:0:0:
276,124,216541,1,0,0:0:0:0:
428,256,216712,1,8,0:0:0:0:
243,340,216884,6,0,P|166:346|104:297,1,160,4|0,0:0|0:0,0:0:0:0:
296,212,217398,2,0,P|340:188|388:188,1,80,12|0,0:2|0:0,0:0:0:0:
191,264,217741,1,4,2:0:0:0:
244,92,217912,1,0,0:0:0:0:
359,304,218084,2,0,P|323:320|284:323,1,80,12|0,0:2|2:0,0:0:0:0:
24,312,218427,6,0,L|120:328,1,80,4|0,0:0|2:0,0:0:0:0:
256,324,218770,1,8,0:0:0:0:
96,204,218941,2,0,P|176:232|244:200,1,160,2|0,0:2|0:0,0:0:0:0:
398,126,219455,1,8,0:0:0:0:
480,220,219627,1,0,2:0:0:0:
479,344,219798,6,0,P|453:373|415:384,1,80,2|0,0:2|2:0,0:0:0:0:
272,356,220141,1,8,0:0:0:0:
392,276,220312,2,0,P|372:192|408:116,1,160,2|0,0:2|0:0,0:0:0:0:
232,16,220827,2,0,L|192:104,1,80,12|0,0:2|2:0,0:0:0:0:
32,256,221170,6,0,P|69:268|109:262,1,80,4|0,0:0|2:0,0:0:0:0:
96,56,221512,2,0,L|8:24,1,80,8|2,0:0|2:0,0:0:0:0:
292,204,221855,1,4,0:2:0:0:
78,168,222027,1,0,0:0:0:0:
208,36,222198,1,8,0:0:0:0:
280,324,222370,6,0,L|120:344,1,160,4|0,0:2|0:0,0:0:0:0:
192,124,222884,1,12,0:2:0:0:
396,240,223055,1,8,0:0:0:0:
404,212,223141,1,8,0:0:0:0:
412,184,223227,1,8,3:0:0:0:
292,192,223398,1,8,0:0:0:0:
192,124,223570,1,8,0:0:0:0:
72,132,223741,1,8,0:0:0:0:
153,315,223912,6,0,P|176:282|184:244,1,80,6|0,0:0|2:0,0:0:0:0:
128,64,224255,1,8,0:0:0:0:
276,64,224427,2,0,P|320:60|368:52,1,80,2|0,2:1|0:0,0:0:0:0:
468,8,224770,1,0,2:0:0:0:
512,124,224941,1,8,0:0:0:0:
468,240,225112,6,0,P|463:281|477:319,1,80,2|0,2:1|0:0,0:0:0:0:
363,224,225455,2,0,P|332:248|315:283,1,80,2|8,2:1|0:0,0:0:0:0:
420,116,225798,1,2,2:1:0:0:
301,139,225970,2,0,P|259:134|221:148,1,80,2|0,0:0|2:0,0:0:0:0:
124,264,226312,1,8,0:0:0:0:
152,88,226484,1,2,2:1:0:0:
152,88,226655,6,0,L|160:8,1,80,6|0,0:0|2:0,0:0:0:0:
32,108,226998,1,8,0:0:0:0:
132,180,227170,1,2,2:1:0:0:
244,124,227341,2,0,P|340:128|400:164,1,160,2|8,0:0|0:0,0:0:0:0:
444,296,227855,6,0,P|439:335|420:370,1,80,2|0,2:1|0:0,0:0:0:0:
320,300,228198,2,0,P|280:328|243:336,1,80,2|8,2:1|0:0,0:0:0:0:
229,215,228541,2,0,P|180:207|148:187,1,80,2|0,2:1|0:0,0:0:0:0:
144,320,228884,1,12,0:2:0:0:
224,90,229055,1,12,0:2:0:0:
4,112,229227,1,2,2:1:0:0:
4,112,229398,6,0,L|88:120,1,80,6|0,0:0|2:0,0:0:0:0:
188,224,229741,1,8,0:0:0:0:
24,336,229912,2,0,P|32:288|52:244,1,80,2|0,2:1|0:0,0:0:0:0:
112,128,230255,1,0,2:0:0:0:
232,152,230427,1,8,0:0:0:0:
324,232,230598,6,0,P|352:272|356:304,1,80,2|0,2:1|0:0,0:0:0:0:
416,167,230941,2,0,P|389:138|353:123,1,80,2|8,2:1|0:0,0:0:0:0:
324,14,231284,2,0,P|363:8|400:21,1,80,2|0,2:1|0:0,0:0:0:0:
496,96,231627,1,0,2:0:0:0:
324,232,231798,2,0,L|216:216,1,80,12|0,0:2|2:0,0:0:0:0:
24,356,232141,6,0,P|96:320|180:312,1,160,4|8,0:2|0:0,0:0:0:0:
120,200,232655,2,0,P|76:176|44:144,1,80,2|0,0:2|2:0,0:0:0:0:
92,16,232998,1,2,0:2:0:0:
236,116,233170,1,8,0:0:0:0:
392,40,233341,1,2,2:0:0:0:
392,40,233427,1,0,2:0:0:0:
392,40,233512,6,0,P|412:116|391:192,1,160,2|8,0:2|0:0,0:0:0:0:
432,308,234027,2,0,P|363:347|285:347,1,160,2|0,0:2|0:0,0:0:0:0:
164,264,234541,1,8,0:0:0:0:
312,116,234712,1,2,2:0:0:0:
312,116,234798,1,0,2:0:0:0:
312,116,234884,6,0,L|144:96,1,160,4|8,0:2|0:0,0:0:0:0:
276,236,235398,1,0,0:0:0:0:
272,8,235570,1,8,0:0:0:0:
260,192,235741,1,0,0:0:0:0:
408,68,235912,1,8,0:0:0:0:
244,148,236084,1,0,0:0:0:0:
392,216,236255,6,0,B|352:344|212:208|212:276|171:360|211:380|272:400|348:376,1,400,4|0,0:2|2:0,0:0:0:0:
424,352,239011,5,8,2:0:0:0:
448,336,239097,1,8,3:0:0:0:
472,320,239183,2,0,L|512:324,1,40,4|4,3:0|3:0,0:0:0:0:
416,256,239354,5,8,2:0:0:0:
440,240,239440,1,8,3:0:0:0:
464,224,239526,2,0,L|504:228,1,40,4|4,3:0|3:0,0:0:0:0:
408,160,239697,5,8,2:0:0:0:
432,144,239783,1,8,3:0:0:0:
456,128,239869,2,0,L|496:132,1,40,4|4,3:0|3:0,0:0:0:0:
400,64,240039,5,8,2:0:0:0:
424,48,240125,1,8,3:0:0:0:
448,32,240211,2,0,L|488:36,1,40,4|4,3:0|3:0,0:0:0:0:
376,80,240383,6,0,L|284:56,1,80,6|0,0:0|2:0,0:0:0:0:
212,180,240726,2,0,L|236:264,1,80,8|0,0:0|2:0,0:0:0:0:
168,360,241069,1,0,0:0:0:0:
52,228,241240,1,2,0:0:0:0:
212,152,241412,1,8,0:0:0:0:
136,24,241583,6,0,P|92:16|44:24,1,80,2|2,0:0|2:0,0:0:0:0:
284,80,241926,2,0,P|323:83|362:75,1,80,2|8,0:0|0:0,0:0:0:0:
300,212,242269,1,0,0:0:0:0:
132,140,242440,2,0,P|92:143|53:135,1,80,2|0,0:0|0:0,0:0:0:0:
84,284,242783,2,0,L|68:372,1,80,8|2,0:0|2:0,0:0:0:0:
227,245,243126,6,0,P|291:217|323:197,1,80,2|0,0:0|2:0,0:0:0:0:
440,296,243469,2,0,P|432:348|440:396,1,80,8|0,0:0|2:0,0:0:0:0:
292,344,243812,1,0,0:0:0:0:
416,172,243983,2,0,L|500:184,1,80,2|8,0:0|0:0,0:0:0:0:
348,12,244326,6,0,P|332:56|340:96,1,80,2|2,0:0|2:0,0:0:0:0:
266,185,244669,2,0,P|271:224|294:256,1,80,2|8,0:0|0:0,0:0:0:0:
388,176,245012,1,0,0:0:0:0:
184,252,245183,1,2,0:0:0:0:
308,92,245354,1,0,0:0:0:0:
124,12,245526,2,0,L|32:28,1,80,12|0,0:2|2:0,0:0:0:0:
41,248,245869,6,0,P|111:280|183:251,1,160,6|8,0:0|0:0,0:0:0:0:
252,148,246383,1,0,0:0:0:0:
152,84,246554,1,0,0:0:0:0:
296,24,246726,2,0,P|330:5|372:2,1,80,2|8,0:0|0:0,0:0:0:0:
472,208,247069,6,0,B|493:238|493:238|452:220|452:220|371:220,1,160,4|0,0:2|0:0,0:0:0:0:
252,220,247583,1,8,0:0:0:0:
356,85,247754,1,0,0:0:0:0:
436,304,247926,2,0,L|416:384,1,80,12|0,0:2|2:0,0:0:0:0:
244,344,248269,6,0,B|200:352|200:352|152:332|152:332|64:344,1,160,4|0,0:0|2:0,0:0:0:0:
89,340,248783,1,0,0:0:0:0:
208,264,248954,1,0,0:0:0:0:
200,384,249126,1,0,0:0:0:0:
64,340,249297,1,0,0:0:0:0:
120,220,249469,1,0,0:0:0:0:
232,256,249640,1,0,0:0:0:0:
176,376,249812,1,0,0:0:0:0:
108,196,249983,5,0,0:0:0:0:
256,248,250154,1,0,0:0:0:0:
152,368,250326,1,0,0:0:0:0:
96,172,250497,1,0,0:0:0:0:
280,240,250669,1,0,0:0:0:0:
200,384,250840,1,0,0:0:0:0:
16,316,251012,1,0,0:0:0:0:
84,148,251183,5,2,0:0:0:0:
372,144,251354,1,2,0:0:0:0:
176,240,251526,1,2,0:0:0:0:
216,96,251697,1,2,0:0:0:0:
412,288,251869,1,0,0:0:0:0:
112,168,252040,5,2,0:0:0:0:
308,72,252212,1,2,0:0:0:0:
152,24,252383,1,2,0:0:0:0:
348,216,252555,1,0,0:0:0:0:
244,0,252726,5,6,0:0:0:0:
96,248,252897,1,10,0:0:0:0:
388,128,253069,1,10,0:0:0:0:
64,76,253240,1,4,0:2:0:0:
64,76,253583,5,10,0:0:0:0:
388,128,253754,1,10,0:0:0:0:
204,296,253926,1,12,0:2:0:0:
