osu file format v14

[General]
AudioFilename: audio.mp3
AudioLeadIn: 0
PreviewTime: 74156
Countdown: 0
SampleSet: Soft
StackLeniency: 0.7
Mode: 0
LetterboxInBreaks: 0
WidescreenStoryboard: 1

[Editor]
DistanceSpacing: 1.5
BeatDivisor: 4
GridSize: 32
TimelineZoom: 3.5

[Metadata]
Title:Kimi no Tonari ni Itai kara
TitleUnicode:君の隣にいたいから
Artist:SHISHAMO
ArtistUnicode:SHISHAMO
Creator:Sarawatlism
Version:frozz's Insane
Source:
Tags:jp Japanese pop rock jpop j-pop jrock j-rock asako miyazaki 宮崎朝子 misaki yoshikawa 吉川美冴貴 aya matsuoka 松岡彩 [_lost_] conner c_o_n_n_e_r frozz fzl_17
BeatmapID:2664853
BeatmapSetID:1276244

[Difficulty]
HPDrainRate:6
CircleSize:4
OverallDifficulty:7
ApproachRate:9
SliderMultiplier:1.6
SliderTickRate:1

[Events]
//Background and Video events
0,0,"BG.jpg",0,0
//Break Periods
//Storyboard Layer 0 (Background)
//Storyboard Layer 1 (Fail)
//Storyboard Layer 2 (Pass)
//Storyboard Layer 3 (Foreground)
//Storyboard Layer 4 (Overlay)
//Storyboard Sound Samples

[TimingPoints]
520,361.44578313253,4,2,1,80,1,0
2959,-100,4,2,1,5,0,0
3042,361.44578313253,4,2,1,70,1,0
3042,-76.9230769230769,4,2,1,70,0,0
3764,-90.9090909090909,4,2,1,70,0,0
4307,-100,4,2,1,70,0,0
5933,-76.9230769230769,4,2,1,70,0,0
6656,-90.9090909090909,4,2,1,70,0,0
7198,-100,4,2,1,70,0,0
8825,-76.9230769230769,4,2,1,70,0,0
9638,-76.9230769230769,4,2,1,5,0,0
9728,-76.9230769230769,4,2,1,70,0,0
9909,-90.9090909090909,4,2,1,70,0,0
10270,-100,4,2,1,70,0,0
11716,-76.9230769230769,4,2,1,70,0,0
12529,-76.9230769230769,4,2,1,5,0,0
12620,-76.9230769230769,4,2,1,70,0,0
12801,-90.9090909090909,4,2,1,70,0,0
13162,-100,4,2,1,70,0,0
14608,-76.9230769230769,4,2,1,70,0,0
15331,-90.9090909090909,4,2,1,70,0,0
15873,-100,4,2,1,70,0,0
17499,-76.9230769230769,4,2,1,70,0,0
18222,-90.9090909090909,4,2,1,70,0,0
18764,-100,4,2,1,70,0,0
20391,-133.333333333333,4,2,1,70,0,0
21837,-76.9230769230769,4,2,1,70,0,0
22379,-100,4,2,1,70,0,0
22921,-125,4,2,1,70,0,0
23282,-200,4,2,1,70,0,0
24367,-90.9090909090909,4,2,1,70,0,0
24638,-90.9090909090909,4,2,1,5,0,0
24728,-76.9230769230769,4,2,1,70,0,0
25270,-100,4,2,1,70,0,0
25813,-76.9230769230769,4,2,1,70,0,0
26174,-125,4,2,1,60,0,0
47861,-83.3333333333333,4,2,1,70,0,0
48132,-83.3333333333333,4,2,1,5,0,0
48222,-83.3333333333333,4,2,1,70,0,0
48584,-111.111111111111,4,2,1,70,0,0
49307,-142.857142857143,4,2,1,55,0,0
66656,-142.857142857143,4,2,1,60,0,0
68463,-125,4,2,1,60,0,0
68825,-125,4,2,1,60,0,0
69548,-111.111111111111,4,2,1,70,0,0
72439,-90.9090909090908,4,2,1,70,0,0
72710,-90.9090909090908,4,2,1,5,0,0
72801,-90.9090909090908,4,2,1,70,0,0
75331,-90.9090909090908,4,2,1,85,0,1
76415,-76.9230769230769,4,2,1,85,0,1
76686,-76.9230769230769,4,2,1,5,0,1
76776,-76.9230769230769,4,2,1,85,0,1
78945,-90.9090909090909,4,2,1,85,0,1
79307,-76.9230769230769,4,2,1,85,0,1
79668,-66.6666666666667,4,2,1,85,0,1
79939,-66.6666666666667,4,2,1,5,0,1
80029,-76.9230769230769,4,2,1,85,0,1
80301,-76.9230769230769,4,2,1,5,0,1
80391,-62.5,4,2,1,85,0,1
80662,-62.5,4,2,1,5,0,1
80752,-52.6315789473684,4,2,1,85,0,1
81023,-52.6315789473684,4,2,1,5,0,1
81114,-76.9230769230769,4,2,1,85,0,1
81837,-90.9090909090909,4,2,1,85,0,1
82560,-76.9230769230769,4,2,1,85,0,1
83102,-90.9090909090909,4,2,1,85,0,1
84005,-76.9230769230769,4,2,1,85,0,1
84548,-90.9090909090909,4,2,1,85,0,1
85451,-66.6666666666667,4,2,1,85,0,1
85722,-66.6666666666667,4,2,1,5,0,1
85813,-52.6315789473684,4,2,1,85,0,1
86084,-52.6315789473684,4,2,1,5,0,1
86174,-66.6666666666667,4,2,1,85,0,1
86445,-66.6666666666667,4,2,1,5,0,1
86535,-66.6666666666667,4,2,1,85,0,1
86897,-90.9090909090909,4,2,1,85,0,1
87620,-66.6666666666667,4,2,1,85,0,1
87981,-90.9090909090909,4,2,1,85,0,1
88343,-76.9230769230769,4,2,1,85,0,1
89066,-66.6666666666667,4,2,1,85,0,1
89427,-76.9230769230769,4,2,1,85,0,1
89698,-76.9230769230769,4,2,1,5,0,1
89788,-66.6666666666667,4,2,1,85,0,1
90331,-200,4,2,1,85,0,1
91054,-76.9230769230769,4,2,1,85,0,1
91776,-66.6666666666667,4,2,1,85,0,1
92680,-90.9090909090909,4,2,1,85,0,1
94126,-76.9230769230769,4,2,1,85,0,1
94849,-66.6666666666667,4,2,1,85,0,1
95120,-66.6666666666667,4,2,1,5,0,1
95210,-66.6666666666667,4,2,1,85,0,1
96385,-66.6666666666667,4,2,1,5,0,1
96475,-66.6666666666667,4,2,1,85,0,1
98463,-100,4,2,1,70,0,0
102168,-100,4,2,1,5,0,0
102258,-100,4,2,1,70,0,0
103614,-100,4,2,1,5,0,0
103704,-100,4,2,1,70,0,0
104246,-83.3333333333333,4,2,1,85,0,0
104788,-111.111111111111,4,2,1,85,0,0
106054,-142.857142857143,4,2,1,85,0,0
106776,-100,4,2,1,85,0,0
107138,-111.111111111111,4,2,1,65,0,0
109126,-83.3333333333333,4,2,1,65,0,0
109668,-100,4,2,1,65,0,0
110029,-111.111111111111,4,2,1,65,0,0
112017,-83.3333333333333,4,2,1,65,0,0
112560,-100,4,2,1,65,0,0
112921,-111.111111111111,4,2,1,65,0,0
114909,-83.3333333333333,4,2,1,65,0,0
115451,-100,4,2,1,65,0,0
115813,-200,4,2,1,65,0,0
117620,-100,4,2,1,65,0,0
118704,-100,4,2,1,75,0,0
118975,-100,4,2,1,5,0,0
119066,-100,4,2,1,75,0,0
121867,-100,4,2,1,5,0,0
121957,-100,4,2,1,75,0,0
130541,-100,4,2,1,5,0,0
130632,-100,4,2,1,75,0,0
132529,-100,4,2,1,5,0,0
132620,-100,4,2,1,75,0,0
135421,-100,4,2,1,5,0,0
135511,-100,4,2,1,75,0,0
136325,-100,4,2,1,5,0,0
136415,-100,4,2,1,75,0,0
138313,-100,4,2,1,5,0,0
138403,-100,4,2,1,75,0,0
145451,-142.857142857143,4,2,1,75,0,0
146174,-166.666666666667,4,2,1,75,0,0
147620,-250.000000000001,4,2,1,50,0,0
158825,-250.000000000001,4,2,2,50,0,0
159186,-200.000000000001,4,2,1,50,0,0
167861,-200,4,2,1,50,0,0
168222,-166.666666666667,4,2,1,52,0,0
168584,-142.857142857143,4,2,1,54,0,0
169307,-111.111111111111,4,2,1,56,0,0
169668,-90.9090909090909,4,2,1,58,0,0
170029,-100,4,2,1,60,0,0
170752,-142.857142857143,4,2,1,55,0,0
188102,-125,4,2,1,65,0,0
190993,-100,4,2,1,65,0,0
193885,-83.3333333333333,4,2,1,75,0,0
194427,-111.111111111111,4,2,1,75,0,0
194969,-166.666666666666,4,2,1,75,0,0
195331,-100,4,2,1,75,0,0
197499,-142.857142857143,4,2,1,75,0,0
198041,-142.857142857143,4,2,1,5,0,0
198222,-1000,4,2,1,40,0,0
209788,-166.666666666667,4,2,1,50,0,0
210421,-166.666666666667,4,2,1,5,0,0
210511,-166.666666666667,4,2,1,50,0,0
215572,-166.666666666667,4,2,1,60,0,0
216204,-166.666666666667,4,2,1,5,0,0
216295,-166.666666666667,4,2,1,60,0,0
216927,-166.666666666667,4,2,1,5,0,0
217017,-142.857142857143,4,2,1,60,0,0
217740,-111.111111111111,4,2,1,65,0,0
219909,-100,4,2,1,60,0,0
220632,-100,4,2,1,65,0,0
220813,-83.3333333333333,4,2,1,75,0,0
220993,-71.4285714285714,4,2,1,85,0,0
221174,-62.5,4,2,1,95,0,0
221355,-83.3333333333333,4,2,1,85,0,1
222439,-71.4285714285714,4,2,1,85,0,1
222710,-71.4285714285714,4,2,1,5,0,1
222801,-71.4285714285714,4,2,1,85,0,1
224969,-83.3333333333333,4,2,1,85,0,1
225331,-71.4285714285714,4,2,1,85,0,1
225692,-62.5,4,2,1,85,0,1
225963,-62.5,4,2,1,5,0,1
226054,-71.4285714285714,4,2,1,85,0,1
226325,-71.4285714285714,4,2,1,5,0,1
226415,-58.8235294117647,4,2,1,85,0,1
226686,-58.8235294117647,4,2,1,5,0,1
226776,-50,4,2,1,85,0,1
227048,-50,4,2,1,5,0,1
227138,-71.4285714285714,4,2,1,85,0,1
227861,-83.3333333333333,4,2,1,85,0,1
228584,-71.4285714285714,4,2,1,85,0,1
229126,-90.9090909090909,4,2,1,85,0,1
230029,-71.4285714285714,4,2,1,85,0,1
230572,-90.9090909090909,4,2,1,85,0,1
231475,-62.5,4,2,1,85,0,1
231746,-62.5,4,2,1,5,0,1
231837,-52.6315789473684,4,2,1,85,0,1
232108,-52.6315789473684,4,2,1,5,0,1
232198,-62.5,4,2,1,85,0,1
232469,-62.5,4,2,1,5,0,1
232560,-62.5,4,2,1,85,0,1
232921,-83.3333333333333,4,2,1,85,0,1
233644,-62.5,4,2,1,85,0,1
234005,-83.3333333333333,4,2,1,85,0,1
234367,-71.4285714285714,4,2,1,85,0,1
235090,-58.8235294117647,4,2,1,85,0,1
235451,-66.6666666666667,4,2,1,85,0,1
235722,-66.6666666666667,4,2,1,5,0,1
235813,-58.8235294117647,4,2,1,85,0,1
236355,-200,4,2,1,85,0,1
237078,-71.4285714285714,4,2,1,85,0,1
237801,-66.6666666666667,4,2,1,85,0,1
238704,-76.9230769230769,4,2,1,85,0,1
239427,-90.9090909090909,4,2,1,85,0,1
240150,-66.6666666666667,4,2,1,85,0,1
241144,-66.6666666666667,4,2,1,5,0,1
241234,-66.6666666666667,4,2,1,85,0,1
242138,-76.9230769230769,4,2,1,85,0,1
242409,-76.9230769230769,4,2,1,5,0,1
242499,-76.9230769230769,4,2,1,85,0,1
244487,-62.5,4,2,1,60,0,0
249909,-100,4,2,1,70,0,0
250270,-66.6666666666667,4,2,1,85,0,0
250813,-83.3333333333333,4,2,1,85,0,0
252258,-111.111111111111,4,2,1,50,0,0
252801,-83.3333333333333,4,2,1,50,0,0
253072,-83.3333333333333,4,2,1,5,0,0
253162,-111.111111111111,4,2,1,50,0,0
254517,-111.111111111111,4,2,1,5,0,0
254608,-111.111111111111,4,2,1,60,0,0
255331,-111.111111111111,4,2,1,60,0,0
255511,-90.9090909090908,4,2,1,70,0,0
255692,-76.9230769230769,4,2,1,80,0,0
255873,-66.6666666666667,4,2,1,90,0,0
256054,-76.9230769230769,4,2,1,70,0,0
256776,-90.9090909090909,4,2,1,70,0,0
257319,-100,4,2,1,70,0,0
258945,-76.9230769230769,4,2,1,70,0,0
259668,-90.9090909090909,4,2,1,70,0,0
260210,-100,4,2,1,70,0,0
261837,-76.9230769230769,4,2,1,70,0,0
262650,-76.9230769230769,4,2,1,5,0,0
262740,-76.9230769230769,4,2,1,70,0,0
262921,-90.9090909090909,4,2,1,70,0,0
263282,-100,4,2,1,70,0,0
264728,-76.9230769230769,4,2,1,70,0,0
265541,-76.9230769230769,4,2,1,5,0,0
265632,-76.9230769230769,4,2,1,70,0,0
265813,-90.9090909090909,4,2,1,70,0,0
266174,-100,4,2,1,70,0,0
267620,-76.9230769230769,4,2,1,70,0,0
268343,-90.9090909090909,4,2,1,70,0,0
268885,-100,4,2,1,70,0,0
270511,-76.9230769230769,4,2,1,70,0,0
271234,-90.9090909090909,4,2,1,70,0,0
271776,-100,4,2,1,70,0,0
273403,-111.111111111111,4,2,1,70,0,0
274849,-76.9230769230769,4,2,1,70,0,0
275391,-100,4,2,1,70,0,0
275933,-125,4,2,1,70,0,0
276295,-200,4,2,1,70,0,0
279186,-120.772946859903,4,2,0,70,0,0
279209,-120.772946859903,4,2,1,70,0,0
280903,428.571428571429,4,2,1,70,1,0
281292,666.666666666667,4,2,1,70,1,0
281625,-100,4,2,1,40,0,0

[Colours]
Combo1 : 217,123,163
Combo2 : 244,96,163
Combo3 : 191,99,241
Combo4 : 255,85,85

[HitObjects]
512,174,2507,5,0,1:2:0:0:
422,59,2688,2,0,B|404:97|404:97|423:177,1,120,8|0,0:0|0:0,0:0:0:0:
430,194,3042,6,0,B|408:146|346:141|346:141|301:184|318:243,1,207.999990478516,6|10,1:0|0:0,0:0:0:0:
408,307,3584,1,2,1:2:0:0:
277,344,3764,2,0,L|189:328,1,88.000002685547,2|2,0:0|1:2,0:0:0:0:
91,364,4126,1,10,0:0:0:0:
148,260,4307,6,0,P|153:221|139:174,1,80,2|0,0:0|1:2,0:0:0:0:
64,120,4668,1,2,0:0:0:0:
143,182,4849,1,10,0:0:0:0:
236,144,5029,1,2,1:2:0:0:
363,242,5210,2,0,P|376:194|369:150,1,80,2|0,0:1|1:2,0:0:0:0:
462,30,5572,2,0,P|449:78|456:122,1,80,10|2,0:0|0:0,0:0:0:0:
476,283,5933,6,0,B|489:230|445:189|445:189|383:194|361:242,1,207.999990478516,2|10,1:0|0:0,0:0:0:0:
392,328,6475,1,2,1:2:0:0:
264,322,6656,2,0,L|277:219,1,88.000002685547,2|2,0:0|1:2,0:0:0:0:
330,120,7017,1,10,0:0:0:0:
217,173,7198,6,0,P|169:178|128:165,1,80,2|0,0:0|1:2,0:0:0:0:
88,82,7560,1,2,0:0:0:0:
138,170,7740,1,10,0:0:0:0:
86,257,7921,1,2,1:2:0:0:
191,384,8102,2,0,P|181:329|190:283,1,80,2|2,0:1|1:2,0:0:0:0:
285,226,8463,2,0,P|286:265|277:304,1,80,10|2,0:0|0:0,0:0:0:0:
206,134,8825,6,0,B|314:94|297:174|407:138,1,207.999990478516,6|8,1:0|0:0,0:0:0:0:
494,97,9367,2,0,B|516:54|487:15|487:15|432:1|403:53,1,155.999992858887,2|0,1:0|0:0,0:0:0:0:
409,43,9728,1,2,1:2:0:0:
482,184,9909,2,0,L|461:292,1,88.000002685547,10|0,0:0|0:0,0:0:0:0:
356,360,10270,6,0,P|287:356|244:258,1,160,0|8,1:2|0:0,0:0:0:0:
343,183,10813,2,0,L|322:291,1,80,0|0,1:2|0:0,0:0:0:0:
186,369,11174,1,2,1:2:0:0:
147,281,11355,1,10,0:1:0:0:
203,203,11535,1,2,0:0:0:0:
84,115,11716,6,0,B|56:66|88:19|88:19|149:8|186:54,1,207.999990478516,2|8,1:0|0:0,0:0:0:0:
253,144,12258,2,0,B|293:171|293:171|406:147,1,155.999992858887,2|0,1:1|0:0,0:0:0:0:
417,144,12620,1,2,1:2:0:0:
511,21,12801,2,0,P|483:71|488:118,1,88.000002685547,10|0,0:1|0:0,0:0:0:0:
512,232,13162,6,0,B|424:212|460:289|360:270,1,160,0|8,1:2|0:0,0:0:0:0:
255,237,13704,1,2,1:2:0:0:
319,102,13885,2,0,P|333:145|334:189,1,80,2|2,0:1|1:2,0:0:0:0:
231,331,14246,2,0,P|233:291|246:253,1,80,10|8,0:0|0:3,0:0:0:0:
250,245,14517,1,8,0:3:0:0:
255,237,14608,6,0,B|233:285|171:290|171:290|126:247|143:188,1,207.999990478516,6|10,1:1|0:0,0:0:0:0:
222,152,15150,1,2,1:2:0:0:
177,39,15331,2,0,L|279:30,1,88.000002685547,2|2,0:0|1:2,0:0:0:0:
402,4,15692,1,10,0:0:0:0:
323,109,15873,6,0,P|306:157|314:194,1,80,2|0,0:0|1:2,0:0:0:0:
404,225,16234,1,2,0:0:0:0:
310,184,16415,1,10,0:0:0:0:
230,244,16596,1,2,1:2:0:0:
114,174,16776,2,0,P|105:127|117:82,1,80,2|0,0:1|1:2,0:0:0:0:
23,0,17138,2,0,P|28:39|19:78,1,80,10|0,0:0|0:0,0:0:0:0:
0,215,17499,6,0,B|22:263|84:268|84:268|129:225|112:166,1,207.999990478516,2|8,1:1|0:0,0:0:0:0:
36,134,18041,1,2,1:2:0:0:
203,117,18222,2,0,L|195:226,1,88.000002685547,2|2,0:0|1:2,0:0:0:0:
190,343,18584,1,10,0:0:0:0:
269,248,18764,6,0,P|321:232|369:238,1,80,2|0,0:0|1:2,0:0:0:0:
382,324,19126,1,2,0:0:0:0:
346,232,19307,1,10,0:0:0:0:
406,154,19487,1,2,1:2:0:0:
319,24,19668,2,0,P|275:8|230:8,1,80,2|10,0:0|0:3,0:0:0:0:
146,118,20029,2,0,P|185:115|222:100,1,80,6|4,0:3|0:3,0:0:0:0:
233,94,20301,1,4,0:3:0:0:
243,86,20391,6,0,B|176:125|192:200|192:200|229:229|238:280|238:280|315:231|265:151,1,360.000013732911,6|0,1:2|1:2,0:0:0:0:
506,21,21837,6,0,P|407:32|368:124,1,207.999990478516,8|0,0:0|1:2,0:0:0:0:
470,212,22379,2,0,P|387:197|323:253,1,160,8|0,0:3|0:0,0:0:0:0:
337,332,22921,2,0,P|309:315|278:309,1,64,4|0,0:3|0:0,0:0:0:0:
174,371,23282,6,0,L|161:291,2,80,6|0|0,1:2|1:2|1:2,0:0:0:0:
59,188,24367,2,0,P|82:129|26:55,1,132.00000402832,10|0,0:0|0:0,1:0:0:0:
32,58,24728,6,0,P|111:120|210:101,1,207.999990478516,8|0,0:0|1:2,0:0:0:0:
287,30,25270,2,0,P|295:108|349:164,1,160,8|0,0:3|0:0,0:0:0:0:
446,166,25813,2,0,P|402:229|405:304,1,103.999995239258,8|2,0:0|0:0,0:0:0:0:
442,354,26174,6,0,B|383:345|391:396|320:380,1,128,6|8,1:2|0:0,0:0:0:0:
247,321,26716,1,2,1:2:0:0:
247,321,26897,2,0,L|237:403,2,64,2|0|8,0:0|1:2|0:0,0:0:0:0:
180,258,27439,1,2,0:0:0:0:
94,309,27620,6,0,P|82:343|99:391,1,64,2|0,1:2|0:0,0:0:0:0:
142,208,27981,2,0,P|158:240|203:263,1,64,10|0,0:0|1:2,0:0:0:0:
106,102,28343,2,0,P|140:114|188:99,1,64,2|0,0:0|1:2,0:0:0:0:
252,47,28704,1,10,0:0:0:0:
167,111,28885,1,2,0:0:0:0:
272,172,29066,6,0,P|317:159|357:71,1,128,2|10,1:2|0:0,0:0:0:0:
335,9,29608,1,0,1:2:0:0:
446,7,29788,2,0,L|438:82,1,64,2|0,0:0|1:2,0:0:0:0:
501,156,30150,1,10,0:0:0:0:
439,70,30331,1,2,0:0:0:0:
342,107,30511,6,0,P|311:138|308:226,1,128,0|8,1:2|0:0,0:0:0:0:
381,269,31054,2,0,P|338:257|261:299,1,128,0|0,1:2|1:2,0:0:0:0:
250,371,31596,2,0,P|224:351|194:341,1,64,8|2,0:0|0:0,0:0:0:0:
78,374,31957,6,0,P|35:349|21:267,1,128,2|8,1:2|0:0,0:0:0:0:
126,241,32499,1,2,1:2:0:0:
126,241,32680,2,0,L|115:317,2,64,2|0|8,0:0|1:2|0:0,0:0:0:0:
45,187,33222,1,2,0:0:0:0:
142,147,33403,6,0,P|188:145|241:61,1,128,2|8,1:2|0:0,0:0:0:0:
182,4,33945,1,2,1:2:0:0:
182,4,34126,2,0,L|93:22,1,64,2|0,1:2|0:0,0:0:0:0:
239,86,34487,2,0,L|328:104,1,64,8|2,0:0|0:0,0:0:0:0:
467,48,34849,6,0,P|409:59|380:139,1,128,2|8,1:2|0:0,0:0:0:0:
423,194,35391,2,0,P|481:205|510:285,1,128,2|0,1:2|1:2,0:0:0:0:
481,348,35933,2,0,P|450:340|401:344,1,64,10|0,0:0|0:0,0:0:0:0:
296,371,36295,6,0,P|273:329|186:306,1,128,2|8,1:2|0:0,0:0:0:0:
154,222,36837,2,0,P|176:180|263:157,1,128,2|0,1:2|1:2,0:0:0:0:
311,79,37379,1,10,0:0:0:0:
311,79,37560,1,2,0:0:0:0:
157,19,37740,6,0,L|174:158,1,128,2|10,1:2|0:0,0:0:0:0:
89,230,38282,2,0,P|31:239|5:315,1,128,2|2,1:2|1:2,0:0:0:0:
112,384,38825,1,8,0:0:0:0:
112,384,39005,6,0,L|99:283,1,64,2|2,0:0|1:2,0:0:0:0:
89,230,39367,1,2,0:0:0:0:
186,315,39548,1,10,0:0:0:0:
186,315,39728,2,0,P|236:308|275:224,1,128,0|0,1:2|1:2,0:0:0:0:
232,160,40270,1,8,0:0:0:0:
277,248,40451,1,2,0:0:0:0:
326,141,40632,6,0,P|380:139|441:206,1,128,2|10,1:2|0:0,0:0:0:0:
509,62,41174,2,0,P|455:60|394:127,1,128,2|2,1:2|1:2,0:0:0:0:
378,256,41716,1,8,0:0:0:0:
424,340,41897,1,2,0:0:0:0:
424,340,41987,1,2,0:0:0:0:
424,340,42078,6,0,P|377:331|340:330,1,64,2|2,1:2|0:0,0:0:0:0:
253,374,42439,1,10,0:0:0:0:
187,317,42620,1,2,1:2:0:0:
0,363,42801,5,2,0:0:0:0:
88,382,42981,1,2,1:2:0:0:
109,292,43162,1,10,0:0:0:0:
19,273,43343,1,2,0:0:0:0:
92,181,43523,6,0,P|144:198|165:198,1,64,2|2,1:2|0:0,0:0:0:0:
214,101,43885,2,0,P|182:105|153:118,1,64,10|2,0:0|1:2,0:0:0:0:
206,262,44246,2,0,P|237:257|266:244,1,64,2|2,0:0|1:2,0:0:0:0:
325,151,44608,1,10,0:0:0:0:
266,244,44788,1,2,0:0:0:0:
397,284,44969,6,0,P|460:274|494:218,1,128,2|8,1:2|0:0,0:0:0:0:
451,142,45511,2,0,P|388:132|354:76,1,128,2|0,1:2|1:2,0:0:0:0:
406,0,46054,1,8,0:0:0:0:
354,81,46234,1,2,0:0:0:0:
269,19,46415,6,0,L|200:26,1,64,2|2,1:2|0:0,0:0:0:0:
197,26,46686,1,2,0:0:0:0:
188,28,46776,1,8,0:0:0:0:
111,120,46957,2,0,P|51:119|5:186,1,128,0|2,1:2|1:2,0:0:0:0:
79,269,47499,2,0,L|86:196,1,64,8|2,0:0|0:0,0:0:0:0:
20,348,47861,6,0,B|92:374|83:320|167:346,1,143.999995605469,6|0,1:2|0:0,0:0:0:0:
179,351,48222,1,8,0:0:0:0:
277,283,48403,1,0,1:2:0:0:
277,283,48493,1,0,1:2:0:0:
277,283,48584,2,0,P|259:220|237:127,1,143.999995605469,8|10,0:0|0:3,0:0:0:0:
370,363,49307,6,0,P|428:361|472:266,1,167.999994873047,6|0,1:2|1:2,0:0:0:0:
401,233,50029,1,8,0:0:0:0:
445,87,50391,1,2,3:0:0:0:
369,114,50572,1,0,3:0:0:0:
369,114,50752,2,0,P|324:122|264:75,2,111.999996582031,2|2|8,1:2|1:2|0:0,0:0:0:0:
369,114,51837,6,0,P|328:103|306:107,1,55.9999982910157,2|0,0:0|3:0,0:0:0:0:
230,189,52198,6,0,P|188:170|100:251,1,167.999994873047,2|0,1:2|1:2,0:0:0:0:
148,303,52921,1,10,0:0:0:0:
6,254,53282,1,0,3:0:0:0:
33,178,53463,1,0,3:0:0:0:
33,178,53644,2,0,P|55:136|48:58,2,111.999996582031,2|0|8,1:2|1:2|0:0,0:0:0:0:
33,178,54728,6,0,P|26:141|36:113,1,55.9999982910157,2|0,0:0|3:0,0:0:0:0:
141,34,55090,6,0,B|227:23|210:94|298:78,1,167.999994873047,6|0,1:2|1:2,0:0:0:0:
359,30,55813,1,8,0:0:0:0:
452,151,56174,1,2,3:0:0:0:
405,219,56355,1,2,3:0:0:0:
405,219,56535,2,0,P|390:254|401:340,2,111.999996582031,2|2|10,1:2|1:2|0:0,0:0:0:0:
405,219,57620,6,0,P|414:273|406:291,1,55.9999982910157,2|0,0:0|3:0,0:0:0:0:
311,344,57981,6,0,P|271:305|202:302,1,111.999996582031,2|2,1:2|0:0,0:0:0:0:
153,349,58523,1,2,1:2:0:0:
153,349,58704,1,8,0:0:0:0:
91,230,59066,1,2,3:0:0:0:
157,173,59246,1,0,3:0:0:0:
157,173,59427,2,0,P|187:191|273:197,1,111.999996582031,0|0,1:2|1:2,0:0:0:0:
322,135,59969,1,8,0:0:0:0:
322,135,60060,1,8,0:0:0:0:
322,135,60150,5,8,0:0:0:0:
429,98,60331,1,8,0:3:0:0:
497,159,60511,1,6,0:3:0:0:
478,237,60692,1,4,0:3:0:0:
512,372,60873,6,0,P|448:381|391:293,1,167.999994873047,6|0,1:2|1:2,0:0:0:0:
395,226,61596,1,8,0:0:0:0:
304,341,61957,1,2,3:0:0:0:
246,286,62138,1,0,3:0:0:0:
246,286,62319,2,0,P|198:273|128:284,2,111.999996582031,2|2|10,1:2|1:2|0:0,0:0:0:0:
136,280,63403,6,0,P|174:302|197:300,1,55.9999982910157,2|0,0:0|3:0,0:0:0:0:
297,202,63764,6,0,P|339:212|402:166,1,111.999996582031,0|2,1:2|0:0,0:0:0:0:
391,102,64307,1,0,1:2:0:0:
391,102,64487,1,10,0:0:0:0:
479,248,64849,1,0,3:0:0:0:
421,308,65029,1,0,3:0:0:0:
421,308,65210,2,0,P|374:287|305:305,1,111.999996582031,8|4,0:3|0:3,0:0:0:0:
316,298,65933,6,0,P|350:306|390:296,1,55.9999982910157,8|8,0:0|0:0,0:0:0:0:
445,224,66295,1,6,0:3:0:0:
249,147,66656,6,0,P|240:120|240:92,1,55.9999982910157,6|0,1:2|0:0,0:0:0:0:
259,9,67017,2,0,P|233:124|201:240,1,223.999993164063,6|10,1:2|0:3,0:0:0:0:
205,226,68102,6,0,P|167:213|137:216,1,55.9999982910157,6|0,1:2|0:0,0:0:0:0:
61,237,68463,2,0,P|88:238|156:208,1,96,6|0,1:2|0:0,0:0:0:0:
145,136,68825,2,0,L|140:90,3,32,8|8|8|8,0:0|0:0|0:0|0:0,0:0:0:0:
213,56,69186,1,10,0:0:0:0:
233,80,69276,1,8,0:0:0:0:
250,107,69367,1,10,0:0:0:0:
261,137,69457,1,8,0:0:0:0:
268,168,69548,6,0,P|236:220|260:323,1,143.999995605469,6|10,1:2|0:0,0:0:0:0:
335,346,70090,1,0,1:2:0:0:
210,375,70270,2,0,L|127:351,1,71.9999978027344,2|0,0:0|1:2,0:0:0:0:
43,384,70632,1,10,0:0:0:0:
140,355,70813,1,2,0:0:0:0:
55,273,70993,6,0,P|13:247|13:151,1,143.999995605469,0|8,1:2|0:0,0:0:0:0:
96,73,71535,2,0,B|167:55|154:116|231:98,1,143.999995605469,2|2,1:2|1:2,0:0:0:0:
334,47,72078,1,10,0:0:0:0:
231,98,72258,1,2,0:0:0:0:
348,157,72439,6,0,P|399:153|438:62,1,132.00000402832,6|0,1:2|0:0,0:0:0:0:
437,73,72801,1,8,0:0:0:0:
512,172,72981,1,0,1:2:0:0:
354,249,73162,2,0,B|343:205|343:205|362:146,1,88.000002685547,8|0,0:0|1:2,0:0:0:0:
467,291,73523,1,8,0:0:0:0:
354,249,73704,1,0,1:2:0:0:
236,362,73885,1,8,0:0:0:0:
236,362,74969,6,0,P|227:311|233:260,1,88.000002685547,8|8,0:0|0:3,0:0:0:0:
236,260,75240,1,4,0:3:0:0:
242,244,75331,6,0,B|157:233|169:297|67:279,1,176.000005371094,6|8,1:2|0:0,0:0:0:0:
7,182,75873,1,0,1:2:0:0:
144,106,76054,2,0,L|126:205,1,88.000002685547,2|0,0:0|1:2,0:0:0:0:
223,87,76415,2,0,B|242:49|232:11|232:11|180:3|135:47,1,155.999992858887,10|0,0:1|0:0,0:0:0:0:
181,160,76776,6,0,B|202:211|266:219|266:219|307:167|289:103,1,207.999990478516,2|10,1:0|0:0,0:0:0:0:
223,87,77319,1,0,1:2:0:0:
359,79,77499,2,0,B|369:53|366:28|366:28|332:35|315:65,1,103.999995239258,2|0,0:1|1:2,0:0:0:0:
273,235,77861,1,8,0:0:0:0:
293,126,78041,1,0,0:0:0:0:
381,250,78222,6,0,B|418:290|398:351|398:351|334:367|283:323,1,207.999990478516,2|10,1:0|0:0,0:0:0:0:
273,235,78764,1,0,1:2:0:0:
143,332,78945,2,0,P|193:311|239:318,1,88.000002685547,2|0,0:0|1:2,0:0:0:0:
45,209,79307,2,0,P|95:230|159:216,1,103.999995239258,10|0,0:0|0:0,0:0:0:0:
311,101,79668,6,2,B|230:78|230:147|137:120,1,180.000006866455,2|0,1:2|0:0,1:2:0:0:
112,50,80029,2,0,B|81:33|39:39|39:39|30:91|81:128,1,155.999992858887,10|0,0:1|0:0,0:0:0:0:
94,181,80391,2,0,B|45:205|36:253|36:253|85:304|159:263,1,192,2|0,1:0|0:0,0:0:0:0:
200,282,80752,2,8,B|189:338|234:383|234:383|308:365|310:273,1,227.999993911743,10|0,0:1|0:0,0:0:0:0:
276,186,81114,6,8,B|266:139|310:99|310:99|379:111|386:178,1,207.999990478516,2|8,1:0|0:0,0:0:0:0:
349,262,81656,1,0,1:2:0:0:
472,206,81837,2,0,L|486:113,1,88.000002685547,2|0,0:0|1:2,0:0:0:0:
350,14,82198,2,0,L|366:101,1,88.000002685547,8|0,0:0|0:0,0:0:0:0:
274,215,82560,6,8,B|248:271|185:266|185:266|153:217|176:171,1,207.999990478516,2|8,1:0|0:0,0:0:0:0:
195,68,83102,2,8,B|169:11|106:16|74:65|97:111,1,176.000005371094,0|0,1:2|1:2,0:0:0:0:
150,254,83644,2,0,P|172:216|172:163,1,88.000002685547,10|0,0:0|0:0,0:0:0:0:
30,291,84005,6,0,B|-5:318|9:382|9:382|72:398|120:334,1,207.999990478516,2|8,1:0|0:0,0:0:0:0:
150,254,84548,2,0,P|148:195|246:207,1,176.000005371094,2|2,1:2|1:2,0:0:0:0:
241,380,85090,2,0,B|226:338|226:338|244:273,1,88.000002685547,14|2,0:0|0:0,0:0:0:0:
387,136,85451,6,0,B|301:150|306:79|212:101,1,180.000006866455,6|0,1:2|0:0,0:0:0:0:
117,108,85813,2,0,B|57:70|76:9|76:9|131:-26|178:16,1,227.999993911743,10|0,0:1|0:0,0:0:0:0:
269,16,86174,2,0,B|318:-10|353:27|353:27|355:79|300:101,1,180.000006866455,10|0,0:1|0:0,0:0:0:0:
241,175,86535,2,0,B|239:211|206:219|206:219|175:203|182:164,1,120.000004577637,10|8,0:1|0:3,0:0:0:0:
193,152,86807,1,8,0:3:0:0:
211,144,86897,6,0,B|303:147|268:221|359:222,1,176.000005371094,6|8,1:0|0:0,0:0:0:0:
456,147,87439,1,0,1:2:0:0:
364,41,87620,2,0,B|335:28|303:41|303:41|289:89|337:127,1,120.000004577637,2|0,0:1|1:2,0:0:0:0:
359,222,87981,2,0,L|342:330,1,88.000002685547,8|0,0:0|0:0,0:0:0:0:
228,361,88343,6,0,B|179:398|129:372|129:372|116:309|167:272,1,207.999990478516,2|10,1:0|0:0,0:0:0:0:
253,272,88885,1,0,1:2:0:0:
196,118,89066,2,0,B|233:140|225:187|225:187|191:206|149:194,1,120.000004577637,2|0,0:1|1:2,0:0:0:0:
115,22,89427,2,0,B|198:0|174:72|285:37,1,155.999992858887,10|0,0:0|0:0,0:0:0:0:
347,12,89788,6,0,B|391:-33|458:-10|458:-10|473:59|419:100,1,240.000009155274,6|8,1:0|0:0,0:0:0:0:
321,198,90331,2,0,L|313:149,1,40,2|0,1:2|0:0,1:0:0:0:
435,292,90692,2,0,L|443:243,1,40,2|0,1:2|0:0,1:0:0:0:
296,343,91054,6,0,B|193:315|210:407|96:375,1,207.999990478516,6|0,1:2|1:2,0:0:0:0:
0,294,91596,1,8,0:0:0:0:
125,258,91776,2,0,B|172:209|145:148|145:148|72:137|37:188,1,240.000009155274,6|2,1:0|1:2,0:0:0:0:
127,337,92319,2,0,B|136:369|169:373|169:373|192:344|178:316,1,120.000004577637,10|10,0:1|0:0,0:0:0:0:
163,309,92590,1,8,0:0:0:0:
141,305,92680,6,0,B|208:279|208:279|222:240|222:240|281:218,1,176.000005371094,6|8,1:2|0:0,0:0:0:0:
415,258,93222,1,0,1:2:0:0:
393,101,93403,2,0,L|368:192,1,88.000002685547,2|0,0:0|1:2,0:0:0:0:
499,33,93764,1,8,0:0:0:0:
393,101,93945,1,2,0:0:0:0:
283,0,94126,6,0,B|239:-26|191:-2|191:-2|172:62|230:91,1,207.999990478516,2|10,1:0|0:0,0:0:0:0:
313,77,94668,1,0,1:2:0:0:
253,197,94849,2,0,B|228:252|172:262|172:262|135:222|160:163,1,180.000006866455,2|0,0:1|0:0,0:0:0:0:
158,170,95210,1,10,0:0:0:0:
229,90,95391,1,2,0:0:0:0:
78,44,95572,6,0,B|17:32|-21:93|-21:93|-6:166|98:170,1,240.000009155274,2|10,1:0|0:0,0:0:0:0:
161,293,96114,2,0,B|251:279|238:343|334:321,1,180.000006866455,2|0,1:2|0:0,0:0:0:0:
351,312,96475,1,2,1:2:0:0:
324,149,96656,1,10,0:0:0:0:
385,223,96837,1,2,0:0:0:0:
194,158,97017,5,2,1:2:0:0:
364,50,97198,1,2,0:0:0:0:
131,64,97379,1,10,0:0:0:0:
332,157,97560,1,10,0:0:0:0:
332,157,97650,1,8,0:0:0:0:
332,157,97740,5,10,0:0:0:0:
265,219,97921,1,8,0:3:0:0:
179,195,98102,1,4,0:3:0:0:
13,283,98282,1,8,0:0:0:0:
13,283,98373,1,8,0:0:0:0:
13,283,98463,6,0,P|62:266|89:161,1,160,6|2,1:2|1:2,0:0:0:0:
14,32,99005,2,0,B|5:70|5:70|22:125,1,80,10|2,0:0|0:0,0:0:0:0:
92,170,99367,1,2,1:2:0:0:
188,95,99548,2,0,L|281:110,1,80,10|2,0:0|0:0,0:0:0:0:
442,84,99909,6,0,P|391:83|350:193,1,160,2|2,1:2|1:2,0:0:0:0:
399,245,100451,2,0,P|450:244|491:354,1,160,10|2,0:0|1:2,0:0:0:0:
415,384,100993,2,0,L|318:371,1,80,8|0,0:0|0:0,0:0:0:0:
199,355,101355,5,0,1:2:0:0:
286,283,101535,1,2,0:0:0:0:
199,355,101716,1,2,1:2:0:0:
172,227,101897,2,0,L|195:102,1,120,8|0,0:0|0:0,0:0:0:0:
198,91,102258,1,2,1:2:0:0:
132,25,102439,1,10,0:0:0:0:
41,49,102620,1,2,0:0:0:0:
84,212,102801,5,2,1:2:0:0:
105,118,102981,1,2,0:0:0:0:
84,212,103162,1,2,1:2:0:0:
0,107,103343,2,0,B|-18:143|-18:143|1:253,1,120,10|0,0:0|0:0,0:0:0:0:
0,240,103704,1,2,1:2:0:0:
143,283,103885,2,0,P|183:263|235:262,1,80,14|2,0:0|0:0,0:0:0:0:
380,384,104246,6,0,P|310:320|332:206,1,191.999994140625,6|10,1:2|0:0,0:0:0:0:
417,160,104788,2,0,P|346:159|291:114,1,143.999995605469,2|2,1:2|1:2,0:0:0:0:
319,15,105331,2,0,P|288:33|252:39,1,71.9999978027344,8|2,0:0|0:0,0:0:0:0:
99,6,105692,5,8,0:0:0:0:
99,6,105873,1,0,1:2:0:0:
138,169,106054,2,0,B|171:61|171:61|122:100,1,167.999994873047,14|2,0:0|1:2,0:0:0:0:
73,228,106776,2,0,P|109:264|171:263,1,80,8|8,0:0|0:3,0:0:0:0:
148,270,107048,1,8,0:3:0:0:
159,267,107138,6,0,P|197:242|299:242,1,143.999995605469,6|8,1:2|0:0,0:0:0:0:
358,319,107680,1,0,0:0:0:0:
431,217,107861,2,0,L|444:309,1,71.9999978027344,0|0,1:2|1:2,0:0:0:0:
352,167,108222,2,0,P|385:137|431:129,1,71.9999978027344,8|0,0:0|0:0,0:0:0:0:
512,150,108584,5,0,1:2:0:0:
512,150,108764,1,0,1:2:0:0:
428,42,108945,1,8,0:0:0:0:
292,102,109126,2,0,B|203:74|214:163|110:130,1,191.999994140625,6|0,1:2|1:2,0:0:0:0:
0,3,109668,2,0,P|27:59|27:100,1,80,10|8,0:0|0:0,0:0:0:0:
28,90,109939,1,8,0:0:0:0:
24,103,110029,6,0,P|-1:147|32:249,1,143.999995605469,6|8,1:2|0:0,0:0:0:0:
105,287,110572,1,0,0:0:0:0:
177,188,110752,2,0,L|84:199,1,71.9999978027344,0|0,1:2|1:2,0:0:0:0:
239,271,111114,2,0,P|275:214|279:191,1,71.9999978027344,8|0,0:0|0:0,0:0:0:0:
245,116,111475,5,0,1:2:0:0:
245,116,111656,1,0,1:2:0:0:
365,205,111837,1,8,0:0:0:0:
331,348,112017,2,0,P|395:352|467:239,1,191.999994140625,6|0,1:2|1:2,0:0:0:0:
479,63,112560,2,0,L|461:146,1,80,10|8,0:0|0:3,0:0:0:0:
460,152,112831,1,8,0:3:0:0:
458,162,112921,5,6,1:2:0:0:
365,205,113102,1,2,0:0:0:0:
288,138,113282,2,0,P|321:117|360:110,1,71.9999978027344,10|2,0:0|0:0,0:0:0:0:
270,232,113644,1,0,1:2:0:0:
270,232,113825,1,2,1:2:0:0:
202,132,114005,2,0,P|214:95|239:64,1,71.9999978027344,10|0,0:0|0:0,0:0:0:0:
270,232,114367,5,0,1:2:0:0:
270,232,114548,1,0,1:2:0:0:
131,179,114728,1,8,0:0:0:0:
5,267,114909,2,0,B|109:247|79:323|187:298,1,191.999994140625,6|0,1:2|0:0,0:0:0:0:
314,166,115451,2,0,P|285:200|267:239,1,80,10|0,0:0|0:0,0:0:0:0:
274,365,115813,6,0,L|366:340,3,80,0|0|0|0,1:2|1:2|1:2|1:2,0:0:0:0:
489,229,117258,5,8,0:3:0:0:
489,229,117349,1,8,0:3:0:0:
489,229,117439,1,8,0:3:0:0:
372,258,117620,2,0,P|313:233|313:134,1,160,8|0,0:0|1:2,0:0:0:0:
419,102,118162,1,8,0:0:0:0:
419,102,118252,1,8,0:0:0:0:
419,102,118343,2,0,L|358:95,1,40,8|8,0:0|0:0,0:0:0:0:
304,145,118523,2,0,L|243:138,1,40,8|8,0:0|0:0,0:0:0:0:
170,55,118704,6,0,P|128:45|63:105,1,120,6|0,1:2|0:0,0:0:0:0:
74,105,119066,2,0,L|89:200,1,80,10|0,0:0|0:0,0:0:0:0:
41,286,119427,1,2,0:0:0:0:
86,184,119608,1,0,1:2:0:0:
127,330,119788,1,10,0:0:0:0:
241,230,119969,6,0,L|155:241,1,80,2|0,0:0|1:2,0:0:0:0:
274,328,120331,1,2,0:0:0:0:
349,232,120511,1,10,0:0:0:0:
274,328,120692,1,2,1:2:0:0:
383,384,120873,2,0,P|404:334|399:290,1,80,2|0,0:0|1:2,0:0:0:0:
443,202,121234,2,0,P|422:152|427:108,1,80,8|0,0:0|0:0,0:0:0:0:
507,45,121596,6,0,P|477:7|391:-2,1,120,2|0,1:2|0:0,0:0:0:0:
394,15,121957,2,0,L|311:-1,1,80,10|0,0:0|0:0,0:0:0:0:
223,67,122319,1,2,0:0:0:0:
315,0,122499,1,2,1:2:0:0:
272,140,122680,1,10,0:0:0:0:
129,78,122861,6,0,L|145:171,1,80,2|0,0:0|1:2,0:0:0:0:
83,269,123222,1,2,0:0:0:0:
142,156,123403,1,10,0:0:0:0:
83,269,123584,1,2,1:2:0:0:
253,238,123764,2,0,L|168:247,1,80,2|0,0:0|1:2,0:0:0:0:
250,359,124126,2,0,B|283:314|330:322|330:322|339:360|396:384,1,160,10|0,0:0|1:2,0:0:0:0:
510,321,124668,5,2,0:0:0:0:
435,216,124849,2,0,P|417:251|416:291,1,80,10|2,0:0|1:2,0:0:0:0:
316,136,125210,2,0,P|332:171|334:210,1,80,2|2,0:0|1:2,0:0:0:0:
484,88,125572,2,0,P|445:98|413:122,1,80,10|2,0:0|0:0,0:0:0:0:
261,46,125933,5,2,1:2:0:0:
316,136,126114,1,2,0:0:0:0:
333,0,126295,1,10,0:0:0:0:
228,130,126475,2,0,B|174:142|174:142|150:172|150:172|77:189,1,160,2|2,1:2|1:2,0:0:0:0:
23,56,127017,2,0,P|60:69|94:118,1,80,10|0,0:0|0:0,0:0:0:0:
30,261,127379,6,0,P|72:312|173:289,1,160,2|8,1:2|0:0,0:0:0:0:
290,251,127921,2,0,P|246:226|207:223,1,80,2|0,1:2|0:0,0:0:0:0:
264,338,128282,1,2,1:2:0:0:
386,248,128463,2,0,P|368:200|340:173,1,80,10|0,0:0|0:0,0:0:0:0:
239,128,128825,5,0,1:2:0:0:
348,179,129005,1,0,3:0:0:0:
299,53,129186,1,8,0:0:0:0:
138,159,129367,2,0,P|81:141|63:29,1,160,6|0,1:2|1:2,0:0:0:0:
224,12,129909,2,0,L|211:105,1,80,8|8,0:0|0:3,0:0:0:0:
225,111,130180,1,8,0:3:0:0:
239,127,130270,6,0,P|270:149|351:95,1,120,6|0,1:2|0:0,0:0:0:0:
339,93,130632,2,0,L|325:14,2,80,8|0|0,0:0|1:2|0:0,0:0:0:0:
470,158,131174,2,0,L|445:264,1,80,2|8,1:2|0:0,0:0:0:0:
312,221,131535,2,0,L|337:327,1,80,2|0,0:0|1:2,0:0:0:0:
502,381,131897,2,0,P|456:346|404:341,1,80,2|8,0:0|0:0,0:0:0:0:
279,372,132258,2,0,P|213:344|199:276,1,120,2|0,1:2|0:0,0:0:0:0:
206,281,132620,1,0,1:2:0:0:
115,372,132801,1,8,0:0:0:0:
81,247,132981,1,2,0:0:0:0:
172,156,133162,6,0,B|231:152|231:152|260:176|260:176|355:168,1,160,0|8,1:2|0:0,0:0:0:0:
435,30,133704,2,0,P|399:67|390:103,1,80,2|0,1:2|0:0,0:0:0:0:
389,232,134066,2,0,P|424:250|463:251,1,80,2|8,1:2|0:0,0:0:0:0:
309,57,134427,2,0,P|305:108|321:141,1,80,2|0,0:0|1:2,0:0:0:0:
443,159,134788,2,0,P|481:150|512:125,1,80,2|8,0:0|0:0,0:0:0:0:
297,218,135150,6,0,B|253:234|253:234|241:261|241:261|194:278,1,120,2|0,1:2|0:0,0:0:0:0:
176,287,135511,1,0,1:2:0:0:
87,208,135692,1,8,0:0:0:0:
149,106,135873,1,2,0:0:0:0:
302,140,136054,6,0,P|352:129|386:63,1,120,0|0,1:2|0:0,0:0:0:0:
379,60,136415,1,8,0:0:0:0:
470,158,136596,2,0,L|452:251,1,80,2|0,1:2|0:0,0:0:0:0:
335,241,136957,2,0,L|353:334,1,80,2|8,1:2|0:0,0:0:0:0:
230,353,137319,6,0,P|182:363|135:349,1,80,2|0,0:0|1:2,0:0:0:0:
90,260,137680,2,0,P|100:221|125:190,1,80,2|8,0:0|0:0,0:0:0:0:
257,171,138041,2,0,P|302:152|315:76,1,120,2|0,1:2|0:0,0:0:0:0:
304,69,138403,1,0,1:2:0:0:
182,116,138584,1,8,0:0:0:0:
59,43,138764,1,2,0:0:0:0:
59,43,138855,1,2,0:0:0:0:
59,43,138945,6,0,B|88:81|88:81|66:209,1,160,2|8,1:2|0:0,0:0:0:0:
153,304,139487,2,0,P|140:254|149:216,1,80,2|0,1:2|0:0,0:0:0:0:
310,293,139849,2,0,P|260:279|231:252,1,80,2|8,1:2|0:0,0:0:0:0:
384,238,140210,1,2,0:0:0:0:
492,355,140391,5,14,0:0:0:0:
384,238,140572,1,0,1:2:0:0:
471,154,140752,1,0,1:2:0:0:
410,91,140933,1,8,0:3:0:0:
410,91,141295,5,2,0:0:0:0:
298,183,141475,1,8,0:0:0:0:
149,110,141656,1,0,3:0:0:0:
149,110,141746,1,0,3:0:0:0:
149,110,141837,6,0,P|165:160|168:195,1,80,6|2,1:2|0:0,0:0:0:0:
132,337,142198,1,8,0:0:0:0:
298,183,142379,6,0,P|282:233|279:268,1,80,2|2,1:2|0:0,0:0:0:0:
303,354,142740,1,2,1:2:0:0:
380,239,142921,5,10,0:0:0:0:
445,337,143102,1,2,0:0:0:0:
498,232,143282,1,2,1:2:0:0:
279,260,143463,5,2,0:0:0:0:
254,340,143644,1,10,0:0:0:0:
336,320,143825,1,2,1:2:0:0:
182,208,144005,5,2,0:0:0:0:
143,224,144186,1,2,1:2:0:0:
177,248,144367,1,10,0:0:0:0:
151,112,144548,1,2,0:0:0:0:
271,8,144728,6,0,B|360:-9|332:52|423:32,1,160,6|8,1:2|0:0,0:0:0:0:
497,98,145270,1,0,1:2:0:0:
381,178,145451,2,0,L|391:108,1,55.9999982910157,8|8,0:0|0:3,0:0:0:0:
460,238,145813,1,4,0:3:0:0:
381,178,145993,1,4,0:3:0:0:
267,269,146174,6,0,B|230:347|146:337|146:337|119:257|167:208,1,287.999991210938,6|8,1:2|0:3,0:0:0:0:
253,188,147439,1,2,0:0:0:0:
356,260,147620,6,0,L|345:327,1,64,6|0,1:2|1:2,0:0:0:0:
345,323,148162,1,2,0:0:0:0:
416,370,148343,2,0,L|483:359,1,64,2|0,1:2|1:2,0:0:0:0:
479,359,148885,1,0,0:0:0:0:
500,288,149066,2,0,P|502:263|501:249,1,32,2|0,1:2|0:0,0:0:0:0:
501,256,149427,1,2,1:2:0:0:
452,199,149608,1,2,0:0:0:0:
381,229,149788,2,0,P|361:229|342:228,1,32,2|0,1:2|3:0,0:0:0:0:
277,203,150150,2,0,P|257:203|238:204,1,32,2|0,1:2|3:0,0:0:0:0:
178,259,150511,6,0,L|190:333,1,64,2|2,1:2|1:2,0:0:0:0:
188,322,151054,1,2,0:0:0:0:
121,364,151234,2,0,L|47:352,1,64,2|2,1:2|1:2,0:0:0:0:
57,353,151776,1,2,0:0:0:0:
16,289,151957,2,0,P|13:256|15:218,1,64,0|0,1:2|1:2,0:0:0:0:
76,177,152499,2,0,L|73:146,1,32,0|0,3:0|1:2,0:0:0:0:
72,145,152861,2,0,L|69:114,1,32,0|0,3:0|1:2,0:0:0:0:
68,113,153222,1,2,0:0:0:0:
144,73,153403,6,0,L|213:90,1,64,2|0,1:2|1:2,0:0:0:0:
206,88,153945,1,2,0:0:0:0:
285,76,154126,2,0,L|302:145,1,64,2|0,1:2|1:2,0:0:0:0:
300,138,154668,1,2,0:0:0:0:
366,187,154849,2,0,P|402:172|441:172,1,64,0|0,1:2|1:2,0:0:0:0:
426,170,155391,1,2,0:0:0:0:
457,246,155572,2,0,P|421:261|382:261,1,64,0|0,1:2|1:2,0:0:0:0:
397,263,156114,1,2,0:0:0:0:
321,310,156295,6,0,L|330:384,2,64,2|2|0,1:2|1:2|1:2,0:0:0:0:
263,256,157198,1,2,0:0:0:0:
263,256,157379,2,0,L|223:252,1,32,2|2,1:2|0:0,0:0:0:0:
172,304,157740,2,0,P|155:271|156:238,1,64,0|0,1:2|1:2,0:0:0:0:
204,183,158282,2,0,L|205:164,2,16,0|0|0,3:0|3:0|3:0,0:0:0:0:
204,183,158644,1,0,3:0:0:0:
273,133,158825,1,2,3:0:0:0:
136,62,159186,6,0,P|96:63|59:78,1,80,6|0,1:2|1:2,0:0:0:0:
56,156,159728,2,0,L|48:203,1,40,2|0,0:0|1:2,0:0:0:0:
23,272,160090,2,0,L|31:319,1,40,2|0,0:0|1:2,0:0:0:0:
101,345,160451,2,0,P|121:334|150:331,1,40,2|0,3:0|1:2,0:0:0:0:
211,360,160813,1,2,0:0:0:0:
262,299,160993,2,0,L|249:215,2,80,0|0|0,1:2|1:2|1:2,0:0:0:0:
334,331,161897,1,2,0:0:0:0:
403,286,162078,6,0,P|413:250|408:197,1,80,2|2,1:2|1:2,0:0:0:0:
359,149,162620,2,0,L|307:156,1,40,2|0,0:0|1:2,0:0:0:0:
263,98,162981,2,0,L|267:72,2,20,2|0|0,0:0|3:0|1:2,0:0:0:0:
206,154,163343,2,0,P|174:127|131:124,1,80,2|2,3:0|0:0,0:0:0:0:
78,179,163885,2,0,L|85:228,1,40,2|2,1:2|0:0,0:0:0:0:
103,295,164246,1,2,1:2:0:0:
103,295,164427,1,2,3:0:0:0:
175,254,164608,1,2,1:2:0:0:
175,254,164788,1,2,0:0:0:0:
246,300,164969,6,0,L|239:348,1,40,2|2,1:2|0:0,0:0:0:0:
317,353,165331,2,0,L|322:313,1,40,2|2,1:2|0:0,0:0:0:0:
297,238,165692,2,0,P|273:217|262:154,1,80,2|2,1:2|1:2,0:0:0:0:
305,103,166234,1,2,3:0:0:0:
239,56,166415,2,0,L|142:70,2,80,0|0|0,1:2|1:2|1:2,0:0:0:0:
305,103,167319,1,2,0:0:0:0:
305,103,167499,2,0,L|363:94,1,40,2|2,1:2|0:0,0:0:0:0:
396,41,167861,6,0,P|412:59|426:86,1,40,2|0,1:2|0:0,0:0:0:0:
402,154,168222,2,0,P|385:185|382:218,1,47.9999985351563,0|2,1:2|0:0,0:0:0:0:
424,273,168584,2,0,P|446:298|456:341,1,55.9999982910157,0|2,1:2|0:0,0:0:0:0:
452,330,168855,1,0,3:0:0:0:
449,339,168945,1,0,1:2:0:0:
382,384,169126,1,2,3:0:0:0:
306,330,169307,6,0,L|222:347,1,71.9999978027344,0|0,1:2|0:0,0:0:0:0:
159,292,169668,2,0,L|138:192,1,88.000002685547,0|0,1:2|0:0,0:0:0:0:
193,128,170029,2,0,P|253:122|360:85,1,160,8|8,0:0|0:3,0:0:0:0:
347,91,170752,6,0,P|325:129|319:210,2,111.999996582031,6|2|10,1:2|0:0|0:0,0:0:0:0:
316,195,171837,2,0,P|326:165|322:125,1,55.9999982910157,2|0,1:2|3:0,0:0:0:0:
251,78,172198,2,0,P|207:73|125:81,1,111.999996582031,2|2,0:0|1:2,0:0:0:0:
102,215,172921,2,0,P|146:220|228:212,1,111.999996582031,10|2,0:0|0:0,0:0:0:0:
322,314,173644,6,0,P|365:309|442:341,2,111.999996582031,2|2|10,1:2|0:0|0:0,0:0:0:0:
429,330,174728,2,0,P|396:329|363:307,1,55.9999982910157,2|0,1:2|3:0,0:0:0:0:
349,225,175090,2,0,P|353:178|368:105,2,111.999996582031,0|0|8,3:0|1:2|0:0,0:0:0:0:
349,225,175993,1,2,0:0:0:0:
272,187,176174,1,2,0:0:0:0:
192,224,176355,1,2,0:0:0:0:
101,166,176535,6,0,P|95:132|110:40,1,111.999996582031,2|2,1:2|0:0,0:0:0:0:
104,55,177078,1,2,0:0:0:0:
191,54,177258,2,0,L|267:39,1,55.9999982910157,10|2,0:0|0:0,0:0:0:0:
321,73,177620,1,4,3:0:0:0:
321,73,177801,2,0,P|356:55|429:77,1,111.999996582031,10|8,0:0|0:0,0:0:0:0:
440,163,178343,2,0,P|416:197|419:268,2,111.999996582031,2|10|2,1:2|0:0|0:0,0:0:0:0:
440,163,179427,6,0,P|422:200|437:270,2,111.999996582031,2|2|10,1:2|0:0|0:0,0:0:0:0:
435,267,180511,2,0,P|430:220|418:199,1,55.9999982910157,2|8,1:2|0:0,0:0:0:0:
324,182,180873,2,0,P|285:175|199:183,1,111.999996582031,2|0,0:0|1:2,0:0:0:0:
78,318,181596,1,12,0:0:0:0:
78,318,181957,1,8,0:0:0:0:
121,240,182138,1,8,0:0:0:0:
32,171,182319,6,0,P|23:138|42:58,1,111.999996582031,6|2,1:2|0:0,0:0:0:0:
38,63,182861,1,2,0:0:0:0:
122,37,183041,2,0,L|185:54,1,55.9999982910157,8|2,0:0|0:0,0:0:0:0:
259,29,183403,1,0,1:2:0:0:
259,29,183584,2,0,P|268:63|246:150,1,111.999996582031,10|8,0:0|0:0,0:0:0:0:
208,209,184126,2,0,P|154:196|85:224,2,111.999996582031,2|8|2,1:2|0:0|0:0,0:0:0:0:
341,319,185210,6,0,P|394:331|463:303,1,111.999996582031,2|2,1:2|0:0,0:0:0:0:
466,240,185752,1,2,0:0:0:0:
466,240,185933,2,0,L|455:178,1,55.9999982910157,8|2,0:0|0:0,0:0:0:0:
481,109,186295,1,0,1:2:0:0:
481,109,186475,2,0,P|428:96|355:98,1,111.999996582031,10|10,0:0|0:0,0:0:0:0:
319,160,187017,2,0,P|293:125|302:51,1,111.999996582031,0|8,1:2|0:0,0:0:0:0:
297,59,187560,1,2,0:0:0:0:
229,108,187740,2,0,L|162:101,1,55.9999982910157,10|2,0:3|0:0,0:0:0:0:
69,33,188102,6,0,P|90:133|94:182,1,128,6|2,1:2|1:2,0:0:0:0:
39,319,188825,1,8,0:0:0:0:
39,319,189005,1,8,0:0:0:0:
122,288,189186,1,8,0:0:0:0:
122,288,189367,1,8,0:0:0:0:
200,363,189548,6,0,P|208:299|223:237,1,128,6|2,1:2|1:2,0:0:0:0:
287,95,190270,1,8,0:0:0:0:
348,157,190451,1,0,1:2:0:0:
459,133,190632,1,8,0:0:0:0:
487,309,190993,6,0,B|409:291|433:362|329:335,1,160,6|8,1:2|0:0,0:0:0:0:
267,252,191535,1,0,1:2:0:0:
163,290,191716,2,0,P|179:330|173:383,1,80,2|0,0:0|1:2,0:0:0:0:
69,384,192078,2,0,P|53:344|59:291,1,80,10|0,0:0|0:0,0:0:0:0:
63,192,192439,6,0,B|104:168|104:168|239:189,1,160,0|8,1:2|0:0,0:0:0:0:
297,86,192981,2,0,B|256:110|256:110|121:89,1,160,0|0,1:2|1:2,0:0:0:0:
97,5,193523,2,0,B|208:22,1,80,8|0,0:0|0:0,0:0:0:0:
322,6,193885,6,0,P|386:3|473:103,1,191.999994140625,14|0,0:0|0:0,0:0:0:0:
421,181,194427,2,0,P|361:187|313:268,1,143.999995605469,8|0,0:3|0:0,0:0:0:0:
356,342,194969,2,0,L|423:331,1,47.9999985351563,4|0,0:3|0:0,0:0:0:0:
225,353,195331,6,0,P|212:304|218:254,1,80,14|8,0:0|0:3,0:0:0:0:
242,180,195692,1,4,0:3:0:0:
112,297,195873,6,0,P|125:248|119:198,1,80,14|8,0:0|0:3,0:0:0:0:
87,101,196234,1,4,0:3:0:0:
242,180,196415,1,8,0:0:0:0:
361,60,196596,6,0,B|345:111|345:111|359:151|359:151|333:246,1,160,6|8,1:2|0:0,0:0:0:0:
306,355,197138,1,8,0:0:0:0:
419,234,197319,1,0,1:2:0:0:
227,313,197499,2,0,P|163:307|37:317,1,167.999994873047,14|0,0:0|0:0,0:0:0:0:
0,384,198222,5,2,0:0:0:0:
6,367,199668,5,2,0:0:0:0:
12,350,201114,5,2,0:0:0:0:
82,233,202560,5,2,0:0:0:0:
123,319,203282,5,2,0:0:0:0:
296,366,204005,5,2,0:0:0:0:
292,384,204367,1,2,0:0:0:0:
300,348,204728,1,2,0:0:0:0:
199,266,205451,5,2,0:0:0:0:
204,291,205813,1,2,0:0:0:0:
193,240,206174,1,2,0:0:0:0:
323,187,206897,5,2,0:0:0:0:
314,229,207258,1,2,0:0:0:0:
333,142,207620,1,2,0:0:0:0:
221,98,208343,5,2,0:0:0:0:
233,154,208704,1,2,0:0:0:0:
207,37,209066,1,2,0:0:0:0:
333,142,209427,1,2,3:0:0:0:
78,225,209788,6,0,B|169:208|152:278|237:258,1,167.999994873047,6|0,1:2|0:0,0:0:0:0:
252,253,210511,2,0,P|213:262|175:359,1,143.999995605469,10|2,0:0|0:0,0:0:0:0:
172,349,211234,1,2,0:0:0:0:
362,283,211596,2,0,L|353:226,1,47.9999985351563,2|0,1:2|0:0,0:0:0:0:
396,371,211957,2,0,L|379:265,1,95.9999970703126,8|2,0:0|0:0,0:0:0:0:
381,276,212499,1,0,0:0:0:0:
474,173,212680,6,0,P|455:144|393:102,1,95.9999970703126,2|2,1:2|0:0,0:0:0:0:
406,107,213222,1,2,0:0:0:0:
472,38,213403,2,0,P|426:65|332:71,1,143.999995605469,8|2,0:0|0:0,0:0:0:0:
337,72,214126,1,2,0:0:0:0:
225,92,214487,2,0,P|231:117|232:147,1,47.9999985351563,0|0,1:2|0:0,0:0:0:0:
206,3,214849,2,0,P|224:37|242:110,1,95.9999970703126,8|2,0:0|0:0,0:0:0:0:
239,92,215391,1,2,0:0:0:0:
166,201,215572,6,0,P|117:223|95:335,1,167.999994873047,6|0,1:2|0:0,0:0:0:0:
97,342,216295,2,0,P|98:307|-11:226,1,167.999994873047,10|0,0:0|0:0,0:0:0:0:
0,238,217017,6,0,L|69:236,1,55.9999982910157,2|0,1:2|0:0,0:0:0:0:
187,304,217379,2,0,L|256:302,1,55.9999982910157,10|0,0:0|0:0,0:0:0:0:
372,351,217740,2,0,L|427:349,3,35.9999989013672,8|8|8|8,0:0|0:0|0:0|0:0,0:0:0:0:
356,253,218102,1,10,0:0:0:0:
340,220,218192,1,8,0:0:0:0:
332,185,218282,1,10,0:0:0:0:
332,149,218373,1,8,0:0:0:0:
340,115,218463,6,0,P|282:158|199:147,1,143.999995605469,6|10,1:2|0:0,0:0:0:0:
132,51,219005,2,0,P|140:122|80:195,1,143.999995605469,2|2,1:2|1:2,0:0:0:0:
0,176,219548,2,0,P|22:208|29:241,1,71.9999978027344,10|2,0:0|0:0,0:0:0:0:
7,363,219909,5,2,1:2:0:0:
7,363,220090,1,0,1:2:0:0:
127,283,220270,1,0,1:2:0:0:
127,283,220451,1,0,1:2:0:0:
235,361,220632,6,0,L|293:350,1,40,8|8,0:0|0:0,0:0:0:0:
315,248,220813,2,0,L|268:240,1,47.9999985351563,10|8,0:0|0:0,0:0:0:0:
210,384,220993,2,0,L|268:373,1,55.9999982910157,10|8,0:0|0:0,0:0:0:0:
353,228,221174,2,0,L|290:216,1,64,10|8,0:0|0:0,0:0:0:0:
442,360,221355,6,0,P|507:331|478:219,1,191.999994140625,6|8,1:2|0:0,0:0:0:0:
353,228,221897,1,0,1:2:0:0:
448,80,222078,2,0,L|428:184,1,95.9999970703126,2|0,0:0|1:2,0:0:0:0:
249,102,222439,2,0,B|219:63|239:21|239:21|296:24|320:78,1,167.999994873047,10|0,0:1|0:0,0:0:0:0:
325,139,222801,6,0,B|341:193|290:240|290:240|210:220|202:125,1,223.999993164063,2|10,1:0|0:0,0:0:0:0:
249,102,223343,1,0,1:2:0:0:
125,146,223523,2,0,B|94:137|74:162|74:162|94:186|132:181,1,111.999996582031,2|0,0:1|1:2,0:0:0:0:
211,170,223885,1,10,0:0:0:0:
136,46,224066,1,0,0:0:0:0:
26,185,224246,6,0,B|-12:244|36:305|36:305|108:307|157:238,1,223.999993164063,2|8,1:0|0:0,0:0:0:0:
122,181,224788,1,0,1:2:0:0:
231,304,224969,2,0,P|177:288|125:302,1,95.9999970703126,2|0,0:0|1:2,0:0:0:0:
358,172,225331,2,0,P|304:188|246:170,1,111.999996582031,10|0,0:0|0:0,0:0:0:0:
92,51,225692,6,2,B|186:30|172:94|278:67,1,192,2|0,1:2|0:0,1:2:0:0:
338,10,226054,2,0,B|377:-33|434:-6|434:-6|446:37|424:68,1,167.999994873047,10|0,0:1|0:0,0:0:0:0:
423,134,226415,2,0,B|492:151|498:224|498:224|461:262|414:261,1,204.000003890991,2|0,1:0|0:0,0:0:0:0:
347,243,226776,2,0,B|372:332|294:386|294:386|235:376|192:304,1,240,10|0,0:1|0:0,0:0:0:0:
232,224,227138,6,0,B|252:176|206:124|206:124|142:132|125:194,1,223.999993164063,2|8,1:2|0:0,0:0:0:0:
147,294,227680,1,0,1:2:0:0:
31,224,227861,2,0,L|8:118,1,95.9999970703126,2|0,0:0|1:2,0:0:0:0:
174,8,228222,2,0,L|151:114,1,95.9999970703126,8|0,0:0|0:0,0:0:0:0:
232,224,228584,6,0,B|261:265|337:241|337:241|360:173|291:125,1,223.999993164063,2|10,1:0|0:0,0:0:0:0:
242,62,229126,2,0,P|258:-2|349:49,1,176.000005371094,0|0,1:2|1:2,0:0:0:0:
454,125,229668,2,0,L|439:235,1,88.000002685547,10|0,0:0|0:0,0:0:0:0:
399,354,230029,6,0,B|362:394|294:371|294:371|276:306|319:271,1,223.999993164063,2|10,1:0|0:0,0:0:0:0:
336,161,230572,2,0,P|259:138|230:214,1,176.000005371094,2|2,1:2|1:2,0:0:0:0:
296,369,231114,1,14,0:0:0:0:
320,270,231295,1,2,0:0:0:0:
141,141,231475,6,0,B|236:163|232:97|327:125,1,192,6|0,1:2|0:0,0:0:0:0:
397,198,231837,2,0,B|484:225|521:150|521:150|509:92|422:75,1,227.999993911743,10|0,0:1|0:0,0:0:0:0:
384,58,232198,2,0,B|372:-11|297:-11|297:-11|260:21|284:91,1,192,10|0,0:1|0:0,0:0:0:0:
235,129,232560,2,0,B|198:158|224:202|224:202|247:211|270:193,1,128,10|10,0:1|3:0,0:0:0:0:
280,181,232831,1,8,3:0:0:0:
286,161,232921,6,0,B|190:191|253:258|146:289,1,191.999994140625,6|8,1:2|0:0,0:0:0:0:
38,260,233463,1,0,1:2:0:0:
139,133,233644,2,0,B|127:89|82:82|82:82|49:104|46:158,1,128,2|0,0:1|1:2,0:0:0:0:
152,286,234005,2,0,L|259:264,1,95.9999970703126,8|0,0:0|0:0,0:0:0:0:
376,343,234367,2,0,B|433:403|508:378|508:378|526:299|461:266,1,223.999993164063,2|10,1:0|0:0,0:0:0:0:
417,242,234909,1,0,1:2:0:0:
399,112,235090,2,0,B|401:65|462:55|462:55|481:83|482:119,1,136.000002593994,2|0,0:1|1:2,0:0:0:0:
309,185,235451,2,0,B|218:212|239:137|135:168,1,180.000006866455,10|0,0:0|0:0,0:0:0:0:
24,209,235813,6,0,B|-63:282|2:384|2:384|76:393|117:336,1,272.000005187988,6|8,1:0|0:0,0:0:0:0:
179,239,236355,2,0,L|168:292,1,40,2|0,1:2|0:0,1:0:0:0:
52,89,236716,2,0,L|63:142,1,40,2|0,1:2|0:0,1:0:0:0:
207,82,237078,6,0,B|338:105|279:-9|454:36,1,223.999993164063,6|0,1:2|1:2,0:0:0:0:
512,137,237620,1,8,0:0:0:0:
414,257,237801,2,0,B|378:278|342:256|342:256|305:166|376:104,1,240.000009155274,6|2,1:0|1:2,0:0:0:0:
512,266,238343,2,0,B|544:299|531:332|531:332|498:348|474:330,1,120.000004577637,8|8,0:0|0:0,0:0:0:0:
478,322,238614,1,8,0:0:0:0:
476,297,238704,6,0,B|407:313|407:313|386:365|386:365|294:387,1,207.999990478516,6|8,1:0|0:0,0:0:0:0:
175,333,239246,1,0,1:2:0:0:
281,209,239427,2,0,L|268:320,1,88.000002685547,2|0,0:0|1:2,0:0:0:0:
400,133,239788,1,8,0:0:0:0:
281,209,239969,1,2,0:0:0:0:
190,82,240150,6,0,B|155:6|56:33|56:33|11:89|73:158,1,240.000009155274,2|10,1:0|0:0,0:0:0:0:
128,168,240692,1,0,1:2:0:0:
36,275,240873,2,0,B|21:305|46:332|46:332|120:352|147:292,1,180.000006866455,2|0,0:1|0:0,0:0:0:0:
145,280,241234,1,10,0:0:0:0:
242,369,241415,1,2,0:0:0:0:
369,265,241596,6,0,B|446:215|422:135|422:135|380:103|313:131,1,240.000009155274,2|10,1:0|0:0,0:0:0:0:
215,152,242138,2,0,P|126:135|125:60,1,155.999992858887,2|0,1:2|0:0,0:0:0:0:
130,60,242499,1,2,1:2:0:0:
49,176,242680,1,10,0:0:0:0:
130,60,242861,1,2,0:0:0:0:
211,193,243041,5,2,1:2:0:0:
311,65,243222,1,2,0:0:0:0:
136,147,243403,1,10,0:0:0:0:
304,156,243584,1,10,0:0:0:0:
304,156,243674,1,8,0:0:0:0:
304,156,243764,5,10,0:0:0:0:
211,193,243945,1,8,0:3:0:0:
196,292,244126,1,4,0:3:0:0:
274,354,244307,1,4,0:3:0:0:
460,281,244487,5,10,1:3:0:0:
366,317,245933,1,2,3:0:0:0:
274,354,247379,1,2,3:0:0:0:
196,292,248825,1,2,3:0:0:0:
196,292,249909,6,0,P|263:269|297:280,1,80,8|2,0:3|0:0,0:0:0:0:
477,384,250270,6,0,P|373:338|390:200,1,240.000009155274,6|10,1:2|0:0,0:0:0:0:
464,119,250813,2,0,P|375:145|299:91,1,191.999994140625,2|2,1:2|1:2,0:0:0:0:
284,7,251355,2,0,P|246:36|199:45,1,95.9999970703126,8|2,0:0|1:2,0:0:0:0:
50,16,251716,1,8,0:0:0:0:
50,16,252258,5,2,0:0:0:0:
50,16,252439,2,0,P|38:63|41:108,1,71.9999978027344,2|2,0:0|0:0,0:0:0:0:
96,199,252801,2,0,P|141:209|114:136,1,143.999995605469,2|0,0:0|0:0,0:0:0:0:
115,137,253162,6,0,B|110:46|208:-31|328:1|328:1|282:59|289:117|289:117|246:165|165:161,1,539.999983520508,2|0,0:0|0:0,0:0:0:0:
181,161,254608,5,8,0:0:0:0:
181,161,254788,1,0,1:2:0:0:
250,264,254969,1,8,0:0:0:0:
250,264,255150,1,0,1:2:0:0:
343,189,255331,6,0,L|403:180,1,35.9999989013672,8|8,0:0|0:0,0:0:0:0:
463,271,255511,2,0,L|403:280,1,44.0000013427735,8|8,0:0|0:0,0:0:0:0:
319,174,255692,2,0,L|379:165,1,51.999997619629,8|8,0:0|0:0,0:0:0:0:
476,283,255873,2,0,L|416:292,1,60.0000022888184,8|8,0:0|0:0,0:0:0:0:
497,121,256054,6,0,B|535:72|499:19|499:19|431:11|400:61,1,207.999990478516,6|10,1:0|0:0,0:0:0:0:
401,151,256596,1,2,1:2:0:0:
296,67,256776,2,0,L|196:55,1,88.000002685547,2|2,0:0|1:2,0:0:0:0:
75,49,257138,1,10,0:0:0:0:
171,134,257319,6,0,P|187:176|185:217,1,80,2|0,0:0|1:2,0:0:0:0:
100,272,257680,1,2,0:0:0:0:
186,210,257861,1,10,0:0:0:0:
282,254,258041,1,2,1:2:0:0:
364,109,258222,2,0,P|345:155|355:205,1,80,2|2,0:1|1:2,0:0:0:0:
298,329,258584,2,0,P|298:289|281:253,1,80,10|2,0:0|0:0,0:0:0:0:
254,89,258945,6,0,B|245:145|302:180|302:180|355:159|367:95,1,207.999990478516,2|10,1:0|0:0,0:0:0:0:
322,31,259487,1,2,1:2:0:0:
449,112,259668,2,0,L|434:210,1,88.000002685547,2|2,0:0|1:2,0:0:0:0:
452,349,260029,1,10,0:0:0:0:
357,270,260210,6,0,P|311:253|257:260,1,80,2|0,0:0|1:2,0:0:0:0:
227,340,260572,1,2,0:0:0:0:
280,253,260752,1,10,0:0:0:0:
232,163,260933,1,2,1:2:0:0:
363,68,261114,2,0,P|307:83|275:81,1,80,2|2,0:1|1:2,0:0:0:0:
154,148,261475,2,0,P|193:149|231:162,1,80,10|2,0:0|0:0,0:0:0:0:
357,270,261837,6,0,B|242:258|276:334|164:326,1,207.999990478516,6|8,1:0|0:0,0:0:0:0:
67,281,262379,2,0,B|4:307|16:368|16:368|49:385|84:379,1,155.999992858887,2|0,1:0|0:0,0:0:0:0:
82,375,262740,1,2,1:2:0:0:
165,235,262921,2,0,L|150:124,1,88.000002685547,10|0,0:0|0:0,0:0:0:0:
243,44,263282,6,0,P|289:23|378:102,1,160,0|8,1:2|0:0,0:0:0:0:
291,183,263825,2,0,L|295:96,1,80,0|0,1:2|0:0,0:0:0:0:
399,187,264186,1,2,1:2:0:0:
356,272,264367,1,10,0:1:0:0:
399,357,264548,1,2,0:0:0:0:
239,339,264728,6,0,B|186:334|156:277|156:277|200:221|257:233,1,207.999990478516,2|8,1:0|0:0,0:0:0:0:
344,163,265270,2,0,B|377:131|368:94|368:94|337:10,1,155.999992858887,2|0,1:2|0:0,0:0:0:0:
330,0,265632,1,2,1:2:0:0:
244,90,265813,2,0,P|199:106|151:100,1,88.000002685547,10|0,0:0|0:0,0:0:0:0:
36,11,266174,6,0,B|71:95|-1:81|40:167,1,160,0|8,1:2|0:0,0:0:0:0:
111,250,266716,1,2,1:2:0:0:
227,193,266897,2,0,P|192:173|152:167,1,80,2|0,0:1|1:2,0:0:0:0:
21,296,267258,2,0,P|60:290|95:270,1,80,10|8,0:0|1:3,0:0:0:0:
103,260,267529,1,8,0:3:0:0:
111,250,267620,6,0,B|86:299|114:353|114:353|174:352|209:281,1,207.999990478516,6|10,1:0|0:0,0:0:0:0:
227,193,268162,1,2,1:2:0:0:
281,321,268343,2,0,L|382:306,1,88.000002685547,2|2,0:0|1:2,0:0:0:0:
505,351,268704,1,10,0:0:0:0:
418,246,268885,6,0,P|409:173|416:148,1,80,2|0,0:0|1:2,0:0:0:0:
485,109,269246,1,2,0:0:0:0:
410,167,269427,1,10,0:0:0:0:
322,131,269608,1,2,1:2:0:0:
237,277,269788,2,0,P|252:219|248:192,1,80,2|2,0:1|1:2,0:0:0:0:
308,53,270150,2,0,P|307:92|321:130,1,80,10|2,0:0|0:0,0:0:0:0:
357,294,270511,6,0,B|358:246|306:207|306:207|243:225|232:297,1,207.999990478516,2|10,1:0|0:0,0:0:0:0:
286,367,271054,1,2,1:2:0:0:
139,325,271234,2,0,L|153:225,1,88.000002685547,2|2,0:0|1:2,0:0:0:0:
89,115,271596,1,10,0:0:0:0:
213,173,271776,6,0,P|260:178|306:161,1,80,2|0,0:0|1:2,0:0:0:0:
338,71,272138,1,2,0:0:0:0:
291,169,272319,1,10,0:0:0:0:
353,258,272499,1,2,1:2:0:0:
179,333,272680,2,0,P|221:310|271:306,1,80,2|10,0:1|0:3,0:0:0:0:
437,304,273041,2,0,P|397:296|363:275,1,80,6|6,0:3|0:3,0:0:0:0:
358,266,273313,1,4,0:3:0:0:
353,258,273403,6,0,B|357:182|275:118|176:145|176:145|214:193|208:241|208:241|244:281|311:277,1,431.999986816407,6|0,1:2|1:2,0:0:0:0:
482,19,274849,6,0,P|399:31|350:152,1,207.999990478516,10|0,0:0|0:0,0:0:0:0:
420,230,275391,2,0,P|351:193|273:211,1,160,8|0,0:3|0:0,0:0:0:0:
249,301,275933,2,0,P|228:276|201:259,1,64,4|0,0:3|0:0,0:0:0:0:
64,348,276295,6,0,L|48:256,3,80,6|0|0|0,1:2|1:2|1:2|1:2,0:0:0:0:
128,190,277740,5,8,0:0:0:0:
157,104,277921,1,8,0:3:0:0:
243,133,278102,1,4,0:3:0:0:
214,219,278282,1,4,0:3:0:0:
171,132,278463,5,8,0:3:0:0:
185,160,278644,1,4,0:3:0:0:
199,190,278825,1,4,0:3:0:0:
498,229,279186,6,0,B|466:165|539:137|554:55|511:-7|410:-46|361:55|361:55|281:12|151:59|193:222|321:243|305:212|410:180|461:285|462:340,1,894.239982534375,6|2,1:2|0:0,0:0:0:0:
